  0
SECTION
  2
HEADER
  9
$ACADVER
  1
AC1006
  9
$INSBASE
 10
72.108896
 20
168.569354
 30
0.0
  9
$EXTMIN
 10
72.108896
 20
168.569354
  9
$EXTMAX
 10
282.108896
 20
465.569354
  9
$LIMMIN
 10
72.108896
 20
168.569354
  9
$LIMMAX
 10
282.108896
 20
465.569354
  9
$VIEWCTR
 10
177.108896
 20
317.069354
  9
$VIEWSIZE
 40
297.000000
  9
$SNAPMODE
 70
     0
  9
$SNAPUNIT
 10
1.0
 20
1.0
  9
$SNAPBASE
 10
0.0
 20
0.0
  9
$SNAPANG
 50
0.0
  9
$SNAPSTYLE
 70
     0
  9
$SNAPISOPAIR
 70
     0
  9
$GRIDMODE
 70
     0
  9
$GRIDUNIT
 10
0.0
 20
0.0
  9
$ORTHOMODE
 70
     0
  9
$REGENMODE
 70
     1
  9
$FILLMODE
 70
     1
  9
$QTEXTMODE
 70
     0
  9
$DRAGMODE
 70
     2
  9
$LTSCALE
 40
15.000000
  9
$OSMODE
 70
     0
  9
$ATTMODE
 70
     1
  9
$TEXTSIZE
 40
0.2
  9
$TRACEWID
 40
0.05
  9
$TEXTSTYLE
  7
STANDARD
  9
$CLAYER
  8
CSLAYER3
  9
$CELTYPE
  6
BYLAYER
  9
$CECOLOR
 62
   256
  9
$DIMSCALE
 40
1.0
  9
$DIMASZ
 40
0.18
  9
$DIMEXO
 40
0.0625
  9
$DIMDLI
 40
0.38
  9
$DIMRND
 40
0.0
  9
$DIMDLE
 40
0.0
  9
$DIMEXE
 40
0.18
  9
$DIMTP
 40
0.0
  9
$DIMTM
 40
0.0
  9
$DIMTXT
 40
0.18
  9
$DIMCEN
 40
0.09
  9
$DIMTSZ
 40
0.0
  9
$DIMTOL
 70
     0
  9
$DIMLIM
 70
     0
  9
$DIMTIH
 70
     1
  9
$DIMTOH
 70
     1
  9
$DIMSE1
 70
     0
  9
$DIMSE2
 70
     0
  9
$DIMTAD
 70
     0
  9
$DIMZIN
 70
     0
  9
$DIMBLK
  1

  9
$LUNITS
 70
     2
  9
$LUPREC
 70
     4
  9
$AXISMODE
 70
     0
  9
$AXISUNIT
 10
0.0
 20
0.0
  9
$SKETCHINC
 40
0.1
  9
$FILLETRAD
 40
0.0
  9
$AUNITS
 70
     0
  9
$AUPREC
 70
     0
  9
$MENU
  1
ACAD
  9
$ELEVATION
 40
0.0
  9
$THICKNESS
 40
0.0
  9
$VIEWDIR
 10
0.0
 20
0.0
 30
1.0
  9
$LIMCHECK
 70
     0
  9
$BLIPMODE
 70
     1
  9
$CHAMFERA
 40
0.0
  9
$CHAMFERB
 40
0.0
  9
$FASTZOOM
 70
     1
  9
$SKPOLY
 70
     0
  9
$TDCREATE
 40
0.000000
  9
$TDUPDATE
 40
0.000000
  9
$TDINDWG
 40
0.0
  9
$TDUSRTIMER
 40
0.0
  9
$USRTIMER
 70
     1
  9
$ANGBASE
 50
0.0
  9
$ANGDIR
 70
     0
  9
$PDMODE
 70
     0
  9
$PDSIZE
 40
0.0
  9
$PLINEWID
 40
0.0
  9
$COORDS
 70
     0
  9
$USERI1
 70
     0
  9
$USERI2
 70
     0
  9
$USERI3
 70
     0
  9
$USERI4
 70
     0
  9
$USERI5
 70
     0
  9
$USERR1
 40
0.0
  9
$USERR2
 40
0.0
  9
$USERR3
 40
0.0
  9
$USERR4
 40
0.0
  9
$USERR5
 40
0.0
  0
ENDSEC
  0
SECTION
  2
TABLES
  0
TABLE
  2
LTYPE
 70
     9
  0
LTYPE
  2
CONTINUOUS
 70
    64
  3
Solid line
 72
    65
 73
     0
 40
0.0
  0
LTYPE
  2
DASHED
 70
    64
  3
__ __ __ __ __ __ __ __ __ __ __ __ __ __ __
 72
    65
 73
     2
 40
0.75
 49
0.5
 49
-0.25
  0
LTYPE
  2
HIDDEN
 70
    64
  3
_ _ _ _ _ _ _ _ _ _ _ _ _ _ _ _ _ _ _ _ _ _ _
 72
    65
 73
     2
 40
0.375
 49
0.25
 49
-0.125
  0
LTYPE
  2
DOT
 70
    64
  3
...............................................
 72
    65
 73
     2
 40
0.25
 49
0.0
 49
-0.25
  0
LTYPE
  2
DASHDOT
 70
    64
  3
__ . __ . __ . __ . __ . __ . __ . __ . __ . __
 72
    65
 73
     4
 40
1.0
 49
0.5
 49
-0.25
 49
0.0
 49
-0.25
  0
LTYPE
  2
DIVIDE
 70
    64
  3
__ . . __ . . __ . . __ . . __ . . __ . . __
 72
    65
 73
     6
 40
1.25
 49
0.5
 49
-0.25
 49
0.0
 49
-0.25
 49
0.0
 49
-0.25
  0
LTYPE
  2
CENTER
 70
    64
  3
____ _ ____ _ ____ _ ____ _ ____ _ ____ _ ____ 
 72
    65
 73
     4
 40
2.0
 49
1.25
 49
-0.25
 49
0.25
 49
-0.25
  0
LTYPE
  2
PHANTOM
 70
    64
  3
______  __  __  ______  __  __  ______  __  __ 
 72
    65
 73
     6
 40
2.5
 49
1.25
 49
-0.25
 49
0.25
 49
-0.25
 49
0.25
 49
-0.25
  0
LTYPE
  2
BORDER
 70
    64
  3
__ __ . __ __ . __ __ . __ __ . __ __ . __ __ .
 72
    65
 73
     6
 40
1.75
 49
0.5
 49
-0.25
 49
0.5
 49
-0.25
 49
0.0
 49
-0.25
  0
ENDTAB
  0
TABLE
  2
LAYER
 70
    16
  0
LAYER
  2
CSLAYER1
 70
    64
 62
     7
  6
CONTINUOUS
  0
LAYER
  2
CSLAYER2
 70
    64
 62
     7
  6
CONTINUOUS
  0
LAYER
  2
CSLAYER3
 70
    64
 62
     7
  6
CONTINUOUS
  0
LAYER
  2
CSLAYER4
 70
    64
 62
     7
  6
CONTINUOUS
  0
LAYER
  2
CSLAYER5
 70
    64
 62
     7
  6
CONTINUOUS
  0
LAYER
  2
CSLAYER6
 70
    64
 62
     7
  6
CONTINUOUS
  0
LAYER
  2
CSLAYER7
 70
    64
 62
     7
  6
CONTINUOUS
  0
LAYER
  2
CSLAYER8
 70
    64
 62
     7
  6
CONTINUOUS
  0
LAYER
  2
CSLAYER9
 70
    64
 62
     7
  6
CONTINUOUS
  0
LAYER
  2
CSLAYER10
 70
    64
 62
     7
  6
CONTINUOUS
  0
LAYER
  2
CSLAYER11
 70
    64
 62
     7
  6
CONTINUOUS
  0
LAYER
  2
CSLAYER12
 70
    64
 62
     7
  6
CONTINUOUS
  0
LAYER
  2
CSLAYER13
 70
    64
 62
     7
  6
CONTINUOUS
  0
LAYER
  2
CSLAYER14
 70
    64
 62
     7
  6
CONTINUOUS
  0
LAYER
  2
CSLAYER15
 70
    64
 62
     7
  6
CONTINUOUS
  0
LAYER
  2
CSLAYER16
 70
    64
 62
     7
  6
CONTINUOUS
  0
ENDTAB
  0
TABLE
  2
STYLE
 70
     1
  0
STYLE
  2
SX_FONT
 70
     0
 40
1.0
 41
1.0
 50
0.0
 71
     0
 42
1.0
  3
monotxt
  4
bigfont
  0
ENDTAB
  0
TABLE
  2
VIEW
 70
     0
  0
ENDTAB
  0
ENDSEC
  0
SECTION
  2
BLOCKS
  0
BLOCK
  8
CSLAYER1
  2
*D0000
 70
    65
 10
0.0
 20
0.0
 30
0.0
  0
LINE
  8
CSLAYER1
  6
CONTINUOUS
 62
     7
 10
43.632813
 20
168.046875
 11
43.632813
 21
173.235176
  0
LINE
  8
CSLAYER1
  6
CONTINUOUS
 62
     7
 10
133.632813
 20
168.046875
 11
133.632813
 21
173.235176
  0
LINE
  8
CSLAYER1
  6
CONTINUOUS
 62
     7
 10
43.632813
 20
172.235176
 11
133.632813
 21
172.235176
  0
LINE
  8
CSLAYER1
  6
CONTINUOUS
 62
     7
 10
43.632813
 20
172.235176
 11
47.496516
 21
173.270452
  0
LINE
  8
CSLAYER1
  6
CONTINUOUS
 62
     7
 10
43.632813
 20
172.235176
 11
47.496516
 21
171.199900
  0
LINE
  8
CSLAYER1
  6
CONTINUOUS
 62
     7
 10
133.632813
 20
172.235176
 11
129.769109
 21
173.270452
  0
LINE
  8
CSLAYER1
  6
CONTINUOUS
 62
     7
 10
133.632813
 20
172.235176
 11
129.769109
 21
171.199900
  0
TEXT
  8
CSLAYER1
 62
     7
 10
85.632813
 20
173.235168
 40
4.000000
 41
0.900000
  1
90
 50
0.000000
 51
0.000000
  7
SX_FONT
 72
     5
 11
91.632813
 21
173.235168
  0
ENDBLK
  8
0
  0
BLOCK
  8
CSLAYER1
  2
*D0001
 70
    65
 10
0.0
 20
0.0
 30
0.0
  0
LINE
  8
CSLAYER1
  6
CONTINUOUS
 62
     7
 10
139.632813
 20
132.046875
 11
144.866350
 21
132.046875
  0
LINE
  8
CSLAYER1
  6
CONTINUOUS
 62
     7
 10
139.632813
 20
162.046875
 11
144.866350
 21
162.046875
  0
LINE
  8
CSLAYER1
  6
CONTINUOUS
 62
     7
 10
143.866350
 20
132.046875
 11
143.866350
 21
162.046875
  0
LINE
  8
CSLAYER1
  6
CONTINUOUS
 62
     7
 10
143.866350
 20
132.046875
 11
142.831074
 21
135.910578
  0
LINE
  8
CSLAYER1
  6
CONTINUOUS
 62
     7
 10
143.866350
 20
132.046875
 11
144.901626
 21
135.910578
  0
LINE
  8
CSLAYER1
  6
CONTINUOUS
 62
     7
 10
143.866350
 20
162.046875
 11
142.831074
 21
158.183172
  0
LINE
  8
CSLAYER1
  6
CONTINUOUS
 62
     7
 10
143.866350
 20
162.046875
 11
144.901626
 21
158.183172
  0
TEXT
  8
CSLAYER1
 62
     7
 10
149.206772
 20
143.461868
 40
4.000000
 41
0.900000
  1
30
 50
90.000000
 51
0.000000
  7
SX_FONT
 72
     5
 11
149.206772
 21
149.461868
  0
ENDBLK
  8
0
  0
ENDSEC
  0
SECTION
  2
ENTITIES
  0
LINE
  8
CSLAYER2
  6
CONTINUOUS
 62
     7
 10
54.786921
 20
145.398854
 11
58.036068
 21
144.004922
  0
LINE
  8
CSLAYER2
  6
CONTINUOUS
 62
     7
 10
78.577464
 20
148.578527
 11
81.935086
 21
152.350314
  0
ARC
  8
CSLAYER2
  6
CONTINUOUS
 62
     7
 10
65.132813
 20
160.546875
 40
18.000000
 50
246.779946
 51
318.324717
  0
ARC
  8
CSLAYER2
  6
CONTINUOUS
 62
     7
 10
130.632813
 20
163.046875
 40
5.750000
 50
190.015410
 51
301.448981
  0
LINE
  8
CSLAYER2
  6
CONTINUOUS
 62
     7
 10
106.199211
 20
153.505544
 11
108.272060
 21
151.581149
  0
ARC
  8
CSLAYER2
  6
CONTINUOUS
 62
     7
 10
109.632813
 20
153.046875
 40
2.000000
 50
-132.873060
 51
8.299838
  0
LINE
  8
CSLAYER2
  6
CONTINUOUS
 62
     7
 10
43.632813
 20
138.046875
 11
43.632813
 21
132.046875
  0
LINE
  8
CSLAYER2
  6
CONTINUOUS
 62
     7
 10
43.632813
 20
132.046875
 11
133.632813
 21
132.046875
  0
LINE
  8
CSLAYER2
  6
CONTINUOUS
 62
     7
 10
133.632813
 20
132.046875
 11
133.632813
 21
158.141521
  0
LINE
  8
CSLAYER2
  6
CONTINUOUS
 62
     7
 10
124.970437
 20
162.046875
 11
110.632813
 21
160.046875
  0
LINE
  8
CSLAYER2
  6
CONTINUOUS
 62
     7
 10
110.632813
 20
160.046875
 11
111.611865
 21
153.335582
  0
ARC
  8
CSLAYER2
  6
CONTINUOUS
 62
     7
 10
94.632813
 20
141.046875
 40
17.000000
 50
47.126940
 51
90.000000
  0
ARC
  8
CSLAYER2
  6
CONTINUOUS
 62
     7
 10
94.632813
 20
141.046875
 40
17.000000
 50
90.000000
 51
138.324717
  0
ARC
  8
CSLAYER2
  6
CONTINUOUS
 62
     7
 10
51.632813
 20
138.046875
 40
8.000000
 50
66.779946
 51
90.000000
  0
ARC
  8
CSLAYER2
  6
CONTINUOUS
 62
     7
 10
51.632813
 20
138.046875
 40
8.000000
 50
90.000000
 51
180.000000
  0
TEXT
  8
CSLAYER1
 62
     7
 10
43.579254
 20
71.738358
 40
10.000000
 41
0.630000
  1
FM-2132
 50
0.000000
 51
0.000000
  7
SX_FONT
 72
     5
 11
85.579254
 21
71.738358
  0
DIMENSION
  8
CSLAYER1
 62
     7
  2
*D0000
 10
133.632813
 20
172.235176
 11
88.632813
 21
173.235168
 13
43.632813
 23
167.046875
 14
133.632813
 24
167.046875
 70
1
  0
DIMENSION
  8
CSLAYER1
 62
     7
  2
*D0001
 10
143.866350
 20
162.046875
 11
149.206772
 21
146.461868
 13
138.632813
 23
132.046875
 14
138.632813
 24
162.046875
 50
90.000000
 70
1
  0
TEXT
  8
CSLAYER1
 62
     7
 10
100.837395
 20
71.102745
 40
10.000000
 41
0.642857
  1
90x30
 50
0.000000
 51
0.000000
  7
SX_FONT
 72
     5
 11
130.837395
 21
71.102745
  0
TEXT
  8
CSLAYER1
 62
     7
 10
44.575020
 20
59.443169
 40
5.000000
 41
0.612766
  1
カタログ Vol. 1  P56
 50
0.000000
 51
0.000000
  7
SX_FONT
 72
     5
 11
92.575020
 21
59.443169
  0
TEXT
  8
CSLAYER1
 62
     7
 10
44.787512
 20
48.056800
 40
4.960742
 41
0.729057
  1
ホ%%dケットカタロク゛ Vol. 1 P29
 50
0.000000
 51
0.000000
  7
SX_FONT
 72
     5
 11
119.531870
 21
48.056800
  0
ENDSEC
  0
EOF
