  0
SECTION
  2
HEADER
  9
$ACADVER
  1
AC1006
  9
$INSBASE
 10
50.913047
 20
168.021773
 30
0.0
  9
$EXTMIN
 10
50.913047
 20
168.021773
  9
$EXTMAX
 10
260.913047
 20
465.021773
  9
$LIMMIN
 10
50.913047
 20
168.021773
  9
$LIMMAX
 10
260.913047
 20
465.021773
  9
$VIEWCTR
 10
155.913047
 20
316.521773
  9
$VIEWSIZE
 40
297.000000
  9
$SNAPMODE
 70
     0
  9
$SNAPUNIT
 10
1.0
 20
1.0
  9
$SNAPBASE
 10
0.0
 20
0.0
  9
$SNAPANG
 50
0.0
  9
$SNAPSTYLE
 70
     0
  9
$SNAPISOPAIR
 70
     0
  9
$GRIDMODE
 70
     0
  9
$GRIDUNIT
 10
0.0
 20
0.0
  9
$ORTHOMODE
 70
     0
  9
$REGENMODE
 70
     1
  9
$FILLMODE
 70
     1
  9
$QTEXTMODE
 70
     0
  9
$DRAGMODE
 70
     2
  9
$LTSCALE
 40
15.000000
  9
$OSMODE
 70
     0
  9
$ATTMODE
 70
     1
  9
$TEXTSIZE
 40
0.2
  9
$TRACEWID
 40
0.05
  9
$TEXTSTYLE
  7
STANDARD
  9
$CLAYER
  8
CSLAYER3
  9
$CELTYPE
  6
BYLAYER
  9
$CECOLOR
 62
   256
  9
$DIMSCALE
 40
1.0
  9
$DIMASZ
 40
0.18
  9
$DIMEXO
 40
0.0625
  9
$DIMDLI
 40
0.38
  9
$DIMRND
 40
0.0
  9
$DIMDLE
 40
0.0
  9
$DIMEXE
 40
0.18
  9
$DIMTP
 40
0.0
  9
$DIMTM
 40
0.0
  9
$DIMTXT
 40
0.18
  9
$DIMCEN
 40
0.09
  9
$DIMTSZ
 40
0.0
  9
$DIMTOL
 70
     0
  9
$DIMLIM
 70
     0
  9
$DIMTIH
 70
     1
  9
$DIMTOH
 70
     1
  9
$DIMSE1
 70
     0
  9
$DIMSE2
 70
     0
  9
$DIMTAD
 70
     0
  9
$DIMZIN
 70
     0
  9
$DIMBLK
  1

  9
$LUNITS
 70
     2
  9
$LUPREC
 70
     4
  9
$AXISMODE
 70
     0
  9
$AXISUNIT
 10
0.0
 20
0.0
  9
$SKETCHINC
 40
0.1
  9
$FILLETRAD
 40
0.0
  9
$AUNITS
 70
     0
  9
$AUPREC
 70
     0
  9
$MENU
  1
ACAD
  9
$ELEVATION
 40
0.0
  9
$THICKNESS
 40
0.0
  9
$VIEWDIR
 10
0.0
 20
0.0
 30
1.0
  9
$LIMCHECK
 70
     0
  9
$BLIPMODE
 70
     1
  9
$CHAMFERA
 40
0.0
  9
$CHAMFERB
 40
0.0
  9
$FASTZOOM
 70
     1
  9
$SKPOLY
 70
     0
  9
$TDCREATE
 40
0.000000
  9
$TDUPDATE
 40
0.000000
  9
$TDINDWG
 40
0.0
  9
$TDUSRTIMER
 40
0.0
  9
$USRTIMER
 70
     1
  9
$ANGBASE
 50
0.0
  9
$ANGDIR
 70
     0
  9
$PDMODE
 70
     0
  9
$PDSIZE
 40
0.0
  9
$PLINEWID
 40
0.0
  9
$COORDS
 70
     0
  9
$USERI1
 70
     0
  9
$USERI2
 70
     0
  9
$USERI3
 70
     0
  9
$USERI4
 70
     0
  9
$USERI5
 70
     0
  9
$USERR1
 40
0.0
  9
$USERR2
 40
0.0
  9
$USERR3
 40
0.0
  9
$USERR4
 40
0.0
  9
$USERR5
 40
0.0
  0
ENDSEC
  0
SECTION
  2
TABLES
  0
TABLE
  2
LTYPE
 70
     9
  0
LTYPE
  2
CONTINUOUS
 70
    64
  3
Solid line
 72
    65
 73
     0
 40
0.0
  0
LTYPE
  2
DASHED
 70
    64
  3
__ __ __ __ __ __ __ __ __ __ __ __ __ __ __
 72
    65
 73
     2
 40
0.75
 49
0.5
 49
-0.25
  0
LTYPE
  2
HIDDEN
 70
    64
  3
_ _ _ _ _ _ _ _ _ _ _ _ _ _ _ _ _ _ _ _ _ _ _
 72
    65
 73
     2
 40
0.375
 49
0.25
 49
-0.125
  0
LTYPE
  2
DOT
 70
    64
  3
...............................................
 72
    65
 73
     2
 40
0.25
 49
0.0
 49
-0.25
  0
LTYPE
  2
DASHDOT
 70
    64
  3
__ . __ . __ . __ . __ . __ . __ . __ . __ . __
 72
    65
 73
     4
 40
1.0
 49
0.5
 49
-0.25
 49
0.0
 49
-0.25
  0
LTYPE
  2
DIVIDE
 70
    64
  3
__ . . __ . . __ . . __ . . __ . . __ . . __
 72
    65
 73
     6
 40
1.25
 49
0.5
 49
-0.25
 49
0.0
 49
-0.25
 49
0.0
 49
-0.25
  0
LTYPE
  2
CENTER
 70
    64
  3
____ _ ____ _ ____ _ ____ _ ____ _ ____ _ ____ 
 72
    65
 73
     4
 40
2.0
 49
1.25
 49
-0.25
 49
0.25
 49
-0.25
  0
LTYPE
  2
PHANTOM
 70
    64
  3
______  __  __  ______  __  __  ______  __  __ 
 72
    65
 73
     6
 40
2.5
 49
1.25
 49
-0.25
 49
0.25
 49
-0.25
 49
0.25
 49
-0.25
  0
LTYPE
  2
BORDER
 70
    64
  3
__ __ . __ __ . __ __ . __ __ . __ __ . __ __ .
 72
    65
 73
     6
 40
1.75
 49
0.5
 49
-0.25
 49
0.5
 49
-0.25
 49
0.0
 49
-0.25
  0
ENDTAB
  0
TABLE
  2
LAYER
 70
    16
  0
LAYER
  2
CSLAYER1
 70
    64
 62
     7
  6
CONTINUOUS
  0
LAYER
  2
CSLAYER2
 70
    64
 62
     7
  6
CONTINUOUS
  0
LAYER
  2
CSLAYER3
 70
    64
 62
     7
  6
CONTINUOUS
  0
LAYER
  2
CSLAYER4
 70
    64
 62
     7
  6
CONTINUOUS
  0
LAYER
  2
CSLAYER5
 70
    64
 62
     7
  6
CONTINUOUS
  0
LAYER
  2
CSLAYER6
 70
    64
 62
     7
  6
CONTINUOUS
  0
LAYER
  2
CSLAYER7
 70
    64
 62
     7
  6
CONTINUOUS
  0
LAYER
  2
CSLAYER8
 70
    64
 62
     7
  6
CONTINUOUS
  0
LAYER
  2
CSLAYER9
 70
    64
 62
     7
  6
CONTINUOUS
  0
LAYER
  2
CSLAYER10
 70
    64
 62
     7
  6
CONTINUOUS
  0
LAYER
  2
CSLAYER11
 70
    64
 62
     7
  6
CONTINUOUS
  0
LAYER
  2
CSLAYER12
 70
    64
 62
     7
  6
CONTINUOUS
  0
LAYER
  2
CSLAYER13
 70
    64
 62
     7
  6
CONTINUOUS
  0
LAYER
  2
CSLAYER14
 70
    64
 62
     7
  6
CONTINUOUS
  0
LAYER
  2
CSLAYER15
 70
    64
 62
     7
  6
CONTINUOUS
  0
LAYER
  2
CSLAYER16
 70
    64
 62
     7
  6
CONTINUOUS
  0
ENDTAB
  0
TABLE
  2
STYLE
 70
     1
  0
STYLE
  2
SX_FONT
 70
     0
 40
1.0
 41
1.0
 50
0.0
 71
     0
 42
1.0
  3
monotxt
  4
bigfont
  0
ENDTAB
  0
TABLE
  2
VIEW
 70
     0
  0
ENDTAB
  0
ENDSEC
  0
SECTION
  2
BLOCKS
  0
BLOCK
  8
CSLAYER1
  2
*D0000
 70
    65
 10
0.0
 20
0.0
 30
0.0
  0
LINE
  8
CSLAYER1
  6
CONTINUOUS
 62
     7
 10
51.367188
 20
164.390625
 11
51.367188
 21
169.164650
  0
LINE
  8
CSLAYER1
  6
CONTINUOUS
 62
     7
 10
141.367188
 20
164.390625
 11
141.367188
 21
169.164650
  0
LINE
  8
CSLAYER1
  6
CONTINUOUS
 62
     7
 10
51.367188
 20
168.164650
 11
141.367188
 21
168.164650
  0
LINE
  8
CSLAYER1
  6
CONTINUOUS
 62
     7
 10
51.367188
 20
168.164650
 11
55.230891
 21
169.199927
  0
LINE
  8
CSLAYER1
  6
CONTINUOUS
 62
     7
 10
51.367188
 20
168.164650
 11
55.230891
 21
167.129374
  0
LINE
  8
CSLAYER1
  6
CONTINUOUS
 62
     7
 10
141.367188
 20
168.164650
 11
137.503484
 21
169.199927
  0
LINE
  8
CSLAYER1
  6
CONTINUOUS
 62
     7
 10
141.367188
 20
168.164650
 11
137.503484
 21
167.129374
  0
TEXT
  8
CSLAYER1
 62
     7
 10
93.367188
 20
169.164658
 40
4.000000
 41
0.900000
  1
90
 50
0.000000
 51
0.000000
  7
SX_FONT
 72
     5
 11
99.367188
 21
169.164658
  0
ENDBLK
  8
0
  0
BLOCK
  8
CSLAYER1
  2
*D0001
 70
    65
 10
0.0
 20
0.0
 30
0.0
  0
LINE
  8
CSLAYER1
  6
CONTINUOUS
 62
     7
 10
147.367188
 20
137.390625
 11
152.054267
 21
137.390625
  0
LINE
  8
CSLAYER1
  6
CONTINUOUS
 62
     7
 10
147.367188
 20
158.390625
 11
152.054267
 21
158.390625
  0
LINE
  8
CSLAYER1
  6
CONTINUOUS
 62
     7
 10
151.054267
 20
137.390625
 11
151.054267
 21
158.390625
  0
LINE
  8
CSLAYER1
  6
CONTINUOUS
 62
     7
 10
151.054267
 20
137.390625
 11
150.018991
 21
141.254328
  0
LINE
  8
CSLAYER1
  6
CONTINUOUS
 62
     7
 10
151.054267
 20
137.390625
 11
152.089543
 21
141.254328
  0
LINE
  8
CSLAYER1
  6
CONTINUOUS
 62
     7
 10
151.054267
 20
158.390625
 11
150.018991
 21
154.526922
  0
LINE
  8
CSLAYER1
  6
CONTINUOUS
 62
     7
 10
151.054267
 20
158.390625
 11
152.089543
 21
154.526922
  0
TEXT
  8
CSLAYER1
 62
     7
 10
155.847168
 20
144.468033
 40
4.000000
 41
0.900000
  1
21
 50
90.000000
 51
0.000000
  7
SX_FONT
 72
     5
 11
155.847168
 21
150.468033
  0
ENDBLK
  8
0
  0
ENDSEC
  0
SECTION
  2
ENTITIES
  0
ARC
  8
CSLAYER2
  6
CONTINUOUS
 62
     7
 10
141.367188
 20
158.390625
 40
5.750000
 50
180.000000
 51
270.000000
  0
LINE
  8
CSLAYER2
  6
CONTINUOUS
 62
     7
 10
63.582659
 20
151.722805
 11
65.364420
 21
150.282205
  0
LINE
  8
CSLAYER2
  6
CONTINUOUS
 62
     7
 10
87.686449
 20
150.544303
 11
92.320233
 21
154.474300
  0
ARC
  8
CSLAYER2
  6
CONTINUOUS
 62
     7
 10
58.867188
 20
145.890625
 40
7.500000
 50
51.043545
 51
90.000000
  0
ARC
  8
CSLAYER2
  6
CONTINUOUS
 62
     7
 10
58.867188
 20
145.890625
 40
7.500000
 50
90.000000
 51
180.000000
  0
ARC
  8
CSLAYER2
  6
CONTINUOUS
 62
     7
 10
76.367188
 20
163.890625
 40
17.500000
 50
231.043545
 51
270.000000
  0
ARC
  8
CSLAYER2
  6
CONTINUOUS
 62
     7
 10
76.367188
 20
163.890625
 40
17.500000
 50
270.000000
 51
310.301891
  0
ARC
  8
CSLAYER2
  6
CONTINUOUS
 62
     7
 10
102.992680
 20
141.890625
 40
16.500000
 50
30.898148
 51
90.000000
  0
ARC
  8
CSLAYER2
  6
CONTINUOUS
 62
     7
 10
102.992680
 20
141.890625
 40
16.500000
 50
90.000000
 51
130.301891
  0
ARC
  8
CSLAYER2
  6
CONTINUOUS
 62
     7
 10
118.867188
 20
151.390625
 40
2.000000
 50
210.898148
 51
270.000000
  0
ARC
  8
CSLAYER2
  6
CONTINUOUS
 62
     7
 10
118.867188
 20
151.390625
 40
2.000000
 50
-90.000000
 51
0.000000
  0
LINE
  8
CSLAYER2
  6
CONTINUOUS
 62
     7
 10
51.367188
 20
145.890625
 11
51.367188
 21
137.390625
  0
LINE
  8
CSLAYER2
  6
CONTINUOUS
 62
     7
 10
51.367188
 20
137.390625
 11
141.367188
 21
137.390625
  0
LINE
  8
CSLAYER2
  6
CONTINUOUS
 62
     7
 10
141.367188
 20
137.390625
 11
141.367188
 21
152.640625
  0
LINE
  8
CSLAYER2
  6
CONTINUOUS
 62
     7
 10
135.617188
 20
158.390625
 11
120.867188
 21
158.390625
  0
LINE
  8
CSLAYER2
  6
CONTINUOUS
 62
     7
 10
120.867188
 20
158.390625
 11
120.867188
 21
151.390625
  0
TEXT
  8
CSLAYER1
 62
     7
 10
51.177803
 20
77.167641
 40
10.000000
 41
0.630000
  1
FM-2131
 50
0.000000
 51
0.000000
  7
SX_FONT
 72
     5
 11
93.177803
 21
77.167641
  0
DIMENSION
  8
CSLAYER1
 62
     7
  2
*D0000
 10
141.367188
 20
168.164650
 11
96.367188
 21
169.164658
 13
51.367188
 23
163.390625
 14
141.367188
 24
163.390625
 70
1
  0
DIMENSION
  8
CSLAYER1
 62
     7
  2
*D0001
 10
151.054267
 20
158.390625
 11
155.847168
 21
147.468033
 13
146.367188
 23
137.390625
 14
146.367188
 24
158.390625
 50
90.000000
 70
1
  0
TEXT
  8
CSLAYER1
 62
     7
 10
108.442276
 20
77.393898
 40
10.000000
 41
0.642857
  1
90x21
 50
0.000000
 51
0.000000
  7
SX_FONT
 72
     5
 11
138.442276
 21
77.393898
  0
TEXT
  8
CSLAYER1
 62
     7
 10
52.432350
 20
65.302635
 40
5.000000
 41
0.612766
  1
カタログ Vol. 1  P56
 50
0.000000
 51
0.000000
  7
SX_FONT
 72
     5
 11
100.432350
 21
65.302635
  0
TEXT
  8
CSLAYER1
 62
     7
 10
52.403433
 20
53.661940
 40
4.960742
 41
0.729057
  1
ホ%%dケットカタロク゛ Vol. 1 P29
 50
0.000000
 51
0.000000
  7
SX_FONT
 72
     5
 11
127.147791
 21
53.661940
  0
ENDSEC
  0
EOF
