  0
SECTION
  2
HEADER
  9
$ACADVER
  1
AC1006
  9
$INSBASE
 10
71.742188
 20
193.359375
 30
0.0
  9
$EXTMIN
 10
71.742188
 20
193.359375
  9
$EXTMAX
 10
281.742188
 20
490.359375
  9
$LIMMIN
 10
71.742188
 20
193.359375
  9
$LIMMAX
 10
281.742188
 20
490.359375
  9
$VIEWCTR
 10
176.742188
 20
341.859375
  9
$VIEWSIZE
 40
297.000000
  9
$SNAPMODE
 70
     0
  9
$SNAPUNIT
 10
1.0
 20
1.0
  9
$SNAPBASE
 10
0.0
 20
0.0
  9
$SNAPANG
 50
0.0
  9
$SNAPSTYLE
 70
     0
  9
$SNAPISOPAIR
 70
     0
  9
$GRIDMODE
 70
     0
  9
$GRIDUNIT
 10
0.0
 20
0.0
  9
$ORTHOMODE
 70
     0
  9
$REGENMODE
 70
     1
  9
$FILLMODE
 70
     1
  9
$QTEXTMODE
 70
     0
  9
$DRAGMODE
 70
     2
  9
$LTSCALE
 40
15.000000
  9
$OSMODE
 70
     0
  9
$ATTMODE
 70
     1
  9
$TEXTSIZE
 40
0.2
  9
$TRACEWID
 40
0.05
  9
$TEXTSTYLE
  7
STANDARD
  9
$CLAYER
  8
CSLAYER3
  9
$CELTYPE
  6
BYLAYER
  9
$CECOLOR
 62
   256
  9
$DIMSCALE
 40
1.0
  9
$DIMASZ
 40
0.18
  9
$DIMEXO
 40
0.0625
  9
$DIMDLI
 40
0.38
  9
$DIMRND
 40
0.0
  9
$DIMDLE
 40
0.0
  9
$DIMEXE
 40
0.18
  9
$DIMTP
 40
0.0
  9
$DIMTM
 40
0.0
  9
$DIMTXT
 40
0.18
  9
$DIMCEN
 40
0.09
  9
$DIMTSZ
 40
0.0
  9
$DIMTOL
 70
     0
  9
$DIMLIM
 70
     0
  9
$DIMTIH
 70
     1
  9
$DIMTOH
 70
     1
  9
$DIMSE1
 70
     0
  9
$DIMSE2
 70
     0
  9
$DIMTAD
 70
     0
  9
$DIMZIN
 70
     0
  9
$DIMBLK
  1

  9
$LUNITS
 70
     2
  9
$LUPREC
 70
     4
  9
$AXISMODE
 70
     0
  9
$AXISUNIT
 10
0.0
 20
0.0
  9
$SKETCHINC
 40
0.1
  9
$FILLETRAD
 40
0.0
  9
$AUNITS
 70
     0
  9
$AUPREC
 70
     0
  9
$MENU
  1
ACAD
  9
$ELEVATION
 40
0.0
  9
$THICKNESS
 40
0.0
  9
$VIEWDIR
 10
0.0
 20
0.0
 30
1.0
  9
$LIMCHECK
 70
     0
  9
$BLIPMODE
 70
     1
  9
$CHAMFERA
 40
0.0
  9
$CHAMFERB
 40
0.0
  9
$FASTZOOM
 70
     1
  9
$SKPOLY
 70
     0
  9
$TDCREATE
 40
0.000000
  9
$TDUPDATE
 40
0.000000
  9
$TDINDWG
 40
0.0
  9
$TDUSRTIMER
 40
0.0
  9
$USRTIMER
 70
     1
  9
$ANGBASE
 50
0.0
  9
$ANGDIR
 70
     0
  9
$PDMODE
 70
     0
  9
$PDSIZE
 40
0.0
  9
$PLINEWID
 40
0.0
  9
$COORDS
 70
     0
  9
$USERI1
 70
     0
  9
$USERI2
 70
     0
  9
$USERI3
 70
     0
  9
$USERI4
 70
     0
  9
$USERI5
 70
     0
  9
$USERR1
 40
0.0
  9
$USERR2
 40
0.0
  9
$USERR3
 40
0.0
  9
$USERR4
 40
0.0
  9
$USERR5
 40
0.0
  0
ENDSEC
  0
SECTION
  2
TABLES
  0
TABLE
  2
LTYPE
 70
     9
  0
LTYPE
  2
CONTINUOUS
 70
    64
  3
Solid line
 72
    65
 73
     0
 40
0.0
  0
LTYPE
  2
DASHED
 70
    64
  3
__ __ __ __ __ __ __ __ __ __ __ __ __ __ __
 72
    65
 73
     2
 40
0.75
 49
0.5
 49
-0.25
  0
LTYPE
  2
HIDDEN
 70
    64
  3
_ _ _ _ _ _ _ _ _ _ _ _ _ _ _ _ _ _ _ _ _ _ _
 72
    65
 73
     2
 40
0.375
 49
0.25
 49
-0.125
  0
LTYPE
  2
DOT
 70
    64
  3
...............................................
 72
    65
 73
     2
 40
0.25
 49
0.0
 49
-0.25
  0
LTYPE
  2
DASHDOT
 70
    64
  3
__ . __ . __ . __ . __ . __ . __ . __ . __ . __
 72
    65
 73
     4
 40
1.0
 49
0.5
 49
-0.25
 49
0.0
 49
-0.25
  0
LTYPE
  2
DIVIDE
 70
    64
  3
__ . . __ . . __ . . __ . . __ . . __ . . __
 72
    65
 73
     6
 40
1.25
 49
0.5
 49
-0.25
 49
0.0
 49
-0.25
 49
0.0
 49
-0.25
  0
LTYPE
  2
CENTER
 70
    64
  3
____ _ ____ _ ____ _ ____ _ ____ _ ____ _ ____ 
 72
    65
 73
     4
 40
2.0
 49
1.25
 49
-0.25
 49
0.25
 49
-0.25
  0
LTYPE
  2
PHANTOM
 70
    64
  3
______  __  __  ______  __  __  ______  __  __ 
 72
    65
 73
     6
 40
2.5
 49
1.25
 49
-0.25
 49
0.25
 49
-0.25
 49
0.25
 49
-0.25
  0
LTYPE
  2
BORDER
 70
    64
  3
__ __ . __ __ . __ __ . __ __ . __ __ . __ __ .
 72
    65
 73
     6
 40
1.75
 49
0.5
 49
-0.25
 49
0.5
 49
-0.25
 49
0.0
 49
-0.25
  0
ENDTAB
  0
TABLE
  2
LAYER
 70
    16
  0
LAYER
  2
CSLAYER1
 70
    64
 62
     7
  6
CONTINUOUS
  0
LAYER
  2
CSLAYER2
 70
    64
 62
     7
  6
CONTINUOUS
  0
LAYER
  2
CSLAYER3
 70
    64
 62
     7
  6
CONTINUOUS
  0
LAYER
  2
CSLAYER4
 70
    64
 62
     7
  6
CONTINUOUS
  0
LAYER
  2
CSLAYER5
 70
    64
 62
     7
  6
CONTINUOUS
  0
LAYER
  2
CSLAYER6
 70
    64
 62
     7
  6
CONTINUOUS
  0
LAYER
  2
CSLAYER7
 70
    64
 62
     7
  6
CONTINUOUS
  0
LAYER
  2
CSLAYER8
 70
    64
 62
     7
  6
CONTINUOUS
  0
LAYER
  2
CSLAYER9
 70
    64
 62
     7
  6
CONTINUOUS
  0
LAYER
  2
CSLAYER10
 70
    64
 62
     7
  6
CONTINUOUS
  0
LAYER
  2
CSLAYER11
 70
    64
 62
     7
  6
CONTINUOUS
  0
LAYER
  2
CSLAYER12
 70
    64
 62
     7
  6
CONTINUOUS
  0
LAYER
  2
CSLAYER13
 70
    64
 62
     7
  6
CONTINUOUS
  0
LAYER
  2
CSLAYER14
 70
    64
 62
     7
  6
CONTINUOUS
  0
LAYER
  2
CSLAYER15
 70
    64
 62
     7
  6
CONTINUOUS
  0
LAYER
  2
CSLAYER16
 70
    64
 62
     7
  6
CONTINUOUS
  0
ENDTAB
  0
TABLE
  2
STYLE
 70
     1
  0
STYLE
  2
SX_FONT
 70
     0
 40
1.0
 41
1.0
 50
0.0
 71
     0
 42
1.0
  3
monotxt
  4
bigfont
  0
ENDTAB
  0
TABLE
  2
VIEW
 70
     0
  0
ENDTAB
  0
ENDSEC
  0
SECTION
  2
BLOCKS
  0
BLOCK
  8
CSLAYER1
  2
*D0000
 70
    65
 10
0.0
 20
0.0
 30
0.0
  0
LINE
  8
CSLAYER1
  6
CONTINUOUS
 62
     7
 10
71.765625
 20
190.546875
 11
71.765625
 21
195.516846
  0
LINE
  8
CSLAYER1
  6
CONTINUOUS
 62
     7
 10
131.765625
 20
190.546875
 11
131.765625
 21
195.516846
  0
LINE
  8
CSLAYER1
  6
CONTINUOUS
 62
     7
 10
71.765625
 20
194.516846
 11
131.765625
 21
194.516846
  0
LINE
  8
CSLAYER1
  6
CONTINUOUS
 62
     7
 10
71.765625
 20
194.516846
 11
75.629328
 21
195.552122
  0
LINE
  8
CSLAYER1
  6
CONTINUOUS
 62
     7
 10
71.765625
 20
194.516846
 11
75.629328
 21
193.481570
  0
LINE
  8
CSLAYER1
  6
CONTINUOUS
 62
     7
 10
131.765625
 20
194.516846
 11
127.901922
 21
195.552122
  0
LINE
  8
CSLAYER1
  6
CONTINUOUS
 62
     7
 10
131.765625
 20
194.516846
 11
127.901922
 21
193.481570
  0
TEXT
  8
CSLAYER1
 62
     7
 10
98.765625
 20
195.516846
 40
4.000000
 41
0.900000
  1
60
 50
0.000000
 51
0.000000
  7
SX_FONT
 72
     5
 11
104.765625
 21
195.516846
  0
ENDBLK
  8
0
  0
BLOCK
  8
CSLAYER1
  2
*D0001
 70
    65
 10
0.0
 20
0.0
 30
0.0
  0
LINE
  8
CSLAYER1
  6
CONTINUOUS
 62
     7
 10
137.765625
 20
163.546875
 11
142.856893
 21
163.546875
  0
LINE
  8
CSLAYER1
  6
CONTINUOUS
 62
     7
 10
137.765625
 20
184.546875
 11
142.856893
 21
184.546875
  0
LINE
  8
CSLAYER1
  6
CONTINUOUS
 62
     7
 10
141.856893
 20
163.546875
 11
141.856893
 21
184.546875
  0
LINE
  8
CSLAYER1
  6
CONTINUOUS
 62
     7
 10
141.856893
 20
163.546875
 11
140.821617
 21
167.410578
  0
LINE
  8
CSLAYER1
  6
CONTINUOUS
 62
     7
 10
141.856893
 20
163.546875
 11
142.892169
 21
167.410578
  0
LINE
  8
CSLAYER1
  6
CONTINUOUS
 62
     7
 10
141.856893
 20
184.546875
 11
140.821617
 21
180.683172
  0
LINE
  8
CSLAYER1
  6
CONTINUOUS
 62
     7
 10
141.856893
 20
184.546875
 11
142.892169
 21
180.683172
  0
TEXT
  8
CSLAYER1
 62
     7
 10
146.860962
 20
170.923172
 40
4.000000
 41
0.900000
  1
21
 50
90.000000
 51
0.000000
  7
SX_FONT
 72
     5
 11
146.860962
 21
176.923172
  0
ENDBLK
  8
0
  0
ENDSEC
  0
SECTION
  2
ENTITIES
  0
LINE
  8
CSLAYER2
  6
CONTINUOUS
 62
     7
 10
114.964169
 20
182.132634
 11
117.946647
 21
179.661839
  0
LINE
  8
CSLAYER2
  6
CONTINUOUS
 62
     7
 10
80.596615
 20
179.759898
 11
81.671546
 21
178.478224
  0
ARC
  8
CSLAYER2
  6
CONTINUOUS
 62
     7
 10
76.765625
 20
176.546875
 40
5.000000
 50
39.986317
 51
90.000000
  0
ARC
  8
CSLAYER2
  6
CONTINUOUS
 62
     7
 10
76.765625
 20
176.546875
 40
5.000000
 50
90.000000
 51
180.000000
  0
ARC
  8
CSLAYER2
  6
CONTINUOUS
 62
     7
 10
90.099723
 20
185.546875
 40
11.000000
 50
219.986317
 51
270.000000
  0
ARC
  8
CSLAYER2
  6
CONTINUOUS
 62
     7
 10
90.099723
 20
185.546875
 40
11.000000
 50
270.000000
 51
327.663974
  0
ARC
  8
CSLAYER2
  6
CONTINUOUS
 62
     7
 10
108.265625
 20
174.046875
 40
10.500000
 50
50.360382
 51
90.000000
  0
ARC
  8
CSLAYER2
  6
CONTINUOUS
 62
     7
 10
108.265625
 20
174.046875
 40
10.500000
 50
90.000000
 51
147.663974
  0
ARC
  8
CSLAYER2
  6
CONTINUOUS
 62
     7
 10
118.265625
 20
180.046875
 40
0.500000
 50
230.360382
 51
270.000000
  0
ARC
  8
CSLAYER2
  6
CONTINUOUS
 62
     7
 10
118.265625
 20
180.046875
 40
0.500000
 50
270.000000
 51
353.698043
  0
LINE
  8
CSLAYER2
  6
CONTINUOUS
 62
     7
 10
118.762604
 20
179.991991
 11
119.265625
 21
184.546875
  0
LINE
  8
CSLAYER2
  6
CONTINUOUS
 62
     7
 10
119.265625
 20
184.546875
 11
131.765625
 21
184.546875
  0
LINE
  8
CSLAYER2
  6
CONTINUOUS
 62
     7
 10
131.765625
 20
184.546875
 11
131.765625
 21
163.546875
  0
LINE
  8
CSLAYER2
  6
CONTINUOUS
 62
     7
 10
131.765625
 20
163.546875
 11
71.765625
 21
163.546875
  0
LINE
  8
CSLAYER2
  6
CONTINUOUS
 62
     7
 10
71.765625
 20
163.546875
 11
71.765625
 21
176.546875
  0
DIMENSION
  8
CSLAYER1
 62
     7
  2
*D0000
 10
131.765625
 20
194.516846
 11
101.765625
 21
195.516846
 13
71.765625
 23
189.546875
 14
131.765625
 24
189.546875
 70
1
  0
DIMENSION
  8
CSLAYER1
 62
     7
  2
*D0001
 10
141.856893
 20
184.546875
 11
146.860962
 21
173.923172
 13
136.765625
 23
163.546875
 14
136.765625
 24
184.546875
 50
90.000000
 70
1
  0
TEXT
  8
CSLAYER1
 62
     7
 10
70.974014
 20
105.006821
 40
10.000000
 41
0.630000
  1
FM-2130
 50
0.000000
 51
0.000000
  7
SX_FONT
 72
     5
 11
112.974014
 21
105.006821
  0
TEXT
  8
CSLAYER1
 62
     7
 10
128.238480
 20
105.233078
 40
10.000000
 41
0.642857
  1
60x21
 50
0.000000
 51
0.000000
  7
SX_FONT
 72
     5
 11
158.238480
 21
105.233078
  0
TEXT
  8
CSLAYER1
 62
     7
 10
71.915237
 20
93.832039
 40
5.000000
 41
0.612766
  1
カタログ Vol. 1  P56
 50
0.000000
 51
0.000000
  7
SX_FONT
 72
     5
 11
119.915237
 21
93.832039
  0
TEXT
  8
CSLAYER1
 62
     7
 10
71.716437
 20
82.615554
 40
4.960742
 41
0.729057
  1
ホ%%dケットカタロク゛ Vol. 1 P29
 50
0.000000
 51
0.000000
  7
SX_FONT
 72
     5
 11
146.460794
 21
82.615554
  0
ENDSEC
  0
EOF
