  0
SECTION
  2
HEADER
  9
$ACADVER
  1
AC1006
  9
$INSBASE
 10
55.177657
 20
172.099306
 30
0.0
  9
$EXTMIN
 10
55.177657
 20
172.099306
  9
$EXTMAX
 10
265.177657
 20
469.099306
  9
$LIMMIN
 10
55.177657
 20
172.099306
  9
$LIMMAX
 10
265.177657
 20
469.099306
  9
$VIEWCTR
 10
160.177657
 20
320.599306
  9
$VIEWSIZE
 40
297.000000
  9
$SNAPMODE
 70
     0
  9
$SNAPUNIT
 10
1.0
 20
1.0
  9
$SNAPBASE
 10
0.0
 20
0.0
  9
$SNAPANG
 50
0.0
  9
$SNAPSTYLE
 70
     0
  9
$SNAPISOPAIR
 70
     0
  9
$GRIDMODE
 70
     0
  9
$GRIDUNIT
 10
0.0
 20
0.0
  9
$ORTHOMODE
 70
     0
  9
$REGENMODE
 70
     1
  9
$FILLMODE
 70
     1
  9
$QTEXTMODE
 70
     0
  9
$DRAGMODE
 70
     2
  9
$LTSCALE
 40
15.000000
  9
$OSMODE
 70
     0
  9
$ATTMODE
 70
     1
  9
$TEXTSIZE
 40
0.2
  9
$TRACEWID
 40
0.05
  9
$TEXTSTYLE
  7
STANDARD
  9
$CLAYER
  8
CSLAYER3
  9
$CELTYPE
  6
BYLAYER
  9
$CECOLOR
 62
   256
  9
$DIMSCALE
 40
1.0
  9
$DIMASZ
 40
0.18
  9
$DIMEXO
 40
0.0625
  9
$DIMDLI
 40
0.38
  9
$DIMRND
 40
0.0
  9
$DIMDLE
 40
0.0
  9
$DIMEXE
 40
0.18
  9
$DIMTP
 40
0.0
  9
$DIMTM
 40
0.0
  9
$DIMTXT
 40
0.18
  9
$DIMCEN
 40
0.09
  9
$DIMTSZ
 40
0.0
  9
$DIMTOL
 70
     0
  9
$DIMLIM
 70
     0
  9
$DIMTIH
 70
     1
  9
$DIMTOH
 70
     1
  9
$DIMSE1
 70
     0
  9
$DIMSE2
 70
     0
  9
$DIMTAD
 70
     0
  9
$DIMZIN
 70
     0
  9
$DIMBLK
  1

  9
$LUNITS
 70
     2
  9
$LUPREC
 70
     4
  9
$AXISMODE
 70
     0
  9
$AXISUNIT
 10
0.0
 20
0.0
  9
$SKETCHINC
 40
0.1
  9
$FILLETRAD
 40
0.0
  9
$AUNITS
 70
     0
  9
$AUPREC
 70
     0
  9
$MENU
  1
ACAD
  9
$ELEVATION
 40
0.0
  9
$THICKNESS
 40
0.0
  9
$VIEWDIR
 10
0.0
 20
0.0
 30
1.0
  9
$LIMCHECK
 70
     0
  9
$BLIPMODE
 70
     1
  9
$CHAMFERA
 40
0.0
  9
$CHAMFERB
 40
0.0
  9
$FASTZOOM
 70
     1
  9
$SKPOLY
 70
     0
  9
$TDCREATE
 40
0.000000
  9
$TDUPDATE
 40
0.000000
  9
$TDINDWG
 40
0.0
  9
$TDUSRTIMER
 40
0.0
  9
$USRTIMER
 70
     1
  9
$ANGBASE
 50
0.0
  9
$ANGDIR
 70
     0
  9
$PDMODE
 70
     0
  9
$PDSIZE
 40
0.0
  9
$PLINEWID
 40
0.0
  9
$COORDS
 70
     0
  9
$USERI1
 70
     0
  9
$USERI2
 70
     0
  9
$USERI3
 70
     0
  9
$USERI4
 70
     0
  9
$USERI5
 70
     0
  9
$USERR1
 40
0.0
  9
$USERR2
 40
0.0
  9
$USERR3
 40
0.0
  9
$USERR4
 40
0.0
  9
$USERR5
 40
0.0
  0
ENDSEC
  0
SECTION
  2
TABLES
  0
TABLE
  2
LTYPE
 70
     9
  0
LTYPE
  2
CONTINUOUS
 70
    64
  3
Solid line
 72
    65
 73
     0
 40
0.0
  0
LTYPE
  2
DASHED
 70
    64
  3
__ __ __ __ __ __ __ __ __ __ __ __ __ __ __
 72
    65
 73
     2
 40
0.75
 49
0.5
 49
-0.25
  0
LTYPE
  2
HIDDEN
 70
    64
  3
_ _ _ _ _ _ _ _ _ _ _ _ _ _ _ _ _ _ _ _ _ _ _
 72
    65
 73
     2
 40
0.375
 49
0.25
 49
-0.125
  0
LTYPE
  2
DOT
 70
    64
  3
...............................................
 72
    65
 73
     2
 40
0.25
 49
0.0
 49
-0.25
  0
LTYPE
  2
DASHDOT
 70
    64
  3
__ . __ . __ . __ . __ . __ . __ . __ . __ . __
 72
    65
 73
     4
 40
1.0
 49
0.5
 49
-0.25
 49
0.0
 49
-0.25
  0
LTYPE
  2
DIVIDE
 70
    64
  3
__ . . __ . . __ . . __ . . __ . . __ . . __
 72
    65
 73
     6
 40
1.25
 49
0.5
 49
-0.25
 49
0.0
 49
-0.25
 49
0.0
 49
-0.25
  0
LTYPE
  2
CENTER
 70
    64
  3
____ _ ____ _ ____ _ ____ _ ____ _ ____ _ ____ 
 72
    65
 73
     4
 40
2.0
 49
1.25
 49
-0.25
 49
0.25
 49
-0.25
  0
LTYPE
  2
PHANTOM
 70
    64
  3
______  __  __  ______  __  __  ______  __  __ 
 72
    65
 73
     6
 40
2.5
 49
1.25
 49
-0.25
 49
0.25
 49
-0.25
 49
0.25
 49
-0.25
  0
LTYPE
  2
BORDER
 70
    64
  3
__ __ . __ __ . __ __ . __ __ . __ __ . __ __ .
 72
    65
 73
     6
 40
1.75
 49
0.5
 49
-0.25
 49
0.5
 49
-0.25
 49
0.0
 49
-0.25
  0
ENDTAB
  0
TABLE
  2
LAYER
 70
    16
  0
LAYER
  2
CSLAYER1
 70
    64
 62
     7
  6
CONTINUOUS
  0
LAYER
  2
CSLAYER2
 70
    64
 62
     7
  6
CONTINUOUS
  0
LAYER
  2
CSLAYER3
 70
    64
 62
     7
  6
CONTINUOUS
  0
LAYER
  2
CSLAYER4
 70
    64
 62
     7
  6
CONTINUOUS
  0
LAYER
  2
CSLAYER5
 70
    64
 62
     7
  6
CONTINUOUS
  0
LAYER
  2
CSLAYER6
 70
    64
 62
     7
  6
CONTINUOUS
  0
LAYER
  2
CSLAYER7
 70
    64
 62
     7
  6
CONTINUOUS
  0
LAYER
  2
CSLAYER8
 70
    64
 62
     7
  6
CONTINUOUS
  0
LAYER
  2
CSLAYER9
 70
    64
 62
     7
  6
CONTINUOUS
  0
LAYER
  2
CSLAYER10
 70
    64
 62
     7
  6
CONTINUOUS
  0
LAYER
  2
CSLAYER11
 70
    64
 62
     7
  6
CONTINUOUS
  0
LAYER
  2
CSLAYER12
 70
    64
 62
     7
  6
CONTINUOUS
  0
LAYER
  2
CSLAYER13
 70
    64
 62
     7
  6
CONTINUOUS
  0
LAYER
  2
CSLAYER14
 70
    64
 62
     7
  6
CONTINUOUS
  0
LAYER
  2
CSLAYER15
 70
    64
 62
     7
  6
CONTINUOUS
  0
LAYER
  2
CSLAYER16
 70
    64
 62
     7
  6
CONTINUOUS
  0
ENDTAB
  0
TABLE
  2
STYLE
 70
     1
  0
STYLE
  2
SX_FONT
 70
     0
 40
1.0
 41
1.0
 50
0.0
 71
     0
 42
1.0
  3
monotxt
  4
bigfont
  0
ENDTAB
  0
TABLE
  2
VIEW
 70
     0
  0
ENDTAB
  0
ENDSEC
  0
SECTION
  2
BLOCKS
  0
BLOCK
  8
CSLAYER1
  2
*D0000
 70
    65
 10
0.0
 20
0.0
 30
0.0
  0
LINE
  8
CSLAYER1
  6
CONTINUOUS
 62
     7
 10
54.617188
 20
168.375000
 11
54.617188
 21
173.374204
  0
LINE
  8
CSLAYER1
  6
CONTINUOUS
 62
     7
 10
144.617188
 20
168.375000
 11
144.617188
 21
173.374204
  0
LINE
  8
CSLAYER1
  6
CONTINUOUS
 62
     7
 10
54.617188
 20
172.374204
 11
144.617188
 21
172.374204
  0
LINE
  8
CSLAYER1
  6
CONTINUOUS
 62
     7
 10
54.617188
 20
172.374204
 11
58.480891
 21
173.409480
  0
LINE
  8
CSLAYER1
  6
CONTINUOUS
 62
     7
 10
54.617188
 20
172.374204
 11
58.480891
 21
171.338928
  0
LINE
  8
CSLAYER1
  6
CONTINUOUS
 62
     7
 10
144.617188
 20
172.374204
 11
140.753484
 21
173.409480
  0
LINE
  8
CSLAYER1
  6
CONTINUOUS
 62
     7
 10
144.617188
 20
172.374204
 11
140.753484
 21
171.338928
  0
TEXT
  8
CSLAYER1
 62
     7
 10
96.617188
 20
173.374207
 40
4.000000
 41
0.900000
  1
90
 50
0.000000
 51
0.000000
  7
SX_FONT
 72
     5
 11
102.617188
 21
173.374207
  0
ENDBLK
  8
0
  0
BLOCK
  8
CSLAYER1
  2
*D0001
 70
    65
 10
0.0
 20
0.0
 30
0.0
  0
LINE
  8
CSLAYER1
  6
CONTINUOUS
 62
     7
 10
150.617188
 20
141.375000
 11
155.546463
 21
141.375000
  0
LINE
  8
CSLAYER1
  6
CONTINUOUS
 62
     7
 10
150.617188
 20
162.375000
 11
155.546463
 21
162.375000
  0
LINE
  8
CSLAYER1
  6
CONTINUOUS
 62
     7
 10
154.546463
 20
141.375000
 11
154.546463
 21
162.375000
  0
LINE
  8
CSLAYER1
  6
CONTINUOUS
 62
     7
 10
154.546463
 20
141.375000
 11
153.511187
 21
145.238703
  0
LINE
  8
CSLAYER1
  6
CONTINUOUS
 62
     7
 10
154.546463
 20
141.375000
 11
155.581739
 21
145.238703
  0
LINE
  8
CSLAYER1
  6
CONTINUOUS
 62
     7
 10
154.546463
 20
162.375000
 11
153.511187
 21
158.511297
  0
LINE
  8
CSLAYER1
  6
CONTINUOUS
 62
     7
 10
154.546463
 20
162.375000
 11
155.581739
 21
158.511297
  0
TEXT
  8
CSLAYER1
 62
     7
 10
159.623154
 20
148.375168
 40
4.000000
 41
0.900000
  1
21
 50
90.000000
 51
0.000000
  7
SX_FONT
 72
     5
 11
159.623154
 21
154.375168
  0
ENDBLK
  8
0
  0
ENDSEC
  0
SECTION
  2
ENTITIES
  0
ARC
  8
CSLAYER2
  6
CONTINUOUS
 62
     7
 10
146.304688
 20
164.855392
 40
10.000000
 50
194.361512
 51
235.771134
  0
ARC
  8
CSLAYER2
  6
CONTINUOUS
 62
     7
 10
144.617187
 20
162.375000
 40
7.000000
 50
235.771134
 51
270.000000
  0
ARC
  8
CSLAYER2
  6
CONTINUOUS
 62
     7
 10
66.617188
 20
148.375000
 40
3.000000
 50
90.000000
 51
180.000000
  0
ARC
  8
CSLAYER2
  6
CONTINUOUS
 62
     7
 10
66.617188
 20
201.375000
 40
50.000000
 50
270.000000
 51
289.623099
  0
ARC
  8
CSLAYER2
  6
CONTINUOUS
 62
     7
 10
73.333814
 20
182.536557
 40
30.000000
 50
289.623099
 51
306.560229
  0
ARC
  8
CSLAYER2
  6
CONTINUOUS
 62
     7
 10
103.117188
 20
142.375000
 40
20.000000
 50
58.331757
 51
90.000000
  0
ARC
  8
CSLAYER2
  6
CONTINUOUS
 62
     7
 10
103.117188
 20
142.375000
 40
20.000000
 50
90.000000
 51
126.560229
  0
LINE
  8
CSLAYER2
  6
CONTINUOUS
 62
     7
 10
144.617188
 20
155.375000
 11
144.617188
 21
141.375000
  0
LINE
  8
CSLAYER2
  6
CONTINUOUS
 62
     7
 10
144.617188
 20
141.375000
 11
54.617188
 21
141.375000
  0
LINE
  8
CSLAYER2
  6
CONTINUOUS
 62
     7
 10
54.617188
 20
141.375000
 11
54.617188
 21
148.375000
  0
LINE
  8
CSLAYER2
  6
CONTINUOUS
 62
     7
 10
54.617188
 20
148.375000
 11
63.617188
 21
148.375000
  0
LINE
  8
CSLAYER2
  6
CONTINUOUS
 62
     7
 10
113.617188
 20
159.397045
 11
113.617188
 21
162.375000
  0
LINE
  8
CSLAYER2
  6
CONTINUOUS
 62
     7
 10
113.617188
 20
162.375000
 11
136.617188
 21
162.375000
  0
TEXT
  8
CSLAYER1
 62
     7
 10
54.874962
 20
80.971573
 40
10.000000
 41
0.630000
  1
FM-2129
 50
0.000000
 51
0.000000
  7
SX_FONT
 72
     5
 11
96.874962
 21
80.971573
  0
DIMENSION
  8
CSLAYER1
 62
     7
  2
*D0000
 10
144.617188
 20
172.374204
 11
99.617188
 21
173.374207
 13
54.617188
 23
167.375000
 14
144.617188
 24
167.375000
 70
1
  0
DIMENSION
  8
CSLAYER1
 62
     7
  2
*D0001
 10
154.546463
 20
162.375000
 11
159.623154
 21
151.375168
 13
149.617188
 23
141.375000
 14
149.617188
 24
162.375000
 50
90.000000
 70
1
  0
TEXT
  8
CSLAYER1
 62
     7
 10
111.503578
 20
81.206741
 40
10.000000
 41
0.642857
  1
90x21
 50
0.000000
 51
0.000000
  7
SX_FONT
 72
     5
 11
141.503578
 21
81.206741
  0
TEXT
  8
CSLAYER1
 62
     7
 10
55.682976
 20
69.470734
 40
5.000000
 41
0.612766
  1
カタログ Vol. 1  P56
 50
0.000000
 51
0.000000
  7
SX_FONT
 72
     5
 11
103.682976
 21
69.470734
  0
TEXT
  8
CSLAYER1
 62
     7
 10
55.543783
 20
58.999343
 40
4.960742
 41
0.729057
  1
ホ%%dケットカタロク゛ Vol. 1 P29
 50
0.000000
 51
0.000000
  7
SX_FONT
 72
     5
 11
130.288141
 21
58.999343
  0
ENDSEC
  0
EOF
