  0
SECTION
  2
HEADER
  9
$ACADVER
  1
AC1006
  9
$INSBASE
 10
45.594229
 20
183.787737
 30
0.0
  9
$EXTMIN
 10
45.594229
 20
183.787737
  9
$EXTMAX
 10
255.594229
 20
480.787737
  9
$LIMMIN
 10
45.594229
 20
183.787737
  9
$LIMMAX
 10
255.594229
 20
480.787737
  9
$VIEWCTR
 10
150.594229
 20
332.287737
  9
$VIEWSIZE
 40
297.000000
  9
$SNAPMODE
 70
     0
  9
$SNAPUNIT
 10
1.0
 20
1.0
  9
$SNAPBASE
 10
0.0
 20
0.0
  9
$SNAPANG
 50
0.0
  9
$SNAPSTYLE
 70
     0
  9
$SNAPISOPAIR
 70
     0
  9
$GRIDMODE
 70
     0
  9
$GRIDUNIT
 10
0.0
 20
0.0
  9
$ORTHOMODE
 70
     0
  9
$REGENMODE
 70
     1
  9
$FILLMODE
 70
     1
  9
$QTEXTMODE
 70
     0
  9
$DRAGMODE
 70
     2
  9
$LTSCALE
 40
15.000000
  9
$OSMODE
 70
     0
  9
$ATTMODE
 70
     1
  9
$TEXTSIZE
 40
0.2
  9
$TRACEWID
 40
0.05
  9
$TEXTSTYLE
  7
STANDARD
  9
$CLAYER
  8
CSLAYER3
  9
$CELTYPE
  6
BYLAYER
  9
$CECOLOR
 62
   256
  9
$DIMSCALE
 40
1.0
  9
$DIMASZ
 40
0.18
  9
$DIMEXO
 40
0.0625
  9
$DIMDLI
 40
0.38
  9
$DIMRND
 40
0.0
  9
$DIMDLE
 40
0.0
  9
$DIMEXE
 40
0.18
  9
$DIMTP
 40
0.0
  9
$DIMTM
 40
0.0
  9
$DIMTXT
 40
0.18
  9
$DIMCEN
 40
0.09
  9
$DIMTSZ
 40
0.0
  9
$DIMTOL
 70
     0
  9
$DIMLIM
 70
     0
  9
$DIMTIH
 70
     1
  9
$DIMTOH
 70
     1
  9
$DIMSE1
 70
     0
  9
$DIMSE2
 70
     0
  9
$DIMTAD
 70
     0
  9
$DIMZIN
 70
     0
  9
$DIMBLK
  1

  9
$LUNITS
 70
     2
  9
$LUPREC
 70
     4
  9
$AXISMODE
 70
     0
  9
$AXISUNIT
 10
0.0
 20
0.0
  9
$SKETCHINC
 40
0.1
  9
$FILLETRAD
 40
0.0
  9
$AUNITS
 70
     0
  9
$AUPREC
 70
     0
  9
$MENU
  1
ACAD
  9
$ELEVATION
 40
0.0
  9
$THICKNESS
 40
0.0
  9
$VIEWDIR
 10
0.0
 20
0.0
 30
1.0
  9
$LIMCHECK
 70
     0
  9
$BLIPMODE
 70
     1
  9
$CHAMFERA
 40
0.0
  9
$CHAMFERB
 40
0.0
  9
$FASTZOOM
 70
     1
  9
$SKPOLY
 70
     0
  9
$TDCREATE
 40
0.000000
  9
$TDUPDATE
 40
0.000000
  9
$TDINDWG
 40
0.0
  9
$TDUSRTIMER
 40
0.0
  9
$USRTIMER
 70
     1
  9
$ANGBASE
 50
0.0
  9
$ANGDIR
 70
     0
  9
$PDMODE
 70
     0
  9
$PDSIZE
 40
0.0
  9
$PLINEWID
 40
0.0
  9
$COORDS
 70
     0
  9
$USERI1
 70
     0
  9
$USERI2
 70
     0
  9
$USERI3
 70
     0
  9
$USERI4
 70
     0
  9
$USERI5
 70
     0
  9
$USERR1
 40
0.0
  9
$USERR2
 40
0.0
  9
$USERR3
 40
0.0
  9
$USERR4
 40
0.0
  9
$USERR5
 40
0.0
  0
ENDSEC
  0
SECTION
  2
TABLES
  0
TABLE
  2
LTYPE
 70
     9
  0
LTYPE
  2
CONTINUOUS
 70
    64
  3
Solid line
 72
    65
 73
     0
 40
0.0
  0
LTYPE
  2
DASHED
 70
    64
  3
__ __ __ __ __ __ __ __ __ __ __ __ __ __ __
 72
    65
 73
     2
 40
0.75
 49
0.5
 49
-0.25
  0
LTYPE
  2
HIDDEN
 70
    64
  3
_ _ _ _ _ _ _ _ _ _ _ _ _ _ _ _ _ _ _ _ _ _ _
 72
    65
 73
     2
 40
0.375
 49
0.25
 49
-0.125
  0
LTYPE
  2
DOT
 70
    64
  3
...............................................
 72
    65
 73
     2
 40
0.25
 49
0.0
 49
-0.25
  0
LTYPE
  2
DASHDOT
 70
    64
  3
__ . __ . __ . __ . __ . __ . __ . __ . __ . __
 72
    65
 73
     4
 40
1.0
 49
0.5
 49
-0.25
 49
0.0
 49
-0.25
  0
LTYPE
  2
DIVIDE
 70
    64
  3
__ . . __ . . __ . . __ . . __ . . __ . . __
 72
    65
 73
     6
 40
1.25
 49
0.5
 49
-0.25
 49
0.0
 49
-0.25
 49
0.0
 49
-0.25
  0
LTYPE
  2
CENTER
 70
    64
  3
____ _ ____ _ ____ _ ____ _ ____ _ ____ _ ____ 
 72
    65
 73
     4
 40
2.0
 49
1.25
 49
-0.25
 49
0.25
 49
-0.25
  0
LTYPE
  2
PHANTOM
 70
    64
  3
______  __  __  ______  __  __  ______  __  __ 
 72
    65
 73
     6
 40
2.5
 49
1.25
 49
-0.25
 49
0.25
 49
-0.25
 49
0.25
 49
-0.25
  0
LTYPE
  2
BORDER
 70
    64
  3
__ __ . __ __ . __ __ . __ __ . __ __ . __ __ .
 72
    65
 73
     6
 40
1.75
 49
0.5
 49
-0.25
 49
0.5
 49
-0.25
 49
0.0
 49
-0.25
  0
ENDTAB
  0
TABLE
  2
LAYER
 70
    16
  0
LAYER
  2
CSLAYER1
 70
    64
 62
     7
  6
CONTINUOUS
  0
LAYER
  2
CSLAYER2
 70
    64
 62
     7
  6
CONTINUOUS
  0
LAYER
  2
CSLAYER3
 70
    64
 62
     7
  6
CONTINUOUS
  0
LAYER
  2
CSLAYER4
 70
    64
 62
     7
  6
CONTINUOUS
  0
LAYER
  2
CSLAYER5
 70
    64
 62
     7
  6
CONTINUOUS
  0
LAYER
  2
CSLAYER6
 70
    64
 62
     7
  6
CONTINUOUS
  0
LAYER
  2
CSLAYER7
 70
    64
 62
     7
  6
CONTINUOUS
  0
LAYER
  2
CSLAYER8
 70
    64
 62
     7
  6
CONTINUOUS
  0
LAYER
  2
CSLAYER9
 70
    64
 62
     7
  6
CONTINUOUS
  0
LAYER
  2
CSLAYER10
 70
    64
 62
     7
  6
CONTINUOUS
  0
LAYER
  2
CSLAYER11
 70
    64
 62
     7
  6
CONTINUOUS
  0
LAYER
  2
CSLAYER12
 70
    64
 62
     7
  6
CONTINUOUS
  0
LAYER
  2
CSLAYER13
 70
    64
 62
     7
  6
CONTINUOUS
  0
LAYER
  2
CSLAYER14
 70
    64
 62
     7
  6
CONTINUOUS
  0
LAYER
  2
CSLAYER15
 70
    64
 62
     7
  6
CONTINUOUS
  0
LAYER
  2
CSLAYER16
 70
    64
 62
     7
  6
CONTINUOUS
  0
ENDTAB
  0
TABLE
  2
STYLE
 70
     1
  0
STYLE
  2
SX_FONT
 70
     0
 40
1.0
 41
1.0
 50
0.0
 71
     0
 42
1.0
  3
monotxt
  4
bigfont
  0
ENDTAB
  0
TABLE
  2
VIEW
 70
     0
  0
ENDTAB
  0
ENDSEC
  0
SECTION
  2
BLOCKS
  0
BLOCK
  8
CSLAYER1
  2
*D0000
 70
    65
 10
0.0
 20
0.0
 30
0.0
  0
LINE
  8
CSLAYER1
  6
CONTINUOUS
 62
     7
 10
47.992188
 20
179.156250
 11
47.992188
 21
184.042134
  0
LINE
  8
CSLAYER1
  6
CONTINUOUS
 62
     7
 10
137.992188
 20
179.156250
 11
137.992188
 21
184.042134
  0
LINE
  8
CSLAYER1
  6
CONTINUOUS
 62
     7
 10
47.992188
 20
183.042134
 11
137.992188
 21
183.042134
  0
LINE
  8
CSLAYER1
  6
CONTINUOUS
 62
     7
 10
47.992188
 20
183.042134
 11
51.855891
 21
184.077410
  0
LINE
  8
CSLAYER1
  6
CONTINUOUS
 62
     7
 10
47.992188
 20
183.042134
 11
51.855891
 21
182.006858
  0
LINE
  8
CSLAYER1
  6
CONTINUOUS
 62
     7
 10
137.992188
 20
183.042134
 11
134.128484
 21
184.077410
  0
LINE
  8
CSLAYER1
  6
CONTINUOUS
 62
     7
 10
137.992188
 20
183.042134
 11
134.128484
 21
182.006858
  0
TEXT
  8
CSLAYER1
 62
     7
 10
89.992188
 20
184.042130
 40
4.000000
 41
0.900000
  1
90
 50
0.000000
 51
0.000000
  7
SX_FONT
 72
     5
 11
95.992188
 21
184.042130
  0
ENDBLK
  8
0
  0
BLOCK
  8
CSLAYER1
  2
*D0001
 70
    65
 10
0.0
 20
0.0
 30
0.0
  0
LINE
  8
CSLAYER1
  6
CONTINUOUS
 62
     7
 10
143.992188
 20
143.156250
 11
149.007106
 21
143.156250
  0
LINE
  8
CSLAYER1
  6
CONTINUOUS
 62
     7
 10
143.992188
 20
173.156250
 11
149.007106
 21
173.156250
  0
LINE
  8
CSLAYER1
  6
CONTINUOUS
 62
     7
 10
148.007106
 20
143.156250
 11
148.007106
 21
173.156250
  0
LINE
  8
CSLAYER1
  6
CONTINUOUS
 62
     7
 10
148.007106
 20
143.156250
 11
146.971830
 21
147.019953
  0
LINE
  8
CSLAYER1
  6
CONTINUOUS
 62
     7
 10
148.007106
 20
143.156250
 11
149.042383
 21
147.019953
  0
LINE
  8
CSLAYER1
  6
CONTINUOUS
 62
     7
 10
148.007106
 20
173.156250
 11
146.971830
 21
169.292547
  0
LINE
  8
CSLAYER1
  6
CONTINUOUS
 62
     7
 10
148.007106
 20
173.156250
 11
149.042383
 21
169.292547
  0
TEXT
  8
CSLAYER1
 62
     7
 10
152.937607
 20
155.143127
 40
4.000000
 41
0.900000
  1
30
 50
90.000000
 51
0.000000
  7
SX_FONT
 72
     5
 11
152.937607
 21
161.143127
  0
ENDBLK
  8
0
  0
ENDSEC
  0
SECTION
  2
ENTITIES
  0
LINE
  8
CSLAYER2
  6
CONTINUOUS
 62
     7
 10
73.761529
 20
163.283258
 11
79.058758
 21
160.846176
  0
ARC
  8
CSLAYER2
  6
CONTINUOUS
 62
     7
 10
67.492188
 20
149.656250
 40
15.000000
 50
65.294384
 51
90.000000
  0
ARC
  8
CSLAYER2
  6
CONTINUOUS
 62
     7
 10
67.492188
 20
149.656250
 40
15.000000
 50
90.000000
 51
180.000000
  0
ARC
  8
CSLAYER2
  6
CONTINUOUS
 62
     7
 10
84.492188
 20
172.656250
 40
13.000000
 50
245.294384
 51
270.000000
  0
ARC
  8
CSLAYER2
  6
CONTINUOUS
 62
     7
 10
84.492188
 20
172.656250
 40
13.000000
 50
270.000000
 51
309.131552
  0
ARC
  8
CSLAYER2
  6
CONTINUOUS
 62
     7
 10
100.992188
 20
168.156250
 40
10.000000
 50
213.945818
 51
270.000000
  0
ARC
  8
CSLAYER2
  6
CONTINUOUS
 62
     7
 10
100.992188
 20
168.156250
 40
10.000000
 50
270.000000
 51
360.000000
  0
LINE
  8
CSLAYER2
  6
CONTINUOUS
 62
     7
 10
110.992188
 20
168.156250
 11
110.992188
 21
170.156250
  0
LINE
  8
CSLAYER2
  6
CONTINUOUS
 62
     7
 10
110.992188
 20
170.156250
 11
137.992188
 21
173.156250
  0
LINE
  8
CSLAYER2
  6
CONTINUOUS
 62
     7
 10
137.992188
 20
173.156250
 11
137.992188
 21
143.156250
  0
LINE
  8
CSLAYER2
  6
CONTINUOUS
 62
     7
 10
137.992188
 20
143.156250
 11
47.992188
 21
143.156250
  0
LINE
  8
CSLAYER2
  6
CONTINUOUS
 62
     7
 10
47.992188
 20
143.156250
 11
47.992188
 21
149.656250
  0
LINE
  8
CSLAYER2
  6
CONTINUOUS
 62
     7
 10
47.992188
 20
149.656250
 11
52.492188
 21
149.656250
  0
TEXT
  8
CSLAYER1
 62
     7
 10
47.999496
 20
82.940903
 40
10.000000
 41
0.630000
  1
FM-2128
 50
0.000000
 51
0.000000
  7
SX_FONT
 72
     5
 11
89.999496
 21
82.940903
  0
DIMENSION
  8
CSLAYER1
 62
     7
  2
*D0000
 10
137.992188
 20
183.042134
 11
92.992188
 21
184.042130
 13
47.992188
 23
178.156250
 14
137.992188
 24
178.156250
 70
1
  0
DIMENSION
  8
CSLAYER1
 62
     7
  2
*D0001
 10
148.007106
 20
173.156250
 11
152.937607
 21
158.143127
 13
142.992188
 23
143.156250
 14
142.992188
 24
173.156250
 50
90.000000
 70
1
  0
TEXT
  8
CSLAYER1
 62
     7
 10
105.313202
 20
82.866371
 40
10.000000
 41
0.642857
  1
90x30
 50
0.000000
 51
0.000000
  7
SX_FONT
 72
     5
 11
135.313202
 21
82.866371
  0
TEXT
  8
CSLAYER1
 62
     7
 10
49.098274
 20
71.897774
 40
5.000000
 41
0.612766
  1
カタログ Vol. 1  P55
 50
0.000000
 51
0.000000
  7
SX_FONT
 72
     5
 11
97.098274
 21
71.897774
  0
TEXT
  8
CSLAYER1
 62
     7
 10
48.772307
 20
60.734931
 40
4.960742
 41
0.729057
  1
ホ%%dケットカタロク゛ Vol. 1 P28
 50
0.000000
 51
0.000000
  7
SX_FONT
 72
     5
 11
123.516664
 21
60.734931
  0
ENDSEC
  0
EOF
