  0
SECTION
  2
HEADER
  9
$ACADVER
  1
AC1006
  9
$INSBASE
 10
56.273437
 20
260.906250
 30
0.0
  9
$EXTMIN
 10
56.273437
 20
260.906250
  9
$EXTMAX
 10
266.273438
 20
557.906250
  9
$LIMMIN
 10
56.273437
 20
260.906250
  9
$LIMMAX
 10
266.273438
 20
557.906250
  9
$VIEWCTR
 10
161.273438
 20
409.406250
  9
$VIEWSIZE
 40
297.000000
  9
$SNAPMODE
 70
     0
  9
$SNAPUNIT
 10
1.0
 20
1.0
  9
$SNAPBASE
 10
0.0
 20
0.0
  9
$SNAPANG
 50
0.0
  9
$SNAPSTYLE
 70
     0
  9
$SNAPISOPAIR
 70
     0
  9
$GRIDMODE
 70
     0
  9
$GRIDUNIT
 10
0.0
 20
0.0
  9
$ORTHOMODE
 70
     0
  9
$REGENMODE
 70
     1
  9
$FILLMODE
 70
     1
  9
$QTEXTMODE
 70
     0
  9
$DRAGMODE
 70
     2
  9
$LTSCALE
 40
15.000000
  9
$OSMODE
 70
     0
  9
$ATTMODE
 70
     1
  9
$TEXTSIZE
 40
0.2
  9
$TRACEWID
 40
0.05
  9
$TEXTSTYLE
  7
STANDARD
  9
$CLAYER
  8
CSLAYER3
  9
$CELTYPE
  6
BYLAYER
  9
$CECOLOR
 62
   256
  9
$DIMSCALE
 40
1.0
  9
$DIMASZ
 40
0.18
  9
$DIMEXO
 40
0.0625
  9
$DIMDLI
 40
0.38
  9
$DIMRND
 40
0.0
  9
$DIMDLE
 40
0.0
  9
$DIMEXE
 40
0.18
  9
$DIMTP
 40
0.0
  9
$DIMTM
 40
0.0
  9
$DIMTXT
 40
0.18
  9
$DIMCEN
 40
0.09
  9
$DIMTSZ
 40
0.0
  9
$DIMTOL
 70
     0
  9
$DIMLIM
 70
     0
  9
$DIMTIH
 70
     1
  9
$DIMTOH
 70
     1
  9
$DIMSE1
 70
     0
  9
$DIMSE2
 70
     0
  9
$DIMTAD
 70
     0
  9
$DIMZIN
 70
     0
  9
$DIMBLK
  1

  9
$LUNITS
 70
     2
  9
$LUPREC
 70
     4
  9
$AXISMODE
 70
     0
  9
$AXISUNIT
 10
0.0
 20
0.0
  9
$SKETCHINC
 40
0.1
  9
$FILLETRAD
 40
0.0
  9
$AUNITS
 70
     0
  9
$AUPREC
 70
     0
  9
$MENU
  1
ACAD
  9
$ELEVATION
 40
0.0
  9
$THICKNESS
 40
0.0
  9
$VIEWDIR
 10
0.0
 20
0.0
 30
1.0
  9
$LIMCHECK
 70
     0
  9
$BLIPMODE
 70
     1
  9
$CHAMFERA
 40
0.0
  9
$CHAMFERB
 40
0.0
  9
$FASTZOOM
 70
     1
  9
$SKPOLY
 70
     0
  9
$TDCREATE
 40
0.000000
  9
$TDUPDATE
 40
0.000000
  9
$TDINDWG
 40
0.0
  9
$TDUSRTIMER
 40
0.0
  9
$USRTIMER
 70
     1
  9
$ANGBASE
 50
0.0
  9
$ANGDIR
 70
     0
  9
$PDMODE
 70
     0
  9
$PDSIZE
 40
0.0
  9
$PLINEWID
 40
0.0
  9
$COORDS
 70
     0
  9
$USERI1
 70
     0
  9
$USERI2
 70
     0
  9
$USERI3
 70
     0
  9
$USERI4
 70
     0
  9
$USERI5
 70
     0
  9
$USERR1
 40
0.0
  9
$USERR2
 40
0.0
  9
$USERR3
 40
0.0
  9
$USERR4
 40
0.0
  9
$USERR5
 40
0.0
  0
ENDSEC
  0
SECTION
  2
TABLES
  0
TABLE
  2
LTYPE
 70
     9
  0
LTYPE
  2
CONTINUOUS
 70
    64
  3
Solid line
 72
    65
 73
     0
 40
0.0
  0
LTYPE
  2
DASHED
 70
    64
  3
__ __ __ __ __ __ __ __ __ __ __ __ __ __ __
 72
    65
 73
     2
 40
0.75
 49
0.5
 49
-0.25
  0
LTYPE
  2
HIDDEN
 70
    64
  3
_ _ _ _ _ _ _ _ _ _ _ _ _ _ _ _ _ _ _ _ _ _ _
 72
    65
 73
     2
 40
0.375
 49
0.25
 49
-0.125
  0
LTYPE
  2
DOT
 70
    64
  3
...............................................
 72
    65
 73
     2
 40
0.25
 49
0.0
 49
-0.25
  0
LTYPE
  2
DASHDOT
 70
    64
  3
__ . __ . __ . __ . __ . __ . __ . __ . __ . __
 72
    65
 73
     4
 40
1.0
 49
0.5
 49
-0.25
 49
0.0
 49
-0.25
  0
LTYPE
  2
DIVIDE
 70
    64
  3
__ . . __ . . __ . . __ . . __ . . __ . . __
 72
    65
 73
     6
 40
1.25
 49
0.5
 49
-0.25
 49
0.0
 49
-0.25
 49
0.0
 49
-0.25
  0
LTYPE
  2
CENTER
 70
    64
  3
____ _ ____ _ ____ _ ____ _ ____ _ ____ _ ____ 
 72
    65
 73
     4
 40
2.0
 49
1.25
 49
-0.25
 49
0.25
 49
-0.25
  0
LTYPE
  2
PHANTOM
 70
    64
  3
______  __  __  ______  __  __  ______  __  __ 
 72
    65
 73
     6
 40
2.5
 49
1.25
 49
-0.25
 49
0.25
 49
-0.25
 49
0.25
 49
-0.25
  0
LTYPE
  2
BORDER
 70
    64
  3
__ __ . __ __ . __ __ . __ __ . __ __ . __ __ .
 72
    65
 73
     6
 40
1.75
 49
0.5
 49
-0.25
 49
0.5
 49
-0.25
 49
0.0
 49
-0.25
  0
ENDTAB
  0
TABLE
  2
LAYER
 70
    16
  0
LAYER
  2
CSLAYER1
 70
    64
 62
     7
  6
CONTINUOUS
  0
LAYER
  2
CSLAYER2
 70
    64
 62
     7
  6
CONTINUOUS
  0
LAYER
  2
CSLAYER3
 70
    64
 62
     7
  6
CONTINUOUS
  0
LAYER
  2
CSLAYER4
 70
    64
 62
     7
  6
CONTINUOUS
  0
LAYER
  2
CSLAYER5
 70
    64
 62
     7
  6
CONTINUOUS
  0
LAYER
  2
CSLAYER6
 70
    64
 62
     7
  6
CONTINUOUS
  0
LAYER
  2
CSLAYER7
 70
    64
 62
     7
  6
CONTINUOUS
  0
LAYER
  2
CSLAYER8
 70
    64
 62
     7
  6
CONTINUOUS
  0
LAYER
  2
CSLAYER9
 70
    64
 62
     7
  6
CONTINUOUS
  0
LAYER
  2
CSLAYER10
 70
    64
 62
     7
  6
CONTINUOUS
  0
LAYER
  2
CSLAYER11
 70
    64
 62
     7
  6
CONTINUOUS
  0
LAYER
  2
CSLAYER12
 70
    64
 62
     7
  6
CONTINUOUS
  0
LAYER
  2
CSLAYER13
 70
    64
 62
     7
  6
CONTINUOUS
  0
LAYER
  2
CSLAYER14
 70
    64
 62
     7
  6
CONTINUOUS
  0
LAYER
  2
CSLAYER15
 70
    64
 62
     7
  6
CONTINUOUS
  0
LAYER
  2
CSLAYER16
 70
    64
 62
     7
  6
CONTINUOUS
  0
ENDTAB
  0
TABLE
  2
STYLE
 70
     1
  0
STYLE
  2
SX_FONT
 70
     0
 40
1.0
 41
1.0
 50
0.0
 71
     0
 42
1.0
  3
monotxt
  4
bigfont
  0
ENDTAB
  0
TABLE
  2
VIEW
 70
     0
  0
ENDTAB
  0
ENDSEC
  0
SECTION
  2
BLOCKS
  0
BLOCK
  8
CSLAYER1
  2
*D0000
 70
    65
 10
0.0
 20
0.0
 30
0.0
  0
LINE
  8
CSLAYER1
  6
CONTINUOUS
 62
     7
 10
74.859375
 20
178.171875
 11
74.859375
 21
182.978923
  0
LINE
  8
CSLAYER1
  6
CONTINUOUS
 62
     7
 10
114.859375
 20
178.171875
 11
114.859375
 21
182.978923
  0
LINE
  8
CSLAYER1
  6
CONTINUOUS
 62
     7
 10
74.859375
 20
181.978923
 11
114.859375
 21
181.978923
  0
LINE
  8
CSLAYER1
  6
CONTINUOUS
 62
     7
 10
74.859375
 20
181.978923
 11
78.723078
 21
183.014199
  0
LINE
  8
CSLAYER1
  6
CONTINUOUS
 62
     7
 10
74.859375
 20
181.978923
 11
78.723078
 21
180.943646
  0
LINE
  8
CSLAYER1
  6
CONTINUOUS
 62
     7
 10
114.859375
 20
181.978923
 11
110.995672
 21
183.014199
  0
LINE
  8
CSLAYER1
  6
CONTINUOUS
 62
     7
 10
114.859375
 20
181.978923
 11
110.995672
 21
180.943646
  0
TEXT
  8
CSLAYER1
 62
     7
 10
91.859375
 20
182.978928
 40
4.000000
 41
0.900000
  1
40
 50
0.000000
 51
0.000000
  7
SX_FONT
 72
     5
 11
97.859375
 21
182.978928
  0
ENDBLK
  8
0
  0
BLOCK
  8
CSLAYER1
  2
*D0001
 70
    65
 10
0.0
 20
0.0
 30
0.0
  0
LINE
  8
CSLAYER1
  6
CONTINUOUS
 62
     7
 10
120.859375
 20
151.171875
 11
126.330037
 21
151.171875
  0
LINE
  8
CSLAYER1
  6
CONTINUOUS
 62
     7
 10
120.859375
 20
172.171875
 11
126.330037
 21
172.171875
  0
LINE
  8
CSLAYER1
  6
CONTINUOUS
 62
     7
 10
125.330037
 20
151.171875
 11
125.330037
 21
172.171875
  0
LINE
  8
CSLAYER1
  6
CONTINUOUS
 62
     7
 10
125.330037
 20
151.171875
 11
124.294761
 21
155.035578
  0
LINE
  8
CSLAYER1
  6
CONTINUOUS
 62
     7
 10
125.330037
 20
151.171875
 11
126.365314
 21
155.035578
  0
LINE
  8
CSLAYER1
  6
CONTINUOUS
 62
     7
 10
125.330037
 20
172.171875
 11
124.294761
 21
168.308172
  0
LINE
  8
CSLAYER1
  6
CONTINUOUS
 62
     7
 10
125.330037
 20
172.171875
 11
126.365314
 21
168.308172
  0
TEXT
  8
CSLAYER1
 62
     7
 10
130.108521
 20
158.600098
 40
4.000000
 41
0.900000
  1
21
 50
90.000000
 51
0.000000
  7
SX_FONT
 72
     5
 11
130.108521
 21
164.600098
  0
ENDBLK
  8
0
  0
ENDSEC
  0
SECTION
  2
ENTITIES
  0
TEXT
  8
CSLAYER1
 62
     7
 10
74.834557
 20
89.136391
 40
12.000000
 41
0.700000
  1
FM-2123
 50
0.000000
 51
0.000000
  7
SX_FONT
 72
     5
 11
130.834557
 21
89.136391
  0
DIMENSION
  8
CSLAYER1
 62
     7
  2
*D0000
 10
114.859375
 20
181.978923
 11
94.859375
 21
182.978928
 13
74.859375
 23
177.171875
 14
114.859375
 24
177.171875
 70
1
  0
DIMENSION
  8
CSLAYER1
 62
     7
  2
*D0001
 10
125.330037
 20
172.171875
 11
130.108521
 21
161.600098
 13
119.859375
 23
151.171875
 14
119.859375
 24
172.171875
 50
90.000000
 70
1
  0
TEXT
  8
CSLAYER1
 62
     7
 10
74.605011
 20
74.552434
 40
5.547002
 41
0.589931
  1
カタログ Vol. 1  P55
 50
0.000000
 51
0.000000
  7
SX_FONT
 72
     5
 11
125.871796
 21
74.552434
  0
TEXT
  8
CSLAYER1
 62
     7
 10
147.218842
 20
89.766632
 40
12.000000
 41
0.714286
  1
40x21
 50
0.000000
 51
0.000000
  7
SX_FONT
 72
     5
 11
187.218842
 21
89.766632
  0
TEXT
  8
CSLAYER1
 62
     7
 10
74.445494
 20
63.061629
 40
4.960742
 41
0.729057
  1
ホ%%dケットカタロク゛ Vol. 1 P28
 50
0.000000
 51
0.000000
  7
SX_FONT
 72
     5
 11
149.189852
 21
63.061629
  0
LINE
  8
CSLAYER2
  6
CONTINUOUS
 62
     7
 10
74.859375
 20
151.171875
 11
114.859375
 21
151.171875
  0
ARC
  8
CSLAYER2
  6
CONTINUOUS
 62
     7
 10
84.231112
 20
165.376627
 40
7.000000
 50
235.998611
 51
346.767042
  0
ARC
  8
CSLAYER2
  6
CONTINUOUS
 62
     7
 10
78.359375
 20
156.671875
 40
3.500000
 50
55.998611
 51
180.000000
  0
LINE
  8
CSLAYER2
  6
CONTINUOUS
 62
     7
 10
74.859375
 20
156.671875
 11
74.859375
 21
151.171875
  0
LINE
  8
CSLAYER2
  6
CONTINUOUS
 62
     7
 10
114.859375
 20
172.171875
 11
103.859375
 21
170.171875
  0
ARC
  8
CSLAYER2
  6
CONTINUOUS
 62
     7
 10
103.059375
 20
167.985652
 40
0.800000
 50
228.189685
 51
360.000000
  0
LINE
  8
CSLAYER2
  6
CONTINUOUS
 62
     7
 10
103.859375
 20
167.985652
 11
103.859375
 21
170.171875
  0
ARC
  8
CSLAYER2
  6
CONTINUOUS
 62
     7
 10
97.859375
 20
162.171875
 40
7.000000
 50
48.189685
 51
166.767042
  0
LINE
  8
CSLAYER2
  6
CONTINUOUS
 62
     7
 10
114.859375
 20
151.171875
 11
114.859375
 21
172.171875
  0
ENDSEC
  0
EOF
