  0
SECTION
  2
HEADER
  9
$ACADVER
  1
AC1006
  9
$INSBASE
 10
129.492188
 20
142.828125
 30
0.0
  9
$EXTMIN
 10
129.492188
 20
142.828125
  9
$EXTMAX
 10
339.492188
 20
439.828125
  9
$LIMMIN
 10
129.492188
 20
142.828125
  9
$LIMMAX
 10
339.492188
 20
439.828125
  9
$VIEWCTR
 10
234.492188
 20
291.328125
  9
$VIEWSIZE
 40
297.000000
  9
$SNAPMODE
 70
     0
  9
$SNAPUNIT
 10
1.0
 20
1.0
  9
$SNAPBASE
 10
0.0
 20
0.0
  9
$SNAPANG
 50
0.0
  9
$SNAPSTYLE
 70
     0
  9
$SNAPISOPAIR
 70
     0
  9
$GRIDMODE
 70
     0
  9
$GRIDUNIT
 10
0.0
 20
0.0
  9
$ORTHOMODE
 70
     0
  9
$REGENMODE
 70
     1
  9
$FILLMODE
 70
     1
  9
$QTEXTMODE
 70
     0
  9
$DRAGMODE
 70
     2
  9
$LTSCALE
 40
15.000000
  9
$OSMODE
 70
     0
  9
$ATTMODE
 70
     1
  9
$TEXTSIZE
 40
0.2
  9
$TRACEWID
 40
0.05
  9
$TEXTSTYLE
  7
STANDARD
  9
$CLAYER
  8
CSLAYER3
  9
$CELTYPE
  6
BYLAYER
  9
$CECOLOR
 62
   256
  9
$DIMSCALE
 40
1.0
  9
$DIMASZ
 40
0.18
  9
$DIMEXO
 40
0.0625
  9
$DIMDLI
 40
0.38
  9
$DIMRND
 40
0.0
  9
$DIMDLE
 40
0.0
  9
$DIMEXE
 40
0.18
  9
$DIMTP
 40
0.0
  9
$DIMTM
 40
0.0
  9
$DIMTXT
 40
0.18
  9
$DIMCEN
 40
0.09
  9
$DIMTSZ
 40
0.0
  9
$DIMTOL
 70
     0
  9
$DIMLIM
 70
     0
  9
$DIMTIH
 70
     1
  9
$DIMTOH
 70
     1
  9
$DIMSE1
 70
     0
  9
$DIMSE2
 70
     0
  9
$DIMTAD
 70
     0
  9
$DIMZIN
 70
     0
  9
$DIMBLK
  1

  9
$LUNITS
 70
     2
  9
$LUPREC
 70
     4
  9
$AXISMODE
 70
     0
  9
$AXISUNIT
 10
0.0
 20
0.0
  9
$SKETCHINC
 40
0.1
  9
$FILLETRAD
 40
0.0
  9
$AUNITS
 70
     0
  9
$AUPREC
 70
     0
  9
$MENU
  1
ACAD
  9
$ELEVATION
 40
0.0
  9
$THICKNESS
 40
0.0
  9
$VIEWDIR
 10
0.0
 20
0.0
 30
1.0
  9
$LIMCHECK
 70
     0
  9
$BLIPMODE
 70
     1
  9
$CHAMFERA
 40
0.0
  9
$CHAMFERB
 40
0.0
  9
$FASTZOOM
 70
     1
  9
$SKPOLY
 70
     0
  9
$TDCREATE
 40
0.000000
  9
$TDUPDATE
 40
0.000000
  9
$TDINDWG
 40
0.0
  9
$TDUSRTIMER
 40
0.0
  9
$USRTIMER
 70
     1
  9
$ANGBASE
 50
0.0
  9
$ANGDIR
 70
     0
  9
$PDMODE
 70
     0
  9
$PDSIZE
 40
0.0
  9
$PLINEWID
 40
0.0
  9
$COORDS
 70
     0
  9
$USERI1
 70
     0
  9
$USERI2
 70
     0
  9
$USERI3
 70
     0
  9
$USERI4
 70
     0
  9
$USERI5
 70
     0
  9
$USERR1
 40
0.0
  9
$USERR2
 40
0.0
  9
$USERR3
 40
0.0
  9
$USERR4
 40
0.0
  9
$USERR5
 40
0.0
  0
ENDSEC
  0
SECTION
  2
TABLES
  0
TABLE
  2
LTYPE
 70
     9
  0
LTYPE
  2
CONTINUOUS
 70
    64
  3
Solid line
 72
    65
 73
     0
 40
0.0
  0
LTYPE
  2
DASHED
 70
    64
  3
__ __ __ __ __ __ __ __ __ __ __ __ __ __ __
 72
    65
 73
     2
 40
0.75
 49
0.5
 49
-0.25
  0
LTYPE
  2
HIDDEN
 70
    64
  3
_ _ _ _ _ _ _ _ _ _ _ _ _ _ _ _ _ _ _ _ _ _ _
 72
    65
 73
     2
 40
0.375
 49
0.25
 49
-0.125
  0
LTYPE
  2
DOT
 70
    64
  3
...............................................
 72
    65
 73
     2
 40
0.25
 49
0.0
 49
-0.25
  0
LTYPE
  2
DASHDOT
 70
    64
  3
__ . __ . __ . __ . __ . __ . __ . __ . __ . __
 72
    65
 73
     4
 40
1.0
 49
0.5
 49
-0.25
 49
0.0
 49
-0.25
  0
LTYPE
  2
DIVIDE
 70
    64
  3
__ . . __ . . __ . . __ . . __ . . __ . . __
 72
    65
 73
     6
 40
1.25
 49
0.5
 49
-0.25
 49
0.0
 49
-0.25
 49
0.0
 49
-0.25
  0
LTYPE
  2
CENTER
 70
    64
  3
____ _ ____ _ ____ _ ____ _ ____ _ ____ _ ____ 
 72
    65
 73
     4
 40
2.0
 49
1.25
 49
-0.25
 49
0.25
 49
-0.25
  0
LTYPE
  2
PHANTOM
 70
    64
  3
______  __  __  ______  __  __  ______  __  __ 
 72
    65
 73
     6
 40
2.5
 49
1.25
 49
-0.25
 49
0.25
 49
-0.25
 49
0.25
 49
-0.25
  0
LTYPE
  2
BORDER
 70
    64
  3
__ __ . __ __ . __ __ . __ __ . __ __ . __ __ .
 72
    65
 73
     6
 40
1.75
 49
0.5
 49
-0.25
 49
0.5
 49
-0.25
 49
0.0
 49
-0.25
  0
ENDTAB
  0
TABLE
  2
LAYER
 70
    16
  0
LAYER
  2
CSLAYER1
 70
    64
 62
     7
  6
CONTINUOUS
  0
LAYER
  2
CSLAYER2
 70
    64
 62
     7
  6
CONTINUOUS
  0
LAYER
  2
CSLAYER3
 70
    64
 62
     7
  6
CONTINUOUS
  0
LAYER
  2
CSLAYER4
 70
    64
 62
     7
  6
CONTINUOUS
  0
LAYER
  2
CSLAYER5
 70
    64
 62
     7
  6
CONTINUOUS
  0
LAYER
  2
CSLAYER6
 70
    64
 62
     7
  6
CONTINUOUS
  0
LAYER
  2
CSLAYER7
 70
    64
 62
     7
  6
CONTINUOUS
  0
LAYER
  2
CSLAYER8
 70
    64
 62
     7
  6
CONTINUOUS
  0
LAYER
  2
CSLAYER9
 70
    64
 62
     7
  6
CONTINUOUS
  0
LAYER
  2
CSLAYER10
 70
    64
 62
     7
  6
CONTINUOUS
  0
LAYER
  2
CSLAYER11
 70
    64
 62
     7
  6
CONTINUOUS
  0
LAYER
  2
CSLAYER12
 70
    64
 62
     7
  6
CONTINUOUS
  0
LAYER
  2
CSLAYER13
 70
    64
 62
     7
  6
CONTINUOUS
  0
LAYER
  2
CSLAYER14
 70
    64
 62
     7
  6
CONTINUOUS
  0
LAYER
  2
CSLAYER15
 70
    64
 62
     7
  6
CONTINUOUS
  0
LAYER
  2
CSLAYER16
 70
    64
 62
     7
  6
CONTINUOUS
  0
ENDTAB
  0
TABLE
  2
STYLE
 70
     1
  0
STYLE
  2
SX_FONT
 70
     0
 40
1.0
 41
1.0
 50
0.0
 71
     0
 42
1.0
  3
monotxt
  4
bigfont
  0
ENDTAB
  0
TABLE
  2
VIEW
 70
     0
  0
ENDTAB
  0
ENDSEC
  0
SECTION
  2
BLOCKS
  0
BLOCK
  8
CSLAYER1
  2
*D0000
 70
    65
 10
0.0
 20
0.0
 30
0.0
  0
LINE
  8
CSLAYER1
  6
CONTINUOUS
 62
     7
 10
78.335938
 20
169.578125
 11
78.335938
 21
174.654622
  0
LINE
  8
CSLAYER1
  6
CONTINUOUS
 62
     7
 10
128.335938
 20
169.578125
 11
128.335938
 21
174.654622
  0
LINE
  8
CSLAYER1
  6
CONTINUOUS
 62
     7
 10
78.335938
 20
173.654622
 11
128.335938
 21
173.654622
  0
LINE
  8
CSLAYER1
  6
CONTINUOUS
 62
     7
 10
78.335938
 20
173.654622
 11
82.199641
 21
174.689899
  0
LINE
  8
CSLAYER1
  6
CONTINUOUS
 62
     7
 10
78.335938
 20
173.654622
 11
82.199641
 21
172.619346
  0
LINE
  8
CSLAYER1
  6
CONTINUOUS
 62
     7
 10
128.335938
 20
173.654622
 11
124.472234
 21
174.689899
  0
LINE
  8
CSLAYER1
  6
CONTINUOUS
 62
     7
 10
128.335938
 20
173.654622
 11
124.472234
 21
172.619346
  0
TEXT
  8
CSLAYER1
 62
     7
 10
100.335938
 20
174.654617
 40
4.000000
 41
0.900000
  1
50
 50
0.000000
 51
0.000000
  7
SX_FONT
 72
     5
 11
106.335938
 21
174.654617
  0
ENDBLK
  8
0
  0
BLOCK
  8
CSLAYER1
  2
*D0001
 70
    65
 10
0.0
 20
0.0
 30
0.0
  0
LINE
  8
CSLAYER1
  6
CONTINUOUS
 62
     7
 10
134.335938
 20
143.578125
 11
139.221558
 21
143.578125
  0
LINE
  8
CSLAYER1
  6
CONTINUOUS
 62
     7
 10
134.335938
 20
163.578125
 11
139.221558
 21
163.578125
  0
LINE
  8
CSLAYER1
  6
CONTINUOUS
 62
     7
 10
138.221558
 20
143.578125
 11
138.221558
 21
163.578125
  0
LINE
  8
CSLAYER1
  6
CONTINUOUS
 62
     7
 10
138.221558
 20
143.578125
 11
137.186281
 21
147.441828
  0
LINE
  8
CSLAYER1
  6
CONTINUOUS
 62
     7
 10
138.221558
 20
143.578125
 11
139.256834
 21
147.441828
  0
LINE
  8
CSLAYER1
  6
CONTINUOUS
 62
     7
 10
138.221558
 20
163.578125
 11
137.186281
 21
159.714422
  0
LINE
  8
CSLAYER1
  6
CONTINUOUS
 62
     7
 10
138.221558
 20
163.578125
 11
139.256834
 21
159.714422
  0
TEXT
  8
CSLAYER1
 62
     7
 10
143.395706
 20
150.216721
 40
4.000000
 41
0.900000
  1
20
 50
90.000000
 51
0.000000
  7
SX_FONT
 72
     5
 11
143.395706
 21
156.216721
  0
ENDBLK
  8
0
  0
ENDSEC
  0
SECTION
  2
ENTITIES
  0
ARC
  8
CSLAYER2
  6
CONTINUOUS
 62
     7
 10
128.634820
 20
155.583710
 40
8.000000
 50
92.141090
 51
110.478775
  0
ARC
  8
CSLAYER2
  6
CONTINUOUS
 62
     7
 10
110.420822
 20
165.031480
 40
9.000000
 50
275.835895
 51
330.205522
  0
ARC
  8
CSLAYER2
  6
CONTINUOUS
 62
     7
 10
101.616320
 20
158.429514
 40
10.000000
 50
319.695340
 51
346.400192
  0
ARC
  8
CSLAYER2
  6
CONTINUOUS
 62
     7
 10
107.335937
 20
153.578125
 40
2.500000
 50
270.000000
 51
319.695340
  0
ARC
  8
CSLAYER2
  6
CONTINUOUS
 62
     7
 10
107.335937
 20
153.578125
 40
2.500000
 50
220.304660
 51
270.000000
  0
ARC
  8
CSLAYER2
  6
CONTINUOUS
 62
     7
 10
113.055555
 20
158.429514
 40
10.000000
 50
212.136926
 51
220.304660
  0
ARC
  8
CSLAYER2
  6
CONTINUOUS
 62
     7
 10
103.740983
 20
152.578125
 40
1.000000
 50
32.136926
 51
90.000000
  0
LINE
  8
CSLAYER2
  6
CONTINUOUS
 62
     7
 10
103.740983
 20
153.578125
 11
103.130166
 21
153.578125
  0
ARC
  8
CSLAYER2
  6
CONTINUOUS
 62
     7
 10
80.335937
 20
150.224075
 40
2.000000
 50
112.024313
 51
180.000000
  0
ARC
  8
CSLAYER2
  6
CONTINUOUS
 62
     7
 10
85.888221
 20
150.593713
 40
4.000000
 50
60.587061
 51
95.059970
  0
LINE
  8
CSLAYER2
  6
CONTINUOUS
 62
     7
 10
78.335938
 20
150.224075
 11
78.335938
 21
143.578125
  0
LINE
  8
CSLAYER2
  6
CONTINUOUS
 62
     7
 10
78.335938
 20
143.578125
 11
128.335938
 21
143.578125
  0
LINE
  8
CSLAYER2
  6
CONTINUOUS
 62
     7
 10
128.335938
 20
143.578125
 11
128.335938
 21
163.578125
  0
ARC
  8
CSLAYER2
  6
CONTINUOUS
 62
     7
 10
123.438022
 20
157.578125
 40
6.000000
 50
90.000000
 51
150.205522
  0
ARC
  8
CSLAYER2
  6
CONTINUOUS
 62
     7
 10
123.438022
 20
157.578125
 40
6.000000
 50
66.443536
 51
90.000000
  0
ARC
  8
CSLAYER2
  6
CONTINUOUS
 62
     7
 10
95.335938
 20
149.078125
 40
9.000000
 50
90.000000
 51
146.251011
  0
ARC
  8
CSLAYER2
  6
CONTINUOUS
 62
     7
 10
95.335938
 20
149.078125
 40
9.000000
 50
30.000000
 51
90.000000
  0
ARC
  8
CSLAYER2
  6
CONTINUOUS
 62
     7
 10
83.085938
 20
152.078125
 40
3.500000
 50
90.000000
 51
180.000000
  0
ARC
  8
CSLAYER2
  6
CONTINUOUS
 62
     7
 10
83.085938
 20
152.078125
 40
3.500000
 50
45.584691
 51
90.000000
  0
TEXT
  8
CSLAYER1
 62
     7
 10
78.537041
 20
82.549614
 40
10.000000
 41
0.630000
  1
FM-2121
 50
0.000000
 51
0.000000
  7
SX_FONT
 72
     5
 11
120.537041
 21
82.549614
  0
DIMENSION
  8
CSLAYER1
 62
     7
  2
*D0000
 10
128.335938
 20
173.654622
 11
103.335938
 21
174.654617
 13
78.335938
 23
168.578125
 14
128.335938
 24
168.578125
 70
1
  0
DIMENSION
  8
CSLAYER1
 62
     7
  2
*D0001
 10
138.221558
 20
163.578125
 11
143.395706
 21
153.216721
 13
133.335938
 23
143.578125
 14
133.335938
 24
163.578125
 50
90.000000
 70
1
  0
TEXT
  8
CSLAYER1
 62
     7
 10
135.668991
 20
82.692635
 40
10.000000
 41
0.642857
  1
50x20
 50
0.000000
 51
0.000000
  7
SX_FONT
 72
     5
 11
165.668991
 21
82.692635
  0
TEXT
  8
CSLAYER1
 62
     7
 10
79.714951
 20
70.793037
 40
5.000000
 41
0.612766
  1
カタログ Vol. 1  P54
 50
0.000000
 51
0.000000
  7
SX_FONT
 72
     5
 11
127.714951
 21
70.793037
  0
TEXT
  8
CSLAYER1
 62
     7
 10
79.647284
 20
59.848758
 40
4.960742
 41
0.729057
  1
ホ%%dケットカタロク゛ Vol. 1 P27
 50
0.000000
 51
0.000000
  7
SX_FONT
 72
     5
 11
154.391641
 21
59.848758
  0
ENDSEC
  0
EOF
