  0
SECTION
  2
HEADER
  9
$ACADVER
  1
AC1006
  9
$INSBASE
 10
51.342424
 20
187.677262
 30
0.0
  9
$EXTMIN
 10
51.342424
 20
187.677262
  9
$EXTMAX
 10
261.342424
 20
484.677262
  9
$LIMMIN
 10
51.342424
 20
187.677262
  9
$LIMMAX
 10
261.342424
 20
484.677262
  9
$VIEWCTR
 10
156.342424
 20
336.177262
  9
$VIEWSIZE
 40
297.000000
  9
$SNAPMODE
 70
     0
  9
$SNAPUNIT
 10
1.0
 20
1.0
  9
$SNAPBASE
 10
0.0
 20
0.0
  9
$SNAPANG
 50
0.0
  9
$SNAPSTYLE
 70
     0
  9
$SNAPISOPAIR
 70
     0
  9
$GRIDMODE
 70
     0
  9
$GRIDUNIT
 10
0.0
 20
0.0
  9
$ORTHOMODE
 70
     0
  9
$REGENMODE
 70
     1
  9
$FILLMODE
 70
     1
  9
$QTEXTMODE
 70
     0
  9
$DRAGMODE
 70
     2
  9
$LTSCALE
 40
15.000000
  9
$OSMODE
 70
     0
  9
$ATTMODE
 70
     1
  9
$TEXTSIZE
 40
0.2
  9
$TRACEWID
 40
0.05
  9
$TEXTSTYLE
  7
STANDARD
  9
$CLAYER
  8
CSLAYER3
  9
$CELTYPE
  6
BYLAYER
  9
$CECOLOR
 62
   256
  9
$DIMSCALE
 40
1.0
  9
$DIMASZ
 40
0.18
  9
$DIMEXO
 40
0.0625
  9
$DIMDLI
 40
0.38
  9
$DIMRND
 40
0.0
  9
$DIMDLE
 40
0.0
  9
$DIMEXE
 40
0.18
  9
$DIMTP
 40
0.0
  9
$DIMTM
 40
0.0
  9
$DIMTXT
 40
0.18
  9
$DIMCEN
 40
0.09
  9
$DIMTSZ
 40
0.0
  9
$DIMTOL
 70
     0
  9
$DIMLIM
 70
     0
  9
$DIMTIH
 70
     1
  9
$DIMTOH
 70
     1
  9
$DIMSE1
 70
     0
  9
$DIMSE2
 70
     0
  9
$DIMTAD
 70
     0
  9
$DIMZIN
 70
     0
  9
$DIMBLK
  1

  9
$LUNITS
 70
     2
  9
$LUPREC
 70
     4
  9
$AXISMODE
 70
     0
  9
$AXISUNIT
 10
0.0
 20
0.0
  9
$SKETCHINC
 40
0.1
  9
$FILLETRAD
 40
0.0
  9
$AUNITS
 70
     0
  9
$AUPREC
 70
     0
  9
$MENU
  1
ACAD
  9
$ELEVATION
 40
0.0
  9
$THICKNESS
 40
0.0
  9
$VIEWDIR
 10
0.0
 20
0.0
 30
1.0
  9
$LIMCHECK
 70
     0
  9
$BLIPMODE
 70
     1
  9
$CHAMFERA
 40
0.0
  9
$CHAMFERB
 40
0.0
  9
$FASTZOOM
 70
     1
  9
$SKPOLY
 70
     0
  9
$TDCREATE
 40
0.000000
  9
$TDUPDATE
 40
0.000000
  9
$TDINDWG
 40
0.0
  9
$TDUSRTIMER
 40
0.0
  9
$USRTIMER
 70
     1
  9
$ANGBASE
 50
0.0
  9
$ANGDIR
 70
     0
  9
$PDMODE
 70
     0
  9
$PDSIZE
 40
0.0
  9
$PLINEWID
 40
0.0
  9
$COORDS
 70
     0
  9
$USERI1
 70
     0
  9
$USERI2
 70
     0
  9
$USERI3
 70
     0
  9
$USERI4
 70
     0
  9
$USERI5
 70
     0
  9
$USERR1
 40
0.0
  9
$USERR2
 40
0.0
  9
$USERR3
 40
0.0
  9
$USERR4
 40
0.0
  9
$USERR5
 40
0.0
  0
ENDSEC
  0
SECTION
  2
TABLES
  0
TABLE
  2
LTYPE
 70
     9
  0
LTYPE
  2
CONTINUOUS
 70
    64
  3
Solid line
 72
    65
 73
     0
 40
0.0
  0
LTYPE
  2
DASHED
 70
    64
  3
__ __ __ __ __ __ __ __ __ __ __ __ __ __ __
 72
    65
 73
     2
 40
0.75
 49
0.5
 49
-0.25
  0
LTYPE
  2
HIDDEN
 70
    64
  3
_ _ _ _ _ _ _ _ _ _ _ _ _ _ _ _ _ _ _ _ _ _ _
 72
    65
 73
     2
 40
0.375
 49
0.25
 49
-0.125
  0
LTYPE
  2
DOT
 70
    64
  3
...............................................
 72
    65
 73
     2
 40
0.25
 49
0.0
 49
-0.25
  0
LTYPE
  2
DASHDOT
 70
    64
  3
__ . __ . __ . __ . __ . __ . __ . __ . __ . __
 72
    65
 73
     4
 40
1.0
 49
0.5
 49
-0.25
 49
0.0
 49
-0.25
  0
LTYPE
  2
DIVIDE
 70
    64
  3
__ . . __ . . __ . . __ . . __ . . __ . . __
 72
    65
 73
     6
 40
1.25
 49
0.5
 49
-0.25
 49
0.0
 49
-0.25
 49
0.0
 49
-0.25
  0
LTYPE
  2
CENTER
 70
    64
  3
____ _ ____ _ ____ _ ____ _ ____ _ ____ _ ____ 
 72
    65
 73
     4
 40
2.0
 49
1.25
 49
-0.25
 49
0.25
 49
-0.25
  0
LTYPE
  2
PHANTOM
 70
    64
  3
______  __  __  ______  __  __  ______  __  __ 
 72
    65
 73
     6
 40
2.5
 49
1.25
 49
-0.25
 49
0.25
 49
-0.25
 49
0.25
 49
-0.25
  0
LTYPE
  2
BORDER
 70
    64
  3
__ __ . __ __ . __ __ . __ __ . __ __ . __ __ .
 72
    65
 73
     6
 40
1.75
 49
0.5
 49
-0.25
 49
0.5
 49
-0.25
 49
0.0
 49
-0.25
  0
ENDTAB
  0
TABLE
  2
LAYER
 70
    16
  0
LAYER
  2
CSLAYER1
 70
    64
 62
     7
  6
CONTINUOUS
  0
LAYER
  2
CSLAYER2
 70
    64
 62
     7
  6
CONTINUOUS
  0
LAYER
  2
CSLAYER3
 70
    64
 62
     7
  6
CONTINUOUS
  0
LAYER
  2
CSLAYER4
 70
    64
 62
     7
  6
CONTINUOUS
  0
LAYER
  2
CSLAYER5
 70
    64
 62
     7
  6
CONTINUOUS
  0
LAYER
  2
CSLAYER6
 70
    64
 62
     7
  6
CONTINUOUS
  0
LAYER
  2
CSLAYER7
 70
    64
 62
     7
  6
CONTINUOUS
  0
LAYER
  2
CSLAYER8
 70
    64
 62
     7
  6
CONTINUOUS
  0
LAYER
  2
CSLAYER9
 70
    64
 62
     7
  6
CONTINUOUS
  0
LAYER
  2
CSLAYER10
 70
    64
 62
     7
  6
CONTINUOUS
  0
LAYER
  2
CSLAYER11
 70
    64
 62
     7
  6
CONTINUOUS
  0
LAYER
  2
CSLAYER12
 70
    64
 62
     7
  6
CONTINUOUS
  0
LAYER
  2
CSLAYER13
 70
    64
 62
     7
  6
CONTINUOUS
  0
LAYER
  2
CSLAYER14
 70
    64
 62
     7
  6
CONTINUOUS
  0
LAYER
  2
CSLAYER15
 70
    64
 62
     7
  6
CONTINUOUS
  0
LAYER
  2
CSLAYER16
 70
    64
 62
     7
  6
CONTINUOUS
  0
ENDTAB
  0
TABLE
  2
STYLE
 70
     1
  0
STYLE
  2
SX_FONT
 70
     0
 40
1.0
 41
1.0
 50
0.0
 71
     0
 42
1.0
  3
monotxt
  4
bigfont
  0
ENDTAB
  0
TABLE
  2
VIEW
 70
     0
  0
ENDTAB
  0
ENDSEC
  0
SECTION
  2
BLOCKS
  0
BLOCK
  8
CSLAYER1
  2
*D0000
 70
    65
 10
0.0
 20
0.0
 30
0.0
  0
LINE
  8
CSLAYER1
  6
CONTINUOUS
 62
     7
 10
51.132507
 20
183.656250
 11
51.132507
 21
188.559844
  0
LINE
  8
CSLAYER1
  6
CONTINUOUS
 62
     7
 10
126.132507
 20
183.656250
 11
126.132507
 21
188.559844
  0
LINE
  8
CSLAYER1
  6
CONTINUOUS
 62
     7
 10
51.132507
 20
187.559844
 11
126.132507
 21
187.559844
  0
LINE
  8
CSLAYER1
  6
CONTINUOUS
 62
     7
 10
51.132507
 20
187.559844
 11
54.996211
 21
188.595120
  0
LINE
  8
CSLAYER1
  6
CONTINUOUS
 62
     7
 10
51.132507
 20
187.559844
 11
54.996211
 21
186.524567
  0
LINE
  8
CSLAYER1
  6
CONTINUOUS
 62
     7
 10
126.132507
 20
187.559844
 11
122.268804
 21
188.595120
  0
LINE
  8
CSLAYER1
  6
CONTINUOUS
 62
     7
 10
126.132507
 20
187.559844
 11
122.268804
 21
186.524567
  0
TEXT
  8
CSLAYER1
 62
     7
 10
85.632507
 20
188.559845
 40
4.000000
 41
0.900000
  1
75
 50
0.000000
 51
0.000000
  7
SX_FONT
 72
     5
 11
91.632507
 21
188.559845
  0
ENDBLK
  8
0
  0
BLOCK
  8
CSLAYER1
  2
*D0001
 70
    65
 10
0.0
 20
0.0
 30
0.0
  0
LINE
  8
CSLAYER1
  6
CONTINUOUS
 62
     7
 10
132.132507
 20
150.656250
 11
137.391060
 21
150.656250
  0
LINE
  8
CSLAYER1
  6
CONTINUOUS
 62
     7
 10
132.132507
 20
177.656250
 11
137.391060
 21
177.656250
  0
LINE
  8
CSLAYER1
  6
CONTINUOUS
 62
     7
 10
136.391060
 20
150.656250
 11
136.391060
 21
177.656250
  0
LINE
  8
CSLAYER1
  6
CONTINUOUS
 62
     7
 10
136.391060
 20
150.656250
 11
135.355784
 21
154.519953
  0
LINE
  8
CSLAYER1
  6
CONTINUOUS
 62
     7
 10
136.391060
 20
150.656250
 11
137.426336
 21
154.519953
  0
LINE
  8
CSLAYER1
  6
CONTINUOUS
 62
     7
 10
136.391060
 20
177.656250
 11
135.355784
 21
173.792547
  0
LINE
  8
CSLAYER1
  6
CONTINUOUS
 62
     7
 10
136.391060
 20
177.656250
 11
137.426336
 21
173.792547
  0
TEXT
  8
CSLAYER1
 62
     7
 10
141.292892
 20
161.031067
 40
4.000000
 41
0.900000
  1
27
 50
90.000000
 51
0.000000
  7
SX_FONT
 72
     5
 11
141.292892
 21
167.031067
  0
ENDBLK
  8
0
  0
ENDSEC
  0
SECTION
  2
ENTITIES
  0
LINE
  8
CSLAYER2
  6
CONTINUOUS
 62
     7
 10
93.596477
 20
171.249723
 11
88.549253
 21
164.887537
  0
LINE
  8
CSLAYER2
  6
CONTINUOUS
 62
     7
 10
70.000962
 20
162.540824
 11
67.040834
 21
159.656250
  0
ARC
  8
CSLAYER2
  6
CONTINUOUS
 62
     7
 10
78.756546
 20
172.656250
 40
12.500000
 50
233.354309
 51
321.574464
  0
ARC
  8
CSLAYER2
  6
CONTINUOUS
 62
     7
 10
100.647226
 20
165.656250
 40
9.000000
 50
90.000000
 51
141.574464
  0
ARC
  8
CSLAYER2
  6
CONTINUOUS
 62
     7
 10
100.647226
 20
165.656250
 40
9.000000
 50
19.471221
 51
90.000000
  0
ARC
  8
CSLAYER2
  6
CONTINUOUS
 62
     7
 10
61.632507
 20
150.656250
 40
10.500000
 50
90.000000
 51
180.000000
  0
ARC
  8
CSLAYER2
  6
CONTINUOUS
 62
     7
 10
61.632507
 20
150.656250
 40
10.500000
 50
58.997281
 51
90.000000
  0
ARC
  8
CSLAYER2
  6
CONTINUOUS
 62
     7
 10
70.698870
 20
161.824636
 40
1.000000
 50
90.000000
 51
134.259387
  0
ARC
  8
CSLAYER2
  6
CONTINUOUS
 62
     7
 10
70.698870
 20
161.824636
 40
1.000000
 50
53.354309
 51
90.000000
  0
LINE
  8
CSLAYER2
  6
CONTINUOUS
 62
     7
 10
109.132507
 20
168.656250
 11
112.132507
 21
168.656250
  0
LINE
  8
CSLAYER2
  6
CONTINUOUS
 62
     7
 10
112.132507
 20
168.656250
 11
112.132507
 21
177.656250
  0
LINE
  8
CSLAYER2
  6
CONTINUOUS
 62
     7
 10
112.132507
 20
177.656250
 11
126.132507
 21
177.656250
  0
LINE
  8
CSLAYER2
  6
CONTINUOUS
 62
     7
 10
126.132507
 20
177.656250
 11
126.132507
 21
150.656250
  0
LINE
  8
CSLAYER2
  6
CONTINUOUS
 62
     7
 10
126.132507
 20
150.656250
 11
51.132507
 21
150.656250
  0
TEXT
  8
CSLAYER1
 62
     7
 10
50.904762
 20
90.501472
 40
10.000000
 41
0.630000
  1
FM-2120
 50
0.000000
 51
0.000000
  7
SX_FONT
 72
     5
 11
92.904762
 21
90.501472
  0
DIMENSION
  8
CSLAYER1
 62
     7
  2
*D0000
 10
126.132507
 20
187.559844
 11
88.632507
 21
188.559845
 13
51.132507
 23
182.656250
 14
126.132507
 24
182.656250
 70
1
  0
DIMENSION
  8
CSLAYER1
 62
     7
  2
*D0001
 10
136.391060
 20
177.656250
 11
141.292892
 21
164.031067
 13
131.132507
 23
150.656250
 14
131.132507
 24
177.656250
 50
90.000000
 70
1
  0
TEXT
  8
CSLAYER1
 62
     7
 10
108.117126
 20
90.318726
 40
10.000000
 41
0.642857
  1
75x27
 50
0.000000
 51
0.000000
  7
SX_FONT
 72
     5
 11
138.117126
 21
90.318726
  0
TEXT
  8
CSLAYER1
 62
     7
 10
51.760765
 20
78.249504
 40
5.000000
 41
0.612766
  1
カタログ Vol. 1  P54
 50
0.000000
 51
0.000000
  7
SX_FONT
 72
     5
 11
99.760765
 21
78.249504
  0
TEXT
  8
CSLAYER1
 62
     7
 10
52.026907
 20
66.991294
 40
4.960742
 41
0.729057
  1
ホ%%dケットカタロク゛ Vol. 1 P27
 50
0.000000
 51
0.000000
  7
SX_FONT
 72
     5
 11
126.771265
 21
66.991294
  0
ENDSEC
  0
EOF
