  0
SECTION
  2
HEADER
  9
$ACADVER
  1
AC1006
  9
$INSBASE
 10
80.542725
 20
160.112305
 30
0.0
  9
$EXTMIN
 10
80.542725
 20
160.112305
  9
$EXTMAX
 10
290.542725
 20
457.112305
  9
$LIMMIN
 10
80.542725
 20
160.112305
  9
$LIMMAX
 10
290.542725
 20
457.112305
  9
$VIEWCTR
 10
185.542725
 20
308.612305
  9
$VIEWSIZE
 40
297.000000
  9
$SNAPMODE
 70
     0
  9
$SNAPUNIT
 10
1.0
 20
1.0
  9
$SNAPBASE
 10
0.0
 20
0.0
  9
$SNAPANG
 50
0.0
  9
$SNAPSTYLE
 70
     0
  9
$SNAPISOPAIR
 70
     0
  9
$GRIDMODE
 70
     0
  9
$GRIDUNIT
 10
0.0
 20
0.0
  9
$ORTHOMODE
 70
     0
  9
$REGENMODE
 70
     1
  9
$FILLMODE
 70
     1
  9
$QTEXTMODE
 70
     0
  9
$DRAGMODE
 70
     2
  9
$LTSCALE
 40
15.000000
  9
$OSMODE
 70
     0
  9
$ATTMODE
 70
     1
  9
$TEXTSIZE
 40
0.2
  9
$TRACEWID
 40
0.05
  9
$TEXTSTYLE
  7
STANDARD
  9
$CLAYER
  8
CSLAYER3
  9
$CELTYPE
  6
BYLAYER
  9
$CECOLOR
 62
   256
  9
$DIMSCALE
 40
1.0
  9
$DIMASZ
 40
0.18
  9
$DIMEXO
 40
0.0625
  9
$DIMDLI
 40
0.38
  9
$DIMRND
 40
0.0
  9
$DIMDLE
 40
0.0
  9
$DIMEXE
 40
0.18
  9
$DIMTP
 40
0.0
  9
$DIMTM
 40
0.0
  9
$DIMTXT
 40
0.18
  9
$DIMCEN
 40
0.09
  9
$DIMTSZ
 40
0.0
  9
$DIMTOL
 70
     0
  9
$DIMLIM
 70
     0
  9
$DIMTIH
 70
     1
  9
$DIMTOH
 70
     1
  9
$DIMSE1
 70
     0
  9
$DIMSE2
 70
     0
  9
$DIMTAD
 70
     0
  9
$DIMZIN
 70
     0
  9
$DIMBLK
  1

  9
$LUNITS
 70
     2
  9
$LUPREC
 70
     4
  9
$AXISMODE
 70
     0
  9
$AXISUNIT
 10
0.0
 20
0.0
  9
$SKETCHINC
 40
0.1
  9
$FILLETRAD
 40
0.0
  9
$AUNITS
 70
     0
  9
$AUPREC
 70
     0
  9
$MENU
  1
ACAD
  9
$ELEVATION
 40
0.0
  9
$THICKNESS
 40
0.0
  9
$VIEWDIR
 10
0.0
 20
0.0
 30
1.0
  9
$LIMCHECK
 70
     0
  9
$BLIPMODE
 70
     1
  9
$CHAMFERA
 40
0.0
  9
$CHAMFERB
 40
0.0
  9
$FASTZOOM
 70
     1
  9
$SKPOLY
 70
     0
  9
$TDCREATE
 40
0.000000
  9
$TDUPDATE
 40
0.000000
  9
$TDINDWG
 40
0.0
  9
$TDUSRTIMER
 40
0.0
  9
$USRTIMER
 70
     1
  9
$ANGBASE
 50
0.0
  9
$ANGDIR
 70
     0
  9
$PDMODE
 70
     0
  9
$PDSIZE
 40
0.0
  9
$PLINEWID
 40
0.0
  9
$COORDS
 70
     0
  9
$USERI1
 70
     0
  9
$USERI2
 70
     0
  9
$USERI3
 70
     0
  9
$USERI4
 70
     0
  9
$USERI5
 70
     0
  9
$USERR1
 40
0.0
  9
$USERR2
 40
0.0
  9
$USERR3
 40
0.0
  9
$USERR4
 40
0.0
  9
$USERR5
 40
0.0
  0
ENDSEC
  0
SECTION
  2
TABLES
  0
TABLE
  2
LTYPE
 70
     9
  0
LTYPE
  2
CONTINUOUS
 70
    64
  3
Solid line
 72
    65
 73
     0
 40
0.0
  0
LTYPE
  2
DASHED
 70
    64
  3
__ __ __ __ __ __ __ __ __ __ __ __ __ __ __
 72
    65
 73
     2
 40
0.75
 49
0.5
 49
-0.25
  0
LTYPE
  2
HIDDEN
 70
    64
  3
_ _ _ _ _ _ _ _ _ _ _ _ _ _ _ _ _ _ _ _ _ _ _
 72
    65
 73
     2
 40
0.375
 49
0.25
 49
-0.125
  0
LTYPE
  2
DOT
 70
    64
  3
...............................................
 72
    65
 73
     2
 40
0.25
 49
0.0
 49
-0.25
  0
LTYPE
  2
DASHDOT
 70
    64
  3
__ . __ . __ . __ . __ . __ . __ . __ . __ . __
 72
    65
 73
     4
 40
1.0
 49
0.5
 49
-0.25
 49
0.0
 49
-0.25
  0
LTYPE
  2
DIVIDE
 70
    64
  3
__ . . __ . . __ . . __ . . __ . . __ . . __
 72
    65
 73
     6
 40
1.25
 49
0.5
 49
-0.25
 49
0.0
 49
-0.25
 49
0.0
 49
-0.25
  0
LTYPE
  2
CENTER
 70
    64
  3
____ _ ____ _ ____ _ ____ _ ____ _ ____ _ ____ 
 72
    65
 73
     4
 40
2.0
 49
1.25
 49
-0.25
 49
0.25
 49
-0.25
  0
LTYPE
  2
PHANTOM
 70
    64
  3
______  __  __  ______  __  __  ______  __  __ 
 72
    65
 73
     6
 40
2.5
 49
1.25
 49
-0.25
 49
0.25
 49
-0.25
 49
0.25
 49
-0.25
  0
LTYPE
  2
BORDER
 70
    64
  3
__ __ . __ __ . __ __ . __ __ . __ __ . __ __ .
 72
    65
 73
     6
 40
1.75
 49
0.5
 49
-0.25
 49
0.5
 49
-0.25
 49
0.0
 49
-0.25
  0
ENDTAB
  0
TABLE
  2
LAYER
 70
    16
  0
LAYER
  2
CSLAYER1
 70
    64
 62
     7
  6
CONTINUOUS
  0
LAYER
  2
CSLAYER2
 70
    64
 62
     7
  6
CONTINUOUS
  0
LAYER
  2
CSLAYER3
 70
    64
 62
     7
  6
CONTINUOUS
  0
LAYER
  2
CSLAYER4
 70
    64
 62
     7
  6
CONTINUOUS
  0
LAYER
  2
CSLAYER5
 70
    64
 62
     7
  6
CONTINUOUS
  0
LAYER
  2
CSLAYER6
 70
    64
 62
     7
  6
CONTINUOUS
  0
LAYER
  2
CSLAYER7
 70
    64
 62
     7
  6
CONTINUOUS
  0
LAYER
  2
CSLAYER8
 70
    64
 62
     7
  6
CONTINUOUS
  0
LAYER
  2
CSLAYER9
 70
    64
 62
     7
  6
CONTINUOUS
  0
LAYER
  2
CSLAYER10
 70
    64
 62
     7
  6
CONTINUOUS
  0
LAYER
  2
CSLAYER11
 70
    64
 62
     7
  6
CONTINUOUS
  0
LAYER
  2
CSLAYER12
 70
    64
 62
     7
  6
CONTINUOUS
  0
LAYER
  2
CSLAYER13
 70
    64
 62
     7
  6
CONTINUOUS
  0
LAYER
  2
CSLAYER14
 70
    64
 62
     7
  6
CONTINUOUS
  0
LAYER
  2
CSLAYER15
 70
    64
 62
     7
  6
CONTINUOUS
  0
LAYER
  2
CSLAYER16
 70
    64
 62
     7
  6
CONTINUOUS
  0
ENDTAB
  0
TABLE
  2
STYLE
 70
     1
  0
STYLE
  2
SX_FONT
 70
     0
 40
1.0
 41
1.0
 50
0.0
 71
     0
 42
1.0
  3
monotxt
  4
bigfont
  0
ENDTAB
  0
TABLE
  2
VIEW
 70
     0
  0
ENDTAB
  0
ENDSEC
  0
SECTION
  2
BLOCKS
  0
BLOCK
  8
CSLAYER1
  2
*D0000
 70
    65
 10
0.0
 20
0.0
 30
0.0
  0
LINE
  8
CSLAYER1
  6
CONTINUOUS
 62
     7
 10
81.789063
 20
155.872396
 11
81.789063
 21
160.761309
  0
LINE
  8
CSLAYER1
  6
CONTINUOUS
 62
     7
 10
111.789063
 20
155.872396
 11
111.789063
 21
160.761309
  0
LINE
  8
CSLAYER1
  6
CONTINUOUS
 62
     7
 10
81.789063
 20
159.761309
 11
111.789063
 21
159.761309
  0
LINE
  8
CSLAYER1
  6
CONTINUOUS
 62
     7
 10
81.789063
 20
159.761309
 11
85.652766
 21
160.796585
  0
LINE
  8
CSLAYER1
  6
CONTINUOUS
 62
     7
 10
81.789063
 20
159.761309
 11
85.652766
 21
158.726033
  0
LINE
  8
CSLAYER1
  6
CONTINUOUS
 62
     7
 10
111.789063
 20
159.761309
 11
107.925359
 21
160.796585
  0
LINE
  8
CSLAYER1
  6
CONTINUOUS
 62
     7
 10
111.789063
 20
159.761309
 11
107.925359
 21
158.726033
  0
TEXT
  8
CSLAYER1
 62
     7
 10
93.789063
 20
160.761307
 40
4.000000
 41
0.900000
  1
30
 50
0.000000
 51
0.000000
  7
SX_FONT
 72
     5
 11
99.789063
 21
160.761307
  0
ENDBLK
  8
0
  0
BLOCK
  8
CSLAYER1
  2
*D0001
 70
    65
 10
0.0
 20
0.0
 30
0.0
  0
LINE
  8
CSLAYER1
  6
CONTINUOUS
 62
     7
 10
117.807048
 20
138.031250
 11
122.840365
 21
138.031250
  0
LINE
  8
CSLAYER1
  6
CONTINUOUS
 62
     7
 10
117.807048
 20
150.031250
 11
122.840365
 21
150.031250
  0
LINE
  8
CSLAYER1
  6
CONTINUOUS
 62
     7
 10
121.840365
 20
138.031250
 11
121.840365
 21
150.031250
  0
LINE
  8
CSLAYER1
  6
CONTINUOUS
 62
     7
 10
121.840365
 20
132.031250
 11
121.840365
 21
138.031250
  0
LINE
  8
CSLAYER1
  6
CONTINUOUS
 62
     7
 10
121.840365
 20
138.031250
 11
120.805089
 21
134.167547
  0
LINE
  8
CSLAYER1
  6
CONTINUOUS
 62
     7
 10
121.840365
 20
138.031250
 11
122.875641
 21
134.167547
  0
LINE
  8
CSLAYER1
  6
CONTINUOUS
 62
     7
 10
121.840365
 20
150.031250
 11
121.840365
 21
156.031250
  0
LINE
  8
CSLAYER1
  6
CONTINUOUS
 62
     7
 10
121.840365
 20
150.031250
 11
120.805089
 21
153.894953
  0
LINE
  8
CSLAYER1
  6
CONTINUOUS
 62
     7
 10
121.840365
 20
150.031250
 11
122.875641
 21
153.894953
  0
TEXT
  8
CSLAYER1
 62
     7
 10
126.840363
 20
141.031250
 40
4.000000
 41
0.900000
  1
12
 50
90.000000
 51
0.000000
  7
SX_FONT
 72
     5
 11
126.840363
 21
147.031250
  0
ENDBLK
  8
0
  0
ENDSEC
  0
SECTION
  2
ENTITIES
  0
ARC
  8
CSLAYER2
  6
CONTINUOUS
 62
     7
 10
90.680310
 20
148.080394
 40
4.000000
 50
228.441316
 51
342.548445
  0
LINE
  8
CSLAYER2
  6
CONTINUOUS
 62
     7
 10
103.789063
 20
150.031250
 11
103.789063
 21
149.231250
  0
LINE
  8
CSLAYER2
  6
CONTINUOUS
 62
     7
 10
100.742818
 20
149.584994
 11
102.785145
 21
148.600668
  0
ARC
  8
CSLAYER2
  6
CONTINUOUS
 62
     7
 10
103.089063
 20
149.231250
 40
0.700000
 50
-115.732352
 51
0.000000
  0
ARC
  8
CSLAYER2
  6
CONTINUOUS
 62
     7
 10
85.539063
 20
142.281250
 40
3.750000
 50
48.441316
 51
90.000000
  0
ARC
  8
CSLAYER2
  6
CONTINUOUS
 62
     7
 10
85.539063
 20
142.281250
 40
3.750000
 50
90.000000
 51
180.000000
  0
ARC
  8
CSLAYER2
  6
CONTINUOUS
 62
     7
 10
98.789063
 20
145.531250
 40
4.500000
 50
64.267648
 51
90.000000
  0
ARC
  8
CSLAYER2
  6
CONTINUOUS
 62
     7
 10
98.789063
 20
145.531250
 40
4.500000
 50
90.000000
 51
162.548445
  0
LINE
  8
CSLAYER2
  6
CONTINUOUS
 62
     7
 10
103.789063
 20
150.031250
 11
111.789063
 21
150.031250
  0
LINE
  8
CSLAYER2
  6
CONTINUOUS
 62
     7
 10
111.789063
 20
150.031250
 11
111.789063
 21
138.031250
  0
LINE
  8
CSLAYER2
  6
CONTINUOUS
 62
     7
 10
111.789063
 20
138.031250
 11
81.789063
 21
138.031250
  0
LINE
  8
CSLAYER2
  6
CONTINUOUS
 62
     7
 10
81.789063
 20
138.031250
 11
81.789063
 21
142.281250
  0
TEXT
  8
CSLAYER1
 62
     7
 10
81.723228
 20
77.441391
 40
10.000000
 41
0.630000
  1
FM-2114
 50
0.000000
 51
0.000000
  7
SX_FONT
 72
     5
 11
123.723228
 21
77.441391
  0
TEXT
  8
CSLAYER1
 62
     7
 10
138.781448
 20
77.395447
 40
10.000000
 41
0.642857
  1
30x12
 50
0.000000
 51
0.000000
  7
SX_FONT
 72
     5
 11
168.781448
 21
77.395447
  0
TEXT
  8
CSLAYER1
 62
     7
 10
82.726151
 20
65.633461
 40
5.000000
 41
0.612766
  1
カタログ Vol. 1  P54
 50
0.000000
 51
0.000000
  7
SX_FONT
 72
     5
 11
130.726151
 21
65.633461
  0
TEXT
  8
CSLAYER1
 62
     7
 10
82.656500
 20
55.837634
 40
4.960742
 41
0.729057
  1
ホ%%dケットカタロク゛ Vol. 1 P27
 50
0.000000
 51
0.000000
  7
SX_FONT
 72
     5
 11
157.400858
 21
55.837634
  0
DIMENSION
  8
CSLAYER1
 62
     7
  2
*D0000
 10
111.789063
 20
159.761309
 11
96.789063
 21
160.761307
 13
81.789063
 23
154.872396
 14
111.789063
 24
154.872396
 70
1
  0
DIMENSION
  8
CSLAYER1
 62
     7
  2
*D0001
 10
121.840365
 20
150.031250
 11
122.840363
 21
144.031250
 13
116.807048
 23
138.031250
 14
116.807048
 24
150.031250
 50
90.000000
 70
1
  0
ENDSEC
  0
EOF
