  0
SECTION
  2
HEADER
  9
$ACADVER
  1
AC1006
  9
$INSBASE
 10
39.260294
 20
177.337150
 30
0.0
  9
$EXTMIN
 10
39.260294
 20
177.337150
  9
$EXTMAX
 10
249.260294
 20
474.337150
  9
$LIMMIN
 10
39.260294
 20
177.337150
  9
$LIMMAX
 10
249.260294
 20
474.337150
  9
$VIEWCTR
 10
144.260294
 20
325.837150
  9
$VIEWSIZE
 40
297.000000
  9
$SNAPMODE
 70
     0
  9
$SNAPUNIT
 10
1.0
 20
1.0
  9
$SNAPBASE
 10
0.0
 20
0.0
  9
$SNAPANG
 50
0.0
  9
$SNAPSTYLE
 70
     0
  9
$SNAPISOPAIR
 70
     0
  9
$GRIDMODE
 70
     0
  9
$GRIDUNIT
 10
0.0
 20
0.0
  9
$ORTHOMODE
 70
     0
  9
$REGENMODE
 70
     1
  9
$FILLMODE
 70
     1
  9
$QTEXTMODE
 70
     0
  9
$DRAGMODE
 70
     2
  9
$LTSCALE
 40
15.000000
  9
$OSMODE
 70
     0
  9
$ATTMODE
 70
     1
  9
$TEXTSIZE
 40
0.2
  9
$TRACEWID
 40
0.05
  9
$TEXTSTYLE
  7
STANDARD
  9
$CLAYER
  8
CSLAYER3
  9
$CELTYPE
  6
BYLAYER
  9
$CECOLOR
 62
   256
  9
$DIMSCALE
 40
1.0
  9
$DIMASZ
 40
0.18
  9
$DIMEXO
 40
0.0625
  9
$DIMDLI
 40
0.38
  9
$DIMRND
 40
0.0
  9
$DIMDLE
 40
0.0
  9
$DIMEXE
 40
0.18
  9
$DIMTP
 40
0.0
  9
$DIMTM
 40
0.0
  9
$DIMTXT
 40
0.18
  9
$DIMCEN
 40
0.09
  9
$DIMTSZ
 40
0.0
  9
$DIMTOL
 70
     0
  9
$DIMLIM
 70
     0
  9
$DIMTIH
 70
     1
  9
$DIMTOH
 70
     1
  9
$DIMSE1
 70
     0
  9
$DIMSE2
 70
     0
  9
$DIMTAD
 70
     0
  9
$DIMZIN
 70
     0
  9
$DIMBLK
  1

  9
$LUNITS
 70
     2
  9
$LUPREC
 70
     4
  9
$AXISMODE
 70
     0
  9
$AXISUNIT
 10
0.0
 20
0.0
  9
$SKETCHINC
 40
0.1
  9
$FILLETRAD
 40
0.0
  9
$AUNITS
 70
     0
  9
$AUPREC
 70
     0
  9
$MENU
  1
ACAD
  9
$ELEVATION
 40
0.0
  9
$THICKNESS
 40
0.0
  9
$VIEWDIR
 10
0.0
 20
0.0
 30
1.0
  9
$LIMCHECK
 70
     0
  9
$BLIPMODE
 70
     1
  9
$CHAMFERA
 40
0.0
  9
$CHAMFERB
 40
0.0
  9
$FASTZOOM
 70
     1
  9
$SKPOLY
 70
     0
  9
$TDCREATE
 40
0.000000
  9
$TDUPDATE
 40
0.000000
  9
$TDINDWG
 40
0.0
  9
$TDUSRTIMER
 40
0.0
  9
$USRTIMER
 70
     1
  9
$ANGBASE
 50
0.0
  9
$ANGDIR
 70
     0
  9
$PDMODE
 70
     0
  9
$PDSIZE
 40
0.0
  9
$PLINEWID
 40
0.0
  9
$COORDS
 70
     0
  9
$USERI1
 70
     0
  9
$USERI2
 70
     0
  9
$USERI3
 70
     0
  9
$USERI4
 70
     0
  9
$USERI5
 70
     0
  9
$USERR1
 40
0.0
  9
$USERR2
 40
0.0
  9
$USERR3
 40
0.0
  9
$USERR4
 40
0.0
  9
$USERR5
 40
0.0
  0
ENDSEC
  0
SECTION
  2
TABLES
  0
TABLE
  2
LTYPE
 70
     9
  0
LTYPE
  2
CONTINUOUS
 70
    64
  3
Solid line
 72
    65
 73
     0
 40
0.0
  0
LTYPE
  2
DASHED
 70
    64
  3
__ __ __ __ __ __ __ __ __ __ __ __ __ __ __
 72
    65
 73
     2
 40
0.75
 49
0.5
 49
-0.25
  0
LTYPE
  2
HIDDEN
 70
    64
  3
_ _ _ _ _ _ _ _ _ _ _ _ _ _ _ _ _ _ _ _ _ _ _
 72
    65
 73
     2
 40
0.375
 49
0.25
 49
-0.125
  0
LTYPE
  2
DOT
 70
    64
  3
...............................................
 72
    65
 73
     2
 40
0.25
 49
0.0
 49
-0.25
  0
LTYPE
  2
DASHDOT
 70
    64
  3
__ . __ . __ . __ . __ . __ . __ . __ . __ . __
 72
    65
 73
     4
 40
1.0
 49
0.5
 49
-0.25
 49
0.0
 49
-0.25
  0
LTYPE
  2
DIVIDE
 70
    64
  3
__ . . __ . . __ . . __ . . __ . . __ . . __
 72
    65
 73
     6
 40
1.25
 49
0.5
 49
-0.25
 49
0.0
 49
-0.25
 49
0.0
 49
-0.25
  0
LTYPE
  2
CENTER
 70
    64
  3
____ _ ____ _ ____ _ ____ _ ____ _ ____ _ ____ 
 72
    65
 73
     4
 40
2.0
 49
1.25
 49
-0.25
 49
0.25
 49
-0.25
  0
LTYPE
  2
PHANTOM
 70
    64
  3
______  __  __  ______  __  __  ______  __  __ 
 72
    65
 73
     6
 40
2.5
 49
1.25
 49
-0.25
 49
0.25
 49
-0.25
 49
0.25
 49
-0.25
  0
LTYPE
  2
BORDER
 70
    64
  3
__ __ . __ __ . __ __ . __ __ . __ __ . __ __ .
 72
    65
 73
     6
 40
1.75
 49
0.5
 49
-0.25
 49
0.5
 49
-0.25
 49
0.0
 49
-0.25
  0
ENDTAB
  0
TABLE
  2
LAYER
 70
    16
  0
LAYER
  2
CSLAYER1
 70
    64
 62
     7
  6
CONTINUOUS
  0
LAYER
  2
CSLAYER2
 70
    64
 62
     7
  6
CONTINUOUS
  0
LAYER
  2
CSLAYER3
 70
    64
 62
     7
  6
CONTINUOUS
  0
LAYER
  2
CSLAYER4
 70
    64
 62
     7
  6
CONTINUOUS
  0
LAYER
  2
CSLAYER5
 70
    64
 62
     7
  6
CONTINUOUS
  0
LAYER
  2
CSLAYER6
 70
    64
 62
     7
  6
CONTINUOUS
  0
LAYER
  2
CSLAYER7
 70
    64
 62
     7
  6
CONTINUOUS
  0
LAYER
  2
CSLAYER8
 70
    64
 62
     7
  6
CONTINUOUS
  0
LAYER
  2
CSLAYER9
 70
    64
 62
     7
  6
CONTINUOUS
  0
LAYER
  2
CSLAYER10
 70
    64
 62
     7
  6
CONTINUOUS
  0
LAYER
  2
CSLAYER11
 70
    64
 62
     7
  6
CONTINUOUS
  0
LAYER
  2
CSLAYER12
 70
    64
 62
     7
  6
CONTINUOUS
  0
LAYER
  2
CSLAYER13
 70
    64
 62
     7
  6
CONTINUOUS
  0
LAYER
  2
CSLAYER14
 70
    64
 62
     7
  6
CONTINUOUS
  0
LAYER
  2
CSLAYER15
 70
    64
 62
     7
  6
CONTINUOUS
  0
LAYER
  2
CSLAYER16
 70
    64
 62
     7
  6
CONTINUOUS
  0
ENDTAB
  0
TABLE
  2
STYLE
 70
     1
  0
STYLE
  2
SX_FONT
 70
     0
 40
1.0
 41
1.0
 50
0.0
 71
     0
 42
1.0
  3
monotxt
  4
bigfont
  0
ENDTAB
  0
TABLE
  2
VIEW
 70
     0
  0
ENDTAB
  0
ENDSEC
  0
SECTION
  2
BLOCKS
  0
BLOCK
  8
CSLAYER1
  2
*D0000
 70
    65
 10
0.0
 20
0.0
 30
0.0
  0
LINE
  8
CSLAYER1
  6
CONTINUOUS
 62
     7
 10
39.507813
 20
173.781419
 11
39.507813
 21
178.842227
  0
LINE
  8
CSLAYER1
  6
CONTINUOUS
 62
     7
 10
159.507812
 20
173.781419
 11
159.507812
 21
178.842227
  0
LINE
  8
CSLAYER1
  6
CONTINUOUS
 62
     7
 10
39.507813
 20
177.842227
 11
159.507812
 21
177.842227
  0
LINE
  8
CSLAYER1
  6
CONTINUOUS
 62
     7
 10
39.507813
 20
177.842227
 11
43.371516
 21
178.877503
  0
LINE
  8
CSLAYER1
  6
CONTINUOUS
 62
     7
 10
39.507813
 20
177.842227
 11
43.371516
 21
176.806951
  0
LINE
  8
CSLAYER1
  6
CONTINUOUS
 62
     7
 10
159.507812
 20
177.842227
 11
155.644109
 21
178.877503
  0
LINE
  8
CSLAYER1
  6
CONTINUOUS
 62
     7
 10
159.507812
 20
177.842227
 11
155.644109
 21
176.806951
  0
TEXT
  8
CSLAYER1
 62
     7
 10
95.007813
 20
178.842224
 40
4.000000
 41
0.843750
  1
120
 50
0.000000
 51
0.000000
  7
SX_FONT
 72
     5
 11
104.007813
 21
178.842224
  0
ENDBLK
  8
0
  0
BLOCK
  8
CSLAYER1
  2
*D0001
 70
    65
 10
0.0
 20
0.0
 30
0.0
  0
LINE
  8
CSLAYER1
  6
CONTINUOUS
 62
     7
 10
165.431098
 20
137.703125
 11
170.627792
 21
137.703125
  0
LINE
  8
CSLAYER1
  6
CONTINUOUS
 62
     7
 10
165.431098
 20
167.703125
 11
170.627792
 21
167.703125
  0
LINE
  8
CSLAYER1
  6
CONTINUOUS
 62
     7
 10
169.627792
 20
137.703125
 11
169.627792
 21
167.703125
  0
LINE
  8
CSLAYER1
  6
CONTINUOUS
 62
     7
 10
169.627792
 20
137.703125
 11
168.592516
 21
141.566828
  0
LINE
  8
CSLAYER1
  6
CONTINUOUS
 62
     7
 10
169.627792
 20
137.703125
 11
170.663068
 21
141.566828
  0
LINE
  8
CSLAYER1
  6
CONTINUOUS
 62
     7
 10
169.627792
 20
167.703125
 11
168.592516
 21
163.839422
  0
LINE
  8
CSLAYER1
  6
CONTINUOUS
 62
     7
 10
169.627792
 20
167.703125
 11
170.663068
 21
163.839422
  0
TEXT
  8
CSLAYER1
 62
     7
 10
174.354660
 20
149.753448
 40
4.000000
 41
0.900000
  1
30
 50
90.000000
 51
0.000000
  7
SX_FONT
 72
     5
 11
174.354660
 21
155.753448
  0
ENDBLK
  8
0
  0
ENDSEC
  0
SECTION
  2
ENTITIES
  0
LINE
  8
CSLAYER2
  6
CONTINUOUS
 62
     7
 10
159.507813
 20
137.703125
 11
159.507813
 21
159.703125
  0
LINE
  8
CSLAYER2
  6
CONTINUOUS
 62
     7
 10
47.007813
 20
152.703125
 11
47.007812
 21
145.203125
  0
ARC
  8
CSLAYER2
  6
CONTINUOUS
 62
     7
 10
107.238406
 20
145.324029
 40
22.199396
 50
34.040138
 51
136.670522
  0
ARC
  8
CSLAYER2
  6
CONTINUOUS
 62
     7
 10
61.503282
 20
151.369406
 40
7.121475
 50
56.400468
 51
169.205833
  0
LINE
  8
CSLAYER2
  6
CONTINUOUS
 62
     7
 10
54.507812
 20
152.703125
 11
47.007813
 21
152.703125
  0
ARC
  8
CSLAYER2
  6
CONTINUOUS
 62
     7
 10
74.339104
 20
177.744393
 40
24.000000
 50
229.535289
 51
229.542092
  0
ARC
  8
CSLAYER2
  6
CONTINUOUS
 62
     7
 10
76.182621
 20
175.347856
 40
21.000009
 50
239.245988
 51
315.225222
  0
LINE
  8
CSLAYER2
  6
CONTINUOUS
 62
     7
 10
131.507812
 20
157.750664
 11
125.633838
 21
157.750664
  0
LINE
  8
CSLAYER2
  6
CONTINUOUS
 62
     7
 10
151.507812
 20
167.703125
 11
131.507812
 21
167.703125
  0
LINE
  8
CSLAYER2
  6
CONTINUOUS
 62
     7
 10
131.507812
 20
157.750664
 11
131.507812
 21
167.703125
  0
ARC
  8
CSLAYER2
  6
CONTINUOUS
 62
     7
 10
159.507813
 20
167.703125
 40
8.000000
 50
180.000000
 51
270.000000
  0
LINE
  8
CSLAYER2
  6
CONTINUOUS
 62
     7
 10
159.507813
 20
137.703125
 11
39.507813
 21
137.703125
  0
LINE
  8
CSLAYER2
  6
CONTINUOUS
 62
     7
 10
39.507812
 20
145.203125
 11
39.507813
 21
137.703125
  0
LINE
  8
CSLAYER2
  6
CONTINUOUS
 62
     7
 10
47.007812
 20
145.203125
 11
39.507812
 21
145.203125
  0
TEXT
  8
CSLAYER1
 62
     7
 10
39.298752
 20
76.835114
 40
10.000000
 41
0.630000
  1
FM-2113
 50
0.000000
 51
0.000000
  7
SX_FONT
 72
     5
 11
81.298752
 21
76.835114
  0
TEXT
  8
CSLAYER1
 62
     7
 10
93.481873
 20
76.606758
 40
10.000000
 41
0.635294
  1
120x30
 50
0.000000
 51
0.000000
  7
SX_FONT
 72
     5
 11
129.481873
 21
76.606758
  0
TEXT
  8
CSLAYER1
 62
     7
 10
40.599159
 20
64.725929
 40
5.000000
 41
0.612766
  1
カタログ Vol. 1  P53
 50
0.000000
 51
0.000000
  7
SX_FONT
 72
     5
 11
88.599159
 21
64.725929
  0
TEXT
  8
CSLAYER1
 62
     7
 10
39.981116
 20
52.251715
 40
4.960742
 41
0.729057
  1
ホ%%dケットカタロク゛ Vol. 1 P26
 50
0.000000
 51
0.000000
  7
SX_FONT
 72
     5
 11
114.725473
 21
52.251715
  0
DIMENSION
  8
CSLAYER1
 62
     7
  2
*D0000
 10
159.507812
 20
177.842227
 11
99.507813
 21
178.842224
 13
39.507813
 23
172.781419
 14
159.507812
 24
172.781419
 70
1
  0
DIMENSION
  8
CSLAYER1
 62
     7
  2
*D0001
 10
169.627792
 20
167.703125
 11
174.354660
 21
152.753448
 13
164.431098
 23
137.703125
 14
164.431098
 24
167.703125
 50
90.000000
 70
1
  0
ENDSEC
  0
EOF
