  0
SECTION
  2
HEADER
  9
$ACADVER
  1
AC1006
  9
$INSBASE
 10
52.664063
 20
148.328125
 30
0.0
  9
$EXTMIN
 10
52.664063
 20
148.328125
  9
$EXTMAX
 10
262.664063
 20
445.328125
  9
$LIMMIN
 10
52.664063
 20
148.328125
  9
$LIMMAX
 10
262.664063
 20
445.328125
  9
$VIEWCTR
 10
157.664063
 20
296.828125
  9
$VIEWSIZE
 40
297.000000
  9
$SNAPMODE
 70
     0
  9
$SNAPUNIT
 10
1.0
 20
1.0
  9
$SNAPBASE
 10
0.0
 20
0.0
  9
$SNAPANG
 50
0.0
  9
$SNAPSTYLE
 70
     0
  9
$SNAPISOPAIR
 70
     0
  9
$GRIDMODE
 70
     0
  9
$GRIDUNIT
 10
0.0
 20
0.0
  9
$ORTHOMODE
 70
     0
  9
$REGENMODE
 70
     1
  9
$FILLMODE
 70
     1
  9
$QTEXTMODE
 70
     0
  9
$DRAGMODE
 70
     2
  9
$LTSCALE
 40
15.000000
  9
$OSMODE
 70
     0
  9
$ATTMODE
 70
     1
  9
$TEXTSIZE
 40
0.2
  9
$TRACEWID
 40
0.05
  9
$TEXTSTYLE
  7
STANDARD
  9
$CLAYER
  8
CSLAYER3
  9
$CELTYPE
  6
BYLAYER
  9
$CECOLOR
 62
   256
  9
$DIMSCALE
 40
1.0
  9
$DIMASZ
 40
0.18
  9
$DIMEXO
 40
0.0625
  9
$DIMDLI
 40
0.38
  9
$DIMRND
 40
0.0
  9
$DIMDLE
 40
0.0
  9
$DIMEXE
 40
0.18
  9
$DIMTP
 40
0.0
  9
$DIMTM
 40
0.0
  9
$DIMTXT
 40
0.18
  9
$DIMCEN
 40
0.09
  9
$DIMTSZ
 40
0.0
  9
$DIMTOL
 70
     0
  9
$DIMLIM
 70
     0
  9
$DIMTIH
 70
     1
  9
$DIMTOH
 70
     1
  9
$DIMSE1
 70
     0
  9
$DIMSE2
 70
     0
  9
$DIMTAD
 70
     0
  9
$DIMZIN
 70
     0
  9
$DIMBLK
  1

  9
$LUNITS
 70
     2
  9
$LUPREC
 70
     4
  9
$AXISMODE
 70
     0
  9
$AXISUNIT
 10
0.0
 20
0.0
  9
$SKETCHINC
 40
0.1
  9
$FILLETRAD
 40
0.0
  9
$AUNITS
 70
     0
  9
$AUPREC
 70
     0
  9
$MENU
  1
ACAD
  9
$ELEVATION
 40
0.0
  9
$THICKNESS
 40
0.0
  9
$VIEWDIR
 10
0.0
 20
0.0
 30
1.0
  9
$LIMCHECK
 70
     0
  9
$BLIPMODE
 70
     1
  9
$CHAMFERA
 40
0.0
  9
$CHAMFERB
 40
0.0
  9
$FASTZOOM
 70
     1
  9
$SKPOLY
 70
     0
  9
$TDCREATE
 40
0.000000
  9
$TDUPDATE
 40
0.000000
  9
$TDINDWG
 40
0.0
  9
$TDUSRTIMER
 40
0.0
  9
$USRTIMER
 70
     1
  9
$ANGBASE
 50
0.0
  9
$ANGDIR
 70
     0
  9
$PDMODE
 70
     0
  9
$PDSIZE
 40
0.0
  9
$PLINEWID
 40
0.0
  9
$COORDS
 70
     0
  9
$USERI1
 70
     0
  9
$USERI2
 70
     0
  9
$USERI3
 70
     0
  9
$USERI4
 70
     0
  9
$USERI5
 70
     0
  9
$USERR1
 40
0.0
  9
$USERR2
 40
0.0
  9
$USERR3
 40
0.0
  9
$USERR4
 40
0.0
  9
$USERR5
 40
0.0
  0
ENDSEC
  0
SECTION
  2
TABLES
  0
TABLE
  2
LTYPE
 70
     9
  0
LTYPE
  2
CONTINUOUS
 70
    64
  3
Solid line
 72
    65
 73
     0
 40
0.0
  0
LTYPE
  2
DASHED
 70
    64
  3
__ __ __ __ __ __ __ __ __ __ __ __ __ __ __
 72
    65
 73
     2
 40
0.75
 49
0.5
 49
-0.25
  0
LTYPE
  2
HIDDEN
 70
    64
  3
_ _ _ _ _ _ _ _ _ _ _ _ _ _ _ _ _ _ _ _ _ _ _
 72
    65
 73
     2
 40
0.375
 49
0.25
 49
-0.125
  0
LTYPE
  2
DOT
 70
    64
  3
...............................................
 72
    65
 73
     2
 40
0.25
 49
0.0
 49
-0.25
  0
LTYPE
  2
DASHDOT
 70
    64
  3
__ . __ . __ . __ . __ . __ . __ . __ . __ . __
 72
    65
 73
     4
 40
1.0
 49
0.5
 49
-0.25
 49
0.0
 49
-0.25
  0
LTYPE
  2
DIVIDE
 70
    64
  3
__ . . __ . . __ . . __ . . __ . . __ . . __
 72
    65
 73
     6
 40
1.25
 49
0.5
 49
-0.25
 49
0.0
 49
-0.25
 49
0.0
 49
-0.25
  0
LTYPE
  2
CENTER
 70
    64
  3
____ _ ____ _ ____ _ ____ _ ____ _ ____ _ ____ 
 72
    65
 73
     4
 40
2.0
 49
1.25
 49
-0.25
 49
0.25
 49
-0.25
  0
LTYPE
  2
PHANTOM
 70
    64
  3
______  __  __  ______  __  __  ______  __  __ 
 72
    65
 73
     6
 40
2.5
 49
1.25
 49
-0.25
 49
0.25
 49
-0.25
 49
0.25
 49
-0.25
  0
LTYPE
  2
BORDER
 70
    64
  3
__ __ . __ __ . __ __ . __ __ . __ __ . __ __ .
 72
    65
 73
     6
 40
1.75
 49
0.5
 49
-0.25
 49
0.5
 49
-0.25
 49
0.0
 49
-0.25
  0
ENDTAB
  0
TABLE
  2
LAYER
 70
    16
  0
LAYER
  2
CSLAYER1
 70
    64
 62
     7
  6
CONTINUOUS
  0
LAYER
  2
CSLAYER2
 70
    64
 62
     7
  6
CONTINUOUS
  0
LAYER
  2
CSLAYER3
 70
    64
 62
     7
  6
CONTINUOUS
  0
LAYER
  2
CSLAYER4
 70
    64
 62
     7
  6
CONTINUOUS
  0
LAYER
  2
CSLAYER5
 70
    64
 62
     7
  6
CONTINUOUS
  0
LAYER
  2
CSLAYER6
 70
    64
 62
     7
  6
CONTINUOUS
  0
LAYER
  2
CSLAYER7
 70
    64
 62
     7
  6
CONTINUOUS
  0
LAYER
  2
CSLAYER8
 70
    64
 62
     7
  6
CONTINUOUS
  0
LAYER
  2
CSLAYER9
 70
    64
 62
     7
  6
CONTINUOUS
  0
LAYER
  2
CSLAYER10
 70
    64
 62
     7
  6
CONTINUOUS
  0
LAYER
  2
CSLAYER11
 70
    64
 62
     7
  6
CONTINUOUS
  0
LAYER
  2
CSLAYER12
 70
    64
 62
     7
  6
CONTINUOUS
  0
LAYER
  2
CSLAYER13
 70
    64
 62
     7
  6
CONTINUOUS
  0
LAYER
  2
CSLAYER14
 70
    64
 62
     7
  6
CONTINUOUS
  0
LAYER
  2
CSLAYER15
 70
    64
 62
     7
  6
CONTINUOUS
  0
LAYER
  2
CSLAYER16
 70
    64
 62
     7
  6
CONTINUOUS
  0
ENDTAB
  0
TABLE
  2
STYLE
 70
     1
  0
STYLE
  2
SX_FONT
 70
     0
 40
1.0
 41
1.0
 50
0.0
 71
     0
 42
1.0
  3
monotxt
  4
bigfont
  0
ENDTAB
  0
TABLE
  2
VIEW
 70
     0
  0
ENDTAB
  0
ENDSEC
  0
SECTION
  2
BLOCKS
  0
BLOCK
  8
CSLAYER1
  2
*D0000
 70
    65
 10
0.0
 20
0.0
 30
0.0
  0
LINE
  8
CSLAYER1
  6
CONTINUOUS
 62
     7
 10
51.874721
 20
168.734375
 11
51.874721
 21
173.991257
  0
LINE
  8
CSLAYER1
  6
CONTINUOUS
 62
     7
 10
141.874721
 20
168.734375
 11
141.874721
 21
173.991257
  0
LINE
  8
CSLAYER1
  6
CONTINUOUS
 62
     7
 10
51.874721
 20
172.991257
 11
141.874721
 21
172.991257
  0
LINE
  8
CSLAYER1
  6
CONTINUOUS
 62
     7
 10
51.874721
 20
172.991257
 11
55.738424
 21
174.026533
  0
LINE
  8
CSLAYER1
  6
CONTINUOUS
 62
     7
 10
51.874721
 20
172.991257
 11
55.738424
 21
171.955981
  0
LINE
  8
CSLAYER1
  6
CONTINUOUS
 62
     7
 10
141.874721
 20
172.991257
 11
138.011018
 21
174.026533
  0
LINE
  8
CSLAYER1
  6
CONTINUOUS
 62
     7
 10
141.874721
 20
172.991257
 11
138.011018
 21
171.955981
  0
TEXT
  8
CSLAYER1
 62
     7
 10
93.874718
 20
173.991257
 40
4.000000
 41
0.900000
  1
90
 50
0.000000
 51
0.000000
  7
SX_FONT
 72
     5
 11
99.874718
 21
173.991257
  0
ENDBLK
  8
0
  0
BLOCK
  8
CSLAYER1
  2
*D0001
 70
    65
 10
0.0
 20
0.0
 30
0.0
  0
LINE
  8
CSLAYER1
  6
CONTINUOUS
 62
     7
 10
147.835938
 20
141.944508
 11
152.917221
 21
141.944508
  0
LINE
  8
CSLAYER1
  6
CONTINUOUS
 62
     7
 10
147.835938
 20
162.944508
 11
152.917221
 21
162.944508
  0
LINE
  8
CSLAYER1
  6
CONTINUOUS
 62
     7
 10
151.917221
 20
141.944508
 11
151.917221
 21
162.944508
  0
LINE
  8
CSLAYER1
  6
CONTINUOUS
 62
     7
 10
151.917221
 20
141.944508
 11
150.881945
 21
145.808212
  0
LINE
  8
CSLAYER1
  6
CONTINUOUS
 62
     7
 10
151.917221
 20
141.944508
 11
152.952498
 21
145.808212
  0
LINE
  8
CSLAYER1
  6
CONTINUOUS
 62
     7
 10
151.917221
 20
162.944508
 11
150.881945
 21
159.080805
  0
LINE
  8
CSLAYER1
  6
CONTINUOUS
 62
     7
 10
151.917221
 20
162.944508
 11
152.952498
 21
159.080805
  0
TEXT
  8
CSLAYER1
 62
     7
 10
156.563431
 20
149.083313
 40
4.000000
 41
0.900000
  1
21
 50
90.000000
 51
0.000000
  7
SX_FONT
 72
     5
 11
156.563431
 21
155.083313
  0
ENDBLK
  8
0
  0
ENDSEC
  0
SECTION
  2
ENTITIES
  0
ARC
  8
CSLAYER2
  6
CONTINUOUS
 62
     7
 10
141.874721
 20
162.944508
 40
6.000000
 50
180.000000
 51
270.000000
  0
LINE
  8
CSLAYER2
  6
CONTINUOUS
 62
     7
 10
120.874721
 20
155.480162
 11
120.874721
 21
162.944508
  0
ARC
  8
CSLAYER2
  6
CONTINUOUS
 62
     7
 10
78.130827
 20
168.928057
 40
15.750007
 50
239.245988
 51
315.225222
  0
ARC
  8
CSLAYER2
  6
CONTINUOUS
 62
     7
 10
101.874721
 20
144.944508
 40
18.000000
 50
35.825184
 51
134.263498
  0
LINE
  8
CSLAYER2
  6
CONTINUOUS
 62
     7
 10
135.874721
 20
162.944508
 11
120.874721
 21
162.944508
  0
LINE
  8
CSLAYER2
  6
CONTINUOUS
 62
     7
 10
51.874721
 20
141.944508
 11
141.874721
 21
141.944508
  0
LINE
  8
CSLAYER2
  6
CONTINUOUS
 62
     7
 10
56.874721
 20
151.944508
 11
61.874721
 21
151.944508
  0
LINE
  8
CSLAYER2
  6
CONTINUOUS
 62
     7
 10
56.874721
 20
151.944508
 11
56.874721
 21
148.444508
  0
ARC
  8
CSLAYER2
  6
CONTINUOUS
 62
     7
 10
67.121323
 20
150.944219
 40
5.341106
 50
56.400468
 51
169.205833
  0
LINE
  8
CSLAYER2
  6
CONTINUOUS
 62
     7
 10
51.874721
 20
148.444508
 11
51.874721
 21
141.944508
  0
LINE
  8
CSLAYER2
  6
CONTINUOUS
 62
     7
 10
51.874721
 20
148.444508
 11
56.874721
 21
148.444508
  0
LINE
  8
CSLAYER2
  6
CONTINUOUS
 62
     7
 10
141.874721
 20
141.944508
 11
141.874721
 21
156.944508
  0
LINE
  8
CSLAYER2
  6
CONTINUOUS
 62
     7
 10
120.874721
 20
155.480162
 11
116.469240
 21
155.480162
  0
TEXT
  8
CSLAYER1
 62
     7
 10
51.858055
 20
79.488556
 40
12.000000
 41
0.700000
  1
FM-2112
 50
0.000000
 51
0.000000
  7
SX_FONT
 72
     5
 11
107.858055
 21
79.488556
  0
TEXT
  8
CSLAYER1
 62
     7
 10
52.521530
 20
64.033750
 40
5.547002
 41
0.589931
  1
カタログ Vol. 1  P53
 50
0.000000
 51
0.000000
  7
SX_FONT
 72
     5
 11
103.788315
 21
64.033750
  0
TEXT
  8
CSLAYER1
 62
     7
 10
125.094345
 20
79.045242
 40
12.000000
 41
0.714286
  1
90x21
 50
0.000000
 51
0.000000
  7
SX_FONT
 72
     5
 11
165.094345
 21
79.045242
  0
TEXT
  8
CSLAYER1
 62
     7
 10
52.262358
 20
51.758460
 40
4.960742
 41
0.729057
  1
ホ%%dケットカタロク゛ Vol. 1 P26
 50
0.000000
 51
0.000000
  7
SX_FONT
 72
     5
 11
127.006716
 21
51.758460
  0
DIMENSION
  8
CSLAYER1
 62
     7
  2
*D0000
 10
141.874721
 20
172.991257
 11
96.874718
 21
173.991257
 13
51.874721
 23
167.734375
 14
141.874721
 24
167.734375
 70
1
  0
DIMENSION
  8
CSLAYER1
 62
     7
  2
*D0001
 10
151.917221
 20
162.944508
 11
156.563431
 21
152.083313
 13
146.835938
 23
141.944508
 14
146.835938
 24
162.944508
 50
90.000000
 70
1
  0
ENDSEC
  0
EOF
