  0
SECTION
  2
HEADER
  9
$ACADVER
  1
AC1006
  9
$INSBASE
 10
49.304687
 20
193.220386
 30
0.0
  9
$EXTMIN
 10
49.304687
 20
193.220386
  9
$EXTMAX
 10
259.304688
 20
490.220386
  9
$LIMMIN
 10
49.304687
 20
193.220386
  9
$LIMMAX
 10
259.304688
 20
490.220386
  9
$VIEWCTR
 10
154.304688
 20
341.720386
  9
$VIEWSIZE
 40
297.000000
  9
$SNAPMODE
 70
     0
  9
$SNAPUNIT
 10
1.0
 20
1.0
  9
$SNAPBASE
 10
0.0
 20
0.0
  9
$SNAPANG
 50
0.0
  9
$SNAPSTYLE
 70
     0
  9
$SNAPISOPAIR
 70
     0
  9
$GRIDMODE
 70
     0
  9
$GRIDUNIT
 10
0.0
 20
0.0
  9
$ORTHOMODE
 70
     0
  9
$REGENMODE
 70
     1
  9
$FILLMODE
 70
     1
  9
$QTEXTMODE
 70
     0
  9
$DRAGMODE
 70
     2
  9
$LTSCALE
 40
15.000000
  9
$OSMODE
 70
     0
  9
$ATTMODE
 70
     1
  9
$TEXTSIZE
 40
0.2
  9
$TRACEWID
 40
0.05
  9
$TEXTSTYLE
  7
STANDARD
  9
$CLAYER
  8
CSLAYER3
  9
$CELTYPE
  6
BYLAYER
  9
$CECOLOR
 62
   256
  9
$DIMSCALE
 40
1.0
  9
$DIMASZ
 40
0.18
  9
$DIMEXO
 40
0.0625
  9
$DIMDLI
 40
0.38
  9
$DIMRND
 40
0.0
  9
$DIMDLE
 40
0.0
  9
$DIMEXE
 40
0.18
  9
$DIMTP
 40
0.0
  9
$DIMTM
 40
0.0
  9
$DIMTXT
 40
0.18
  9
$DIMCEN
 40
0.09
  9
$DIMTSZ
 40
0.0
  9
$DIMTOL
 70
     0
  9
$DIMLIM
 70
     0
  9
$DIMTIH
 70
     1
  9
$DIMTOH
 70
     1
  9
$DIMSE1
 70
     0
  9
$DIMSE2
 70
     0
  9
$DIMTAD
 70
     0
  9
$DIMZIN
 70
     0
  9
$DIMBLK
  1

  9
$LUNITS
 70
     2
  9
$LUPREC
 70
     4
  9
$AXISMODE
 70
     0
  9
$AXISUNIT
 10
0.0
 20
0.0
  9
$SKETCHINC
 40
0.1
  9
$FILLETRAD
 40
0.0
  9
$AUNITS
 70
     0
  9
$AUPREC
 70
     0
  9
$MENU
  1
ACAD
  9
$ELEVATION
 40
0.0
  9
$THICKNESS
 40
0.0
  9
$VIEWDIR
 10
0.0
 20
0.0
 30
1.0
  9
$LIMCHECK
 70
     0
  9
$BLIPMODE
 70
     1
  9
$CHAMFERA
 40
0.0
  9
$CHAMFERB
 40
0.0
  9
$FASTZOOM
 70
     1
  9
$SKPOLY
 70
     0
  9
$TDCREATE
 40
0.000000
  9
$TDUPDATE
 40
0.000000
  9
$TDINDWG
 40
0.0
  9
$TDUSRTIMER
 40
0.0
  9
$USRTIMER
 70
     1
  9
$ANGBASE
 50
0.0
  9
$ANGDIR
 70
     0
  9
$PDMODE
 70
     0
  9
$PDSIZE
 40
0.0
  9
$PLINEWID
 40
0.0
  9
$COORDS
 70
     0
  9
$USERI1
 70
     0
  9
$USERI2
 70
     0
  9
$USERI3
 70
     0
  9
$USERI4
 70
     0
  9
$USERI5
 70
     0
  9
$USERR1
 40
0.0
  9
$USERR2
 40
0.0
  9
$USERR3
 40
0.0
  9
$USERR4
 40
0.0
  9
$USERR5
 40
0.0
  0
ENDSEC
  0
SECTION
  2
TABLES
  0
TABLE
  2
LTYPE
 70
     9
  0
LTYPE
  2
CONTINUOUS
 70
    64
  3
Solid line
 72
    65
 73
     0
 40
0.0
  0
LTYPE
  2
DASHED
 70
    64
  3
__ __ __ __ __ __ __ __ __ __ __ __ __ __ __
 72
    65
 73
     2
 40
0.75
 49
0.5
 49
-0.25
  0
LTYPE
  2
HIDDEN
 70
    64
  3
_ _ _ _ _ _ _ _ _ _ _ _ _ _ _ _ _ _ _ _ _ _ _
 72
    65
 73
     2
 40
0.375
 49
0.25
 49
-0.125
  0
LTYPE
  2
DOT
 70
    64
  3
...............................................
 72
    65
 73
     2
 40
0.25
 49
0.0
 49
-0.25
  0
LTYPE
  2
DASHDOT
 70
    64
  3
__ . __ . __ . __ . __ . __ . __ . __ . __ . __
 72
    65
 73
     4
 40
1.0
 49
0.5
 49
-0.25
 49
0.0
 49
-0.25
  0
LTYPE
  2
DIVIDE
 70
    64
  3
__ . . __ . . __ . . __ . . __ . . __ . . __
 72
    65
 73
     6
 40
1.25
 49
0.5
 49
-0.25
 49
0.0
 49
-0.25
 49
0.0
 49
-0.25
  0
LTYPE
  2
CENTER
 70
    64
  3
____ _ ____ _ ____ _ ____ _ ____ _ ____ _ ____ 
 72
    65
 73
     4
 40
2.0
 49
1.25
 49
-0.25
 49
0.25
 49
-0.25
  0
LTYPE
  2
PHANTOM
 70
    64
  3
______  __  __  ______  __  __  ______  __  __ 
 72
    65
 73
     6
 40
2.5
 49
1.25
 49
-0.25
 49
0.25
 49
-0.25
 49
0.25
 49
-0.25
  0
LTYPE
  2
BORDER
 70
    64
  3
__ __ . __ __ . __ __ . __ __ . __ __ . __ __ .
 72
    65
 73
     6
 40
1.75
 49
0.5
 49
-0.25
 49
0.5
 49
-0.25
 49
0.0
 49
-0.25
  0
ENDTAB
  0
TABLE
  2
LAYER
 70
    16
  0
LAYER
  2
CSLAYER1
 70
    64
 62
     7
  6
CONTINUOUS
  0
LAYER
  2
CSLAYER2
 70
    64
 62
     7
  6
CONTINUOUS
  0
LAYER
  2
CSLAYER3
 70
    64
 62
     7
  6
CONTINUOUS
  0
LAYER
  2
CSLAYER4
 70
    64
 62
     7
  6
CONTINUOUS
  0
LAYER
  2
CSLAYER5
 70
    64
 62
     7
  6
CONTINUOUS
  0
LAYER
  2
CSLAYER6
 70
    64
 62
     7
  6
CONTINUOUS
  0
LAYER
  2
CSLAYER7
 70
    64
 62
     7
  6
CONTINUOUS
  0
LAYER
  2
CSLAYER8
 70
    64
 62
     7
  6
CONTINUOUS
  0
LAYER
  2
CSLAYER9
 70
    64
 62
     7
  6
CONTINUOUS
  0
LAYER
  2
CSLAYER10
 70
    64
 62
     7
  6
CONTINUOUS
  0
LAYER
  2
CSLAYER11
 70
    64
 62
     7
  6
CONTINUOUS
  0
LAYER
  2
CSLAYER12
 70
    64
 62
     7
  6
CONTINUOUS
  0
LAYER
  2
CSLAYER13
 70
    64
 62
     7
  6
CONTINUOUS
  0
LAYER
  2
CSLAYER14
 70
    64
 62
     7
  6
CONTINUOUS
  0
LAYER
  2
CSLAYER15
 70
    64
 62
     7
  6
CONTINUOUS
  0
LAYER
  2
CSLAYER16
 70
    64
 62
     7
  6
CONTINUOUS
  0
ENDTAB
  0
TABLE
  2
STYLE
 70
     1
  0
STYLE
  2
SX_FONT
 70
     0
 40
1.0
 41
1.0
 50
0.0
 71
     0
 42
1.0
  3
monotxt
  4
bigfont
  0
ENDTAB
  0
TABLE
  2
VIEW
 70
     0
  0
ENDTAB
  0
ENDSEC
  0
SECTION
  2
BLOCKS
  0
BLOCK
  8
CSLAYER1
  2
*D0000
 70
    65
 10
0.0
 20
0.0
 30
0.0
  0
LINE
  8
CSLAYER1
  6
CONTINUOUS
 62
     7
 10
49.304688
 20
189.468750
 11
49.304688
 21
194.563868
  0
LINE
  8
CSLAYER1
  6
CONTINUOUS
 62
     7
 10
139.304687
 20
189.468750
 11
139.304687
 21
194.563868
  0
LINE
  8
CSLAYER1
  6
CONTINUOUS
 62
     7
 10
49.304688
 20
193.563868
 11
139.304687
 21
193.563868
  0
LINE
  8
CSLAYER1
  6
CONTINUOUS
 62
     7
 10
49.304688
 20
193.563868
 11
53.168391
 21
194.599145
  0
LINE
  8
CSLAYER1
  6
CONTINUOUS
 62
     7
 10
49.304688
 20
193.563868
 11
53.168391
 21
192.528592
  0
LINE
  8
CSLAYER1
  6
CONTINUOUS
 62
     7
 10
139.304687
 20
193.563868
 11
135.440984
 21
194.599145
  0
LINE
  8
CSLAYER1
  6
CONTINUOUS
 62
     7
 10
139.304687
 20
193.563868
 11
135.440984
 21
192.528592
  0
TEXT
  8
CSLAYER1
 62
     7
 10
91.304688
 20
194.563873
 40
4.000000
 41
0.900000
  1
90
 50
0.000000
 51
0.000000
  7
SX_FONT
 72
     5
 11
97.304688
 21
194.563873
  0
ENDBLK
  8
0
  0
BLOCK
  8
CSLAYER1
  2
*D0001
 70
    65
 10
0.0
 20
0.0
 30
0.0
  0
LINE
  8
CSLAYER1
  6
CONTINUOUS
 62
     7
 10
145.304687
 20
153.468750
 11
150.795128
 21
153.468750
  0
LINE
  8
CSLAYER1
  6
CONTINUOUS
 62
     7
 10
145.304687
 20
183.468750
 11
150.795128
 21
183.468750
  0
LINE
  8
CSLAYER1
  6
CONTINUOUS
 62
     7
 10
149.795128
 20
153.468750
 11
149.795128
 21
183.468750
  0
LINE
  8
CSLAYER1
  6
CONTINUOUS
 62
     7
 10
149.795128
 20
153.468750
 11
148.759852
 21
157.332453
  0
LINE
  8
CSLAYER1
  6
CONTINUOUS
 62
     7
 10
149.795128
 20
153.468750
 11
150.830404
 21
157.332453
  0
LINE
  8
CSLAYER1
  6
CONTINUOUS
 62
     7
 10
149.795128
 20
183.468750
 11
148.759852
 21
179.605047
  0
LINE
  8
CSLAYER1
  6
CONTINUOUS
 62
     7
 10
149.795128
 20
183.468750
 11
150.830404
 21
179.605047
  0
TEXT
  8
CSLAYER1
 62
     7
 10
154.904785
 20
165.015594
 40
4.000000
 41
0.900000
  1
30
 50
90.000000
 51
0.000000
  7
SX_FONT
 72
     5
 11
154.904785
 21
171.015594
  0
ENDBLK
  8
0
  0
ENDSEC
  0
SECTION
  2
ENTITIES
  0
ARC
  8
CSLAYER2
  6
CONTINUOUS
 62
     7
 10
101.304089
 20
179.287935
 40
6.750000
 50
276.970644
 51
353.029356
  0
LINE
  8
CSLAYER2
  6
CONTINUOUS
 62
     7
 10
139.304687
 20
153.468750
 11
139.304687
 21
178.468750
  0
LINE
  8
CSLAYER2
  6
CONTINUOUS
 62
     7
 10
139.304687
 20
178.468750
 11
134.304687
 21
178.468750
  0
LINE
  8
CSLAYER2
  6
CONTINUOUS
 62
     7
 10
131.304687
 20
183.468750
 11
116.292802
 21
183.468750
  0
LINE
  8
CSLAYER2
  6
CONTINUOUS
 62
     7
 10
113.292802
 20
178.468750
 11
108.004196
 21
178.468750
  0
LINE
  8
CSLAYER2
  6
CONTINUOUS
 62
     7
 10
113.292802
 20
178.468750
 11
113.292802
 21
180.468750
  0
ARC
  8
CSLAYER2
  6
CONTINUOUS
 62
     7
 10
116.292802
 20
180.468750
 40
3.000000
 50
90.000000
 51
180.000000
  0
ARC
  8
CSLAYER2
  6
CONTINUOUS
 62
     7
 10
131.304687
 20
180.468750
 40
3.000000
 50
0.000000
 51
90.000000
  0
LINE
  8
CSLAYER2
  6
CONTINUOUS
 62
     7
 10
134.304687
 20
178.468750
 11
134.304687
 21
180.468750
  0
LINE
  8
CSLAYER2
  6
CONTINUOUS
 62
     7
 10
69.980831
 20
168.911773
 11
102.123275
 21
172.587828
  0
LINE
  8
CSLAYER2
  6
CONTINUOUS
 62
     7
 10
49.304688
 20
153.468750
 11
139.304687
 21
153.468750
  0
ARC
  8
CSLAYER2
  6
CONTINUOUS
 62
     7
 10
70.201799
 20
162.915844
 40
6.000000
 50
92.110562
 51
169.374019
  0
LINE
  8
CSLAYER2
  6
CONTINUOUS
 62
     7
 10
49.304688
 20
158.772226
 11
49.304688
 21
153.468750
  0
LINE
  8
CSLAYER2
  6
CONTINUOUS
 62
     7
 10
49.304688
 20
158.772226
 11
56.804688
 21
158.772226
  0
LINE
  8
CSLAYER2
  6
CONTINUOUS
 62
     7
 10
56.804688
 20
164.022226
 11
56.804688
 21
158.772226
  0
LINE
  8
CSLAYER2
  6
CONTINUOUS
 62
     7
 10
56.804688
 20
164.022226
 11
64.304688
 21
164.022226
  0
TEXT
  8
CSLAYER1
 62
     7
 10
49.462387
 20
93.055611
 40
10.000000
 41
0.630000
  1
FM-2110
 50
0.000000
 51
0.000000
  7
SX_FONT
 72
     5
 11
91.462387
 21
93.055611
  0
DIMENSION
  8
CSLAYER1
 62
     7
  2
*D0000
 10
139.304687
 20
193.563868
 11
94.304688
 21
194.563873
 13
49.304688
 23
188.468750
 14
139.304687
 24
188.468750
 70
1
  0
DIMENSION
  8
CSLAYER1
 62
     7
  2
*D0001
 10
149.795128
 20
183.468750
 11
154.904785
 21
168.015594
 13
144.304687
 23
153.468750
 14
144.304687
 24
183.468750
 50
90.000000
 70
1
  0
TEXT
  8
CSLAYER1
 62
     7
 10
106.123901
 20
92.788002
 40
10.000000
 41
0.642857
  1
90x30
 50
0.000000
 51
0.000000
  7
SX_FONT
 72
     5
 11
136.123901
 21
92.788002
  0
TEXT
  8
CSLAYER1
 62
     7
 10
50.069885
 20
80.866295
 40
5.000000
 41
0.612766
  1
カタログ Vol. 1  P53
 50
0.000000
 51
0.000000
  7
SX_FONT
 72
     5
 11
98.069885
 21
80.866295
  0
TEXT
  8
CSLAYER1
 62
     7
 10
49.263083
 20
70.414778
 40
4.960742
 41
0.729057
  1
ホ%%dケットカタロク゛ Vol. 1 P26
 50
0.000000
 51
0.000000
  7
SX_FONT
 72
     5
 11
124.007440
 21
70.414778
  0
ENDSEC
  0
EOF
