  0
SECTION
  2
HEADER
  9
$ACADVER
  1
AC1006
  9
$INSBASE
 10
52.760859
 20
166.648325
 30
0.0
  9
$EXTMIN
 10
52.760859
 20
166.648325
  9
$EXTMAX
 10
262.760859
 20
463.648325
  9
$LIMMIN
 10
52.760859
 20
166.648325
  9
$LIMMAX
 10
262.760859
 20
463.648325
  9
$VIEWCTR
 10
157.760859
 20
315.148325
  9
$VIEWSIZE
 40
297.000000
  9
$SNAPMODE
 70
     0
  9
$SNAPUNIT
 10
1.0
 20
1.0
  9
$SNAPBASE
 10
0.0
 20
0.0
  9
$SNAPANG
 50
0.0
  9
$SNAPSTYLE
 70
     0
  9
$SNAPISOPAIR
 70
     0
  9
$GRIDMODE
 70
     0
  9
$GRIDUNIT
 10
0.0
 20
0.0
  9
$ORTHOMODE
 70
     0
  9
$REGENMODE
 70
     1
  9
$FILLMODE
 70
     1
  9
$QTEXTMODE
 70
     0
  9
$DRAGMODE
 70
     2
  9
$LTSCALE
 40
15.000000
  9
$OSMODE
 70
     0
  9
$ATTMODE
 70
     1
  9
$TEXTSIZE
 40
0.2
  9
$TRACEWID
 40
0.05
  9
$TEXTSTYLE
  7
STANDARD
  9
$CLAYER
  8
CSLAYER3
  9
$CELTYPE
  6
BYLAYER
  9
$CECOLOR
 62
   256
  9
$DIMSCALE
 40
1.0
  9
$DIMASZ
 40
0.18
  9
$DIMEXO
 40
0.0625
  9
$DIMDLI
 40
0.38
  9
$DIMRND
 40
0.0
  9
$DIMDLE
 40
0.0
  9
$DIMEXE
 40
0.18
  9
$DIMTP
 40
0.0
  9
$DIMTM
 40
0.0
  9
$DIMTXT
 40
0.18
  9
$DIMCEN
 40
0.09
  9
$DIMTSZ
 40
0.0
  9
$DIMTOL
 70
     0
  9
$DIMLIM
 70
     0
  9
$DIMTIH
 70
     1
  9
$DIMTOH
 70
     1
  9
$DIMSE1
 70
     0
  9
$DIMSE2
 70
     0
  9
$DIMTAD
 70
     0
  9
$DIMZIN
 70
     0
  9
$DIMBLK
  1

  9
$LUNITS
 70
     2
  9
$LUPREC
 70
     4
  9
$AXISMODE
 70
     0
  9
$AXISUNIT
 10
0.0
 20
0.0
  9
$SKETCHINC
 40
0.1
  9
$FILLETRAD
 40
0.0
  9
$AUNITS
 70
     0
  9
$AUPREC
 70
     0
  9
$MENU
  1
ACAD
  9
$ELEVATION
 40
0.0
  9
$THICKNESS
 40
0.0
  9
$VIEWDIR
 10
0.0
 20
0.0
 30
1.0
  9
$LIMCHECK
 70
     0
  9
$BLIPMODE
 70
     1
  9
$CHAMFERA
 40
0.0
  9
$CHAMFERB
 40
0.0
  9
$FASTZOOM
 70
     1
  9
$SKPOLY
 70
     0
  9
$TDCREATE
 40
0.000000
  9
$TDUPDATE
 40
0.000000
  9
$TDINDWG
 40
0.0
  9
$TDUSRTIMER
 40
0.0
  9
$USRTIMER
 70
     1
  9
$ANGBASE
 50
0.0
  9
$ANGDIR
 70
     0
  9
$PDMODE
 70
     0
  9
$PDSIZE
 40
0.0
  9
$PLINEWID
 40
0.0
  9
$COORDS
 70
     0
  9
$USERI1
 70
     0
  9
$USERI2
 70
     0
  9
$USERI3
 70
     0
  9
$USERI4
 70
     0
  9
$USERI5
 70
     0
  9
$USERR1
 40
0.0
  9
$USERR2
 40
0.0
  9
$USERR3
 40
0.0
  9
$USERR4
 40
0.0
  9
$USERR5
 40
0.0
  0
ENDSEC
  0
SECTION
  2
TABLES
  0
TABLE
  2
LTYPE
 70
     9
  0
LTYPE
  2
CONTINUOUS
 70
    64
  3
Solid line
 72
    65
 73
     0
 40
0.0
  0
LTYPE
  2
DASHED
 70
    64
  3
__ __ __ __ __ __ __ __ __ __ __ __ __ __ __
 72
    65
 73
     2
 40
0.75
 49
0.5
 49
-0.25
  0
LTYPE
  2
HIDDEN
 70
    64
  3
_ _ _ _ _ _ _ _ _ _ _ _ _ _ _ _ _ _ _ _ _ _ _
 72
    65
 73
     2
 40
0.375
 49
0.25
 49
-0.125
  0
LTYPE
  2
DOT
 70
    64
  3
...............................................
 72
    65
 73
     2
 40
0.25
 49
0.0
 49
-0.25
  0
LTYPE
  2
DASHDOT
 70
    64
  3
__ . __ . __ . __ . __ . __ . __ . __ . __ . __
 72
    65
 73
     4
 40
1.0
 49
0.5
 49
-0.25
 49
0.0
 49
-0.25
  0
LTYPE
  2
DIVIDE
 70
    64
  3
__ . . __ . . __ . . __ . . __ . . __ . . __
 72
    65
 73
     6
 40
1.25
 49
0.5
 49
-0.25
 49
0.0
 49
-0.25
 49
0.0
 49
-0.25
  0
LTYPE
  2
CENTER
 70
    64
  3
____ _ ____ _ ____ _ ____ _ ____ _ ____ _ ____ 
 72
    65
 73
     4
 40
2.0
 49
1.25
 49
-0.25
 49
0.25
 49
-0.25
  0
LTYPE
  2
PHANTOM
 70
    64
  3
______  __  __  ______  __  __  ______  __  __ 
 72
    65
 73
     6
 40
2.5
 49
1.25
 49
-0.25
 49
0.25
 49
-0.25
 49
0.25
 49
-0.25
  0
LTYPE
  2
BORDER
 70
    64
  3
__ __ . __ __ . __ __ . __ __ . __ __ . __ __ .
 72
    65
 73
     6
 40
1.75
 49
0.5
 49
-0.25
 49
0.5
 49
-0.25
 49
0.0
 49
-0.25
  0
ENDTAB
  0
TABLE
  2
LAYER
 70
    16
  0
LAYER
  2
CSLAYER1
 70
    64
 62
     7
  6
CONTINUOUS
  0
LAYER
  2
CSLAYER2
 70
    64
 62
     7
  6
CONTINUOUS
  0
LAYER
  2
CSLAYER3
 70
    64
 62
     7
  6
CONTINUOUS
  0
LAYER
  2
CSLAYER4
 70
    64
 62
     7
  6
CONTINUOUS
  0
LAYER
  2
CSLAYER5
 70
    64
 62
     7
  6
CONTINUOUS
  0
LAYER
  2
CSLAYER6
 70
    64
 62
     7
  6
CONTINUOUS
  0
LAYER
  2
CSLAYER7
 70
    64
 62
     7
  6
CONTINUOUS
  0
LAYER
  2
CSLAYER8
 70
    64
 62
     7
  6
CONTINUOUS
  0
LAYER
  2
CSLAYER9
 70
    64
 62
     7
  6
CONTINUOUS
  0
LAYER
  2
CSLAYER10
 70
    64
 62
     7
  6
CONTINUOUS
  0
LAYER
  2
CSLAYER11
 70
    64
 62
     7
  6
CONTINUOUS
  0
LAYER
  2
CSLAYER12
 70
    64
 62
     7
  6
CONTINUOUS
  0
LAYER
  2
CSLAYER13
 70
    64
 62
     7
  6
CONTINUOUS
  0
LAYER
  2
CSLAYER14
 70
    64
 62
     7
  6
CONTINUOUS
  0
LAYER
  2
CSLAYER15
 70
    64
 62
     7
  6
CONTINUOUS
  0
LAYER
  2
CSLAYER16
 70
    64
 62
     7
  6
CONTINUOUS
  0
ENDTAB
  0
TABLE
  2
STYLE
 70
     1
  0
STYLE
  2
SX_FONT
 70
     0
 40
1.0
 41
1.0
 50
0.0
 71
     0
 42
1.0
  3
monotxt
  4
bigfont
  0
ENDTAB
  0
TABLE
  2
VIEW
 70
     0
  0
ENDTAB
  0
ENDSEC
  0
SECTION
  2
BLOCKS
  0
BLOCK
  8
CSLAYER1
  2
*D0000
 70
    65
 10
0.0
 20
0.0
 30
0.0
  0
LINE
  8
CSLAYER1
  6
CONTINUOUS
 62
     7
 10
52.398438
 20
162.968750
 11
52.398438
 21
167.983625
  0
LINE
  8
CSLAYER1
  6
CONTINUOUS
 62
     7
 10
142.398438
 20
162.968750
 11
142.398438
 21
167.983625
  0
LINE
  8
CSLAYER1
  6
CONTINUOUS
 62
     7
 10
52.398438
 20
166.983625
 11
142.398438
 21
166.983625
  0
LINE
  8
CSLAYER1
  6
CONTINUOUS
 62
     7
 10
52.398438
 20
166.983625
 11
56.262141
 21
168.018901
  0
LINE
  8
CSLAYER1
  6
CONTINUOUS
 62
     7
 10
52.398438
 20
166.983625
 11
56.262141
 21
165.948349
  0
LINE
  8
CSLAYER1
  6
CONTINUOUS
 62
     7
 10
142.398438
 20
166.983625
 11
138.534734
 21
168.018901
  0
LINE
  8
CSLAYER1
  6
CONTINUOUS
 62
     7
 10
142.398438
 20
166.983625
 11
138.534734
 21
165.948349
  0
TEXT
  8
CSLAYER1
 62
     7
 10
94.398438
 20
167.983627
 40
4.000000
 41
0.900000
  1
90
 50
0.000000
 51
0.000000
  7
SX_FONT
 72
     5
 11
100.398438
 21
167.983627
  0
ENDBLK
  8
0
  0
BLOCK
  8
CSLAYER1
  2
*D0001
 70
    65
 10
0.0
 20
0.0
 30
0.0
  0
LINE
  8
CSLAYER1
  6
CONTINUOUS
 62
     7
 10
148.398438
 20
135.968750
 11
153.456019
 21
135.968750
  0
LINE
  8
CSLAYER1
  6
CONTINUOUS
 62
     7
 10
148.398438
 20
156.968750
 11
153.456019
 21
156.968750
  0
LINE
  8
CSLAYER1
  6
CONTINUOUS
 62
     7
 10
152.456019
 20
135.968750
 11
152.456019
 21
156.968750
  0
LINE
  8
CSLAYER1
  6
CONTINUOUS
 62
     7
 10
152.456019
 20
135.968750
 11
151.420742
 21
139.832453
  0
LINE
  8
CSLAYER1
  6
CONTINUOUS
 62
     7
 10
152.456019
 20
135.968750
 11
153.491295
 21
139.832453
  0
LINE
  8
CSLAYER1
  6
CONTINUOUS
 62
     7
 10
152.456019
 20
156.968750
 11
151.420742
 21
153.105047
  0
LINE
  8
CSLAYER1
  6
CONTINUOUS
 62
     7
 10
152.456019
 20
156.968750
 11
153.491295
 21
153.105047
  0
TEXT
  8
CSLAYER1
 62
     7
 10
157.334915
 20
143.195282
 40
4.000000
 41
0.900000
  1
21
 50
90.000000
 51
0.000000
  7
SX_FONT
 72
     5
 11
157.334915
 21
149.195282
  0
ENDBLK
  8
0
  0
ENDSEC
  0
SECTION
  2
ENTITIES
  0
LINE
  8
CSLAYER2
  6
CONTINUOUS
 62
     7
 10
110.398438
 20
148.968750
 11
120.398438
 21
148.968750
  0
LINE
  8
CSLAYER2
  6
CONTINUOUS
 62
     7
 10
52.398438
 20
135.968750
 11
142.398438
 21
135.968750
  0
LINE
  8
CSLAYER2
  6
CONTINUOUS
 62
     7
 10
52.398438
 20
140.968750
 11
56.398438
 21
140.968750
  0
LINE
  8
CSLAYER2
  6
CONTINUOUS
 62
     7
 10
52.398438
 20
140.968750
 11
52.398438
 21
135.968750
  0
ARC
  8
CSLAYER2
  6
CONTINUOUS
 62
     7
 10
79.604408
 20
227.468750
 40
84.999999
 50
263.782354
 51
276.217646
  0
LINE
  8
CSLAYER2
  6
CONTINUOUS
 62
     7
 10
70.398438
 20
142.968750
 11
67.649960
 21
150.763975
  0
LINE
  8
CSLAYER2
  6
CONTINUOUS
 62
     7
 10
61.114051
 20
150.678213
 11
56.398438
 21
140.968750
  0
ARC
  8
CSLAYER2
  6
CONTINUOUS
 62
     7
 10
64.398438
 20
149.468750
 40
3.500000
 50
17.124174
 51
159.783958
  0
ARC
  8
CSLAYER2
  6
CONTINUOUS
 62
     7
 10
89.321855
 20
182.965480
 40
40.000000
 50
269.267344
 51
301.797222
  0
LINE
  8
CSLAYER2
  6
CONTINUOUS
 62
     7
 10
134.898438
 20
156.968750
 11
127.898438
 21
156.968750
  0
LINE
  8
CSLAYER2
  6
CONTINUOUS
 62
     7
 10
122.898438
 20
152.968750
 11
125.398438
 21
152.968750
  0
ARC
  8
CSLAYER2
  6
CONTINUOUS
 62
     7
 10
127.898438
 20
154.468750
 40
2.500000
 50
90.000000
 51
180.000000
  0
LINE
  8
CSLAYER2
  6
CONTINUOUS
 62
     7
 10
125.398438
 20
152.968750
 11
125.398438
 21
154.468750
  0
LINE
  8
CSLAYER2
  6
CONTINUOUS
 62
     7
 10
120.398438
 20
148.968750
 11
120.398438
 21
150.468750
  0
ARC
  8
CSLAYER2
  6
CONTINUOUS
 62
     7
 10
122.898438
 20
150.468750
 40
2.500000
 50
90.000000
 51
180.000000
  0
LINE
  8
CSLAYER2
  6
CONTINUOUS
 62
     7
 10
142.398438
 20
135.968750
 11
142.398438
 21
150.468750
  0
LINE
  8
CSLAYER2
  6
CONTINUOUS
 62
     7
 10
137.398438
 20
152.968750
 11
139.898438
 21
152.968750
  0
LINE
  8
CSLAYER2
  6
CONTINUOUS
 62
     7
 10
137.398438
 20
152.968750
 11
137.398438
 21
154.468750
  0
ARC
  8
CSLAYER2
  6
CONTINUOUS
 62
     7
 10
134.898438
 20
154.468750
 40
2.500000
 50
0.000000
 51
90.000000
  0
ARC
  8
CSLAYER2
  6
CONTINUOUS
 62
     7
 10
139.898438
 20
150.468750
 40
2.500000
 50
0.000000
 51
90.000000
  0
TEXT
  8
CSLAYER1
 62
     7
 10
52.376747
 20
75.570961
 40
10.000000
 41
0.630000
  1
FM-2109
 50
0.000000
 51
0.000000
  7
SX_FONT
 72
     5
 11
94.376747
 21
75.570961
  0
DIMENSION
  8
CSLAYER1
 62
     7
  2
*D0000
 10
142.398438
 20
166.983625
 11
97.398438
 21
167.983627
 13
52.398438
 23
161.968750
 14
142.398438
 24
161.968750
 70
1
  0
DIMENSION
  8
CSLAYER1
 62
     7
  2
*D0001
 10
152.456019
 20
156.968750
 11
157.334915
 21
146.195282
 13
147.398438
 23
135.968750
 14
147.398438
 24
156.968750
 50
90.000000
 70
1
  0
TEXT
  8
CSLAYER1
 62
     7
 10
109.488480
 20
76.247696
 40
10.000000
 41
0.642857
  1
90x21
 50
0.000000
 51
0.000000
  7
SX_FONT
 72
     5
 11
139.488480
 21
76.247696
  0
TEXT
  8
CSLAYER1
 62
     7
 10
53.288719
 20
64.647446
 40
5.000000
 41
0.612766
  1
カタログ Vol. 1  P52
 50
0.000000
 51
0.000000
  7
SX_FONT
 72
     5
 11
101.288719
 21
64.647446
  0
TEXT
  8
CSLAYER1
 62
     7
 10
52.865393
 20
53.700190
 40
4.960742
 41
0.729057
  1
ホ%%dケットカタロク゛ Vol. 1 P25
 50
0.000000
 51
0.000000
  7
SX_FONT
 72
     5
 11
127.609751
 21
53.700190
  0
ENDSEC
  0
EOF
