  0
SECTION
  2
HEADER
  9
$ACADVER
  1
AC1006
  9
$INSBASE
 10
67.797749
 20
180.752623
 30
0.0
  9
$EXTMIN
 10
67.797749
 20
180.752623
  9
$EXTMAX
 10
277.797749
 20
477.752623
  9
$LIMMIN
 10
67.797749
 20
180.752623
  9
$LIMMAX
 10
277.797749
 20
477.752623
  9
$VIEWCTR
 10
172.797749
 20
329.252623
  9
$VIEWSIZE
 40
297.000000
  9
$SNAPMODE
 70
     0
  9
$SNAPUNIT
 10
1.0
 20
1.0
  9
$SNAPBASE
 10
0.0
 20
0.0
  9
$SNAPANG
 50
0.0
  9
$SNAPSTYLE
 70
     0
  9
$SNAPISOPAIR
 70
     0
  9
$GRIDMODE
 70
     0
  9
$GRIDUNIT
 10
0.0
 20
0.0
  9
$ORTHOMODE
 70
     0
  9
$REGENMODE
 70
     1
  9
$FILLMODE
 70
     1
  9
$QTEXTMODE
 70
     0
  9
$DRAGMODE
 70
     2
  9
$LTSCALE
 40
15.000000
  9
$OSMODE
 70
     0
  9
$ATTMODE
 70
     1
  9
$TEXTSIZE
 40
0.2
  9
$TRACEWID
 40
0.05
  9
$TEXTSTYLE
  7
STANDARD
  9
$CLAYER
  8
CSLAYER3
  9
$CELTYPE
  6
BYLAYER
  9
$CECOLOR
 62
   256
  9
$DIMSCALE
 40
1.0
  9
$DIMASZ
 40
0.18
  9
$DIMEXO
 40
0.0625
  9
$DIMDLI
 40
0.38
  9
$DIMRND
 40
0.0
  9
$DIMDLE
 40
0.0
  9
$DIMEXE
 40
0.18
  9
$DIMTP
 40
0.0
  9
$DIMTM
 40
0.0
  9
$DIMTXT
 40
0.18
  9
$DIMCEN
 40
0.09
  9
$DIMTSZ
 40
0.0
  9
$DIMTOL
 70
     0
  9
$DIMLIM
 70
     0
  9
$DIMTIH
 70
     1
  9
$DIMTOH
 70
     1
  9
$DIMSE1
 70
     0
  9
$DIMSE2
 70
     0
  9
$DIMTAD
 70
     0
  9
$DIMZIN
 70
     0
  9
$DIMBLK
  1

  9
$LUNITS
 70
     2
  9
$LUPREC
 70
     4
  9
$AXISMODE
 70
     0
  9
$AXISUNIT
 10
0.0
 20
0.0
  9
$SKETCHINC
 40
0.1
  9
$FILLETRAD
 40
0.0
  9
$AUNITS
 70
     0
  9
$AUPREC
 70
     0
  9
$MENU
  1
ACAD
  9
$ELEVATION
 40
0.0
  9
$THICKNESS
 40
0.0
  9
$VIEWDIR
 10
0.0
 20
0.0
 30
1.0
  9
$LIMCHECK
 70
     0
  9
$BLIPMODE
 70
     1
  9
$CHAMFERA
 40
0.0
  9
$CHAMFERB
 40
0.0
  9
$FASTZOOM
 70
     1
  9
$SKPOLY
 70
     0
  9
$TDCREATE
 40
0.000000
  9
$TDUPDATE
 40
0.000000
  9
$TDINDWG
 40
0.0
  9
$TDUSRTIMER
 40
0.0
  9
$USRTIMER
 70
     1
  9
$ANGBASE
 50
0.0
  9
$ANGDIR
 70
     0
  9
$PDMODE
 70
     0
  9
$PDSIZE
 40
0.0
  9
$PLINEWID
 40
0.0
  9
$COORDS
 70
     0
  9
$USERI1
 70
     0
  9
$USERI2
 70
     0
  9
$USERI3
 70
     0
  9
$USERI4
 70
     0
  9
$USERI5
 70
     0
  9
$USERR1
 40
0.0
  9
$USERR2
 40
0.0
  9
$USERR3
 40
0.0
  9
$USERR4
 40
0.0
  9
$USERR5
 40
0.0
  0
ENDSEC
  0
SECTION
  2
TABLES
  0
TABLE
  2
LTYPE
 70
     9
  0
LTYPE
  2
CONTINUOUS
 70
    64
  3
Solid line
 72
    65
 73
     0
 40
0.0
  0
LTYPE
  2
DASHED
 70
    64
  3
__ __ __ __ __ __ __ __ __ __ __ __ __ __ __
 72
    65
 73
     2
 40
0.75
 49
0.5
 49
-0.25
  0
LTYPE
  2
HIDDEN
 70
    64
  3
_ _ _ _ _ _ _ _ _ _ _ _ _ _ _ _ _ _ _ _ _ _ _
 72
    65
 73
     2
 40
0.375
 49
0.25
 49
-0.125
  0
LTYPE
  2
DOT
 70
    64
  3
...............................................
 72
    65
 73
     2
 40
0.25
 49
0.0
 49
-0.25
  0
LTYPE
  2
DASHDOT
 70
    64
  3
__ . __ . __ . __ . __ . __ . __ . __ . __ . __
 72
    65
 73
     4
 40
1.0
 49
0.5
 49
-0.25
 49
0.0
 49
-0.25
  0
LTYPE
  2
DIVIDE
 70
    64
  3
__ . . __ . . __ . . __ . . __ . . __ . . __
 72
    65
 73
     6
 40
1.25
 49
0.5
 49
-0.25
 49
0.0
 49
-0.25
 49
0.0
 49
-0.25
  0
LTYPE
  2
CENTER
 70
    64
  3
____ _ ____ _ ____ _ ____ _ ____ _ ____ _ ____ 
 72
    65
 73
     4
 40
2.0
 49
1.25
 49
-0.25
 49
0.25
 49
-0.25
  0
LTYPE
  2
PHANTOM
 70
    64
  3
______  __  __  ______  __  __  ______  __  __ 
 72
    65
 73
     6
 40
2.5
 49
1.25
 49
-0.25
 49
0.25
 49
-0.25
 49
0.25
 49
-0.25
  0
LTYPE
  2
BORDER
 70
    64
  3
__ __ . __ __ . __ __ . __ __ . __ __ . __ __ .
 72
    65
 73
     6
 40
1.75
 49
0.5
 49
-0.25
 49
0.5
 49
-0.25
 49
0.0
 49
-0.25
  0
ENDTAB
  0
TABLE
  2
LAYER
 70
    16
  0
LAYER
  2
CSLAYER1
 70
    64
 62
     7
  6
CONTINUOUS
  0
LAYER
  2
CSLAYER2
 70
    64
 62
     7
  6
CONTINUOUS
  0
LAYER
  2
CSLAYER3
 70
    64
 62
     7
  6
CONTINUOUS
  0
LAYER
  2
CSLAYER4
 70
    64
 62
     7
  6
CONTINUOUS
  0
LAYER
  2
CSLAYER5
 70
    64
 62
     7
  6
CONTINUOUS
  0
LAYER
  2
CSLAYER6
 70
    64
 62
     7
  6
CONTINUOUS
  0
LAYER
  2
CSLAYER7
 70
    64
 62
     7
  6
CONTINUOUS
  0
LAYER
  2
CSLAYER8
 70
    64
 62
     7
  6
CONTINUOUS
  0
LAYER
  2
CSLAYER9
 70
    64
 62
     7
  6
CONTINUOUS
  0
LAYER
  2
CSLAYER10
 70
    64
 62
     7
  6
CONTINUOUS
  0
LAYER
  2
CSLAYER11
 70
    64
 62
     7
  6
CONTINUOUS
  0
LAYER
  2
CSLAYER12
 70
    64
 62
     7
  6
CONTINUOUS
  0
LAYER
  2
CSLAYER13
 70
    64
 62
     7
  6
CONTINUOUS
  0
LAYER
  2
CSLAYER14
 70
    64
 62
     7
  6
CONTINUOUS
  0
LAYER
  2
CSLAYER15
 70
    64
 62
     7
  6
CONTINUOUS
  0
LAYER
  2
CSLAYER16
 70
    64
 62
     7
  6
CONTINUOUS
  0
ENDTAB
  0
TABLE
  2
STYLE
 70
     1
  0
STYLE
  2
SX_FONT
 70
     0
 40
1.0
 41
1.0
 50
0.0
 71
     0
 42
1.0
  3
monotxt
  4
bigfont
  0
ENDTAB
  0
TABLE
  2
VIEW
 70
     0
  0
ENDTAB
  0
ENDSEC
  0
SECTION
  2
BLOCKS
  0
BLOCK
  8
CSLAYER1
  2
*D0000
 70
    65
 10
0.0
 20
0.0
 30
0.0
  0
LINE
  8
CSLAYER1
  6
CONTINUOUS
 62
     7
 10
65.414062
 20
177.656250
 11
65.414062
 21
182.732113
  0
LINE
  8
CSLAYER1
  6
CONTINUOUS
 62
     7
 10
125.414062
 20
177.656250
 11
125.414062
 21
182.732113
  0
LINE
  8
CSLAYER1
  6
CONTINUOUS
 62
     7
 10
65.414062
 20
181.732113
 11
125.414062
 21
181.732113
  0
LINE
  8
CSLAYER1
  6
CONTINUOUS
 62
     7
 10
65.414062
 20
181.732113
 11
69.277766
 21
182.767389
  0
LINE
  8
CSLAYER1
  6
CONTINUOUS
 62
     7
 10
65.414062
 20
181.732113
 11
69.277766
 21
180.696836
  0
LINE
  8
CSLAYER1
  6
CONTINUOUS
 62
     7
 10
125.414062
 20
181.732113
 11
121.550359
 21
182.767389
  0
LINE
  8
CSLAYER1
  6
CONTINUOUS
 62
     7
 10
125.414062
 20
181.732113
 11
121.550359
 21
180.696836
  0
TEXT
  8
CSLAYER1
 62
     7
 10
92.414063
 20
182.732117
 40
4.000000
 41
0.900000
  1
60
 50
0.000000
 51
0.000000
  7
SX_FONT
 72
     5
 11
98.414063
 21
182.732117
  0
ENDBLK
  8
0
  0
BLOCK
  8
CSLAYER1
  2
*D0001
 70
    65
 10
0.0
 20
0.0
 30
0.0
  0
LINE
  8
CSLAYER1
  6
CONTINUOUS
 62
     7
 10
131.414062
 20
150.656250
 11
136.297464
 21
150.656250
  0
LINE
  8
CSLAYER1
  6
CONTINUOUS
 62
     7
 10
131.414062
 20
171.656250
 11
136.297464
 21
171.656250
  0
LINE
  8
CSLAYER1
  6
CONTINUOUS
 62
     7
 10
135.297464
 20
150.656250
 11
135.297464
 21
171.656250
  0
LINE
  8
CSLAYER1
  6
CONTINUOUS
 62
     7
 10
135.297464
 20
150.656250
 11
134.262188
 21
154.519953
  0
LINE
  8
CSLAYER1
  6
CONTINUOUS
 62
     7
 10
135.297464
 20
150.656250
 11
136.332741
 21
154.519953
  0
LINE
  8
CSLAYER1
  6
CONTINUOUS
 62
     7
 10
135.297464
 20
171.656250
 11
134.262188
 21
167.792547
  0
LINE
  8
CSLAYER1
  6
CONTINUOUS
 62
     7
 10
135.297464
 20
171.656250
 11
136.332741
 21
167.792547
  0
TEXT
  8
CSLAYER1
 62
     7
 10
140.402817
 20
157.917969
 40
4.000000
 41
0.900000
  1
21
 50
90.000000
 51
0.000000
  7
SX_FONT
 72
     5
 11
140.402817
 21
163.917969
  0
ENDBLK
  8
0
  0
ENDSEC
  0
SECTION
  2
ENTITIES
  0
ARC
  8
CSLAYER3
  6
CONTINUOUS
 62
     7
 10
94.193123
 20
64.455040
 40
100.000000
 50
87.408809
 51
99.410896
  0
LINE
  8
CSLAYER3
  6
CONTINUOUS
 62
     7
 10
125.414062
 20
150.656250
 11
65.414062
 21
150.656250
  0
ARC
  8
CSLAYER3
  6
CONTINUOUS
 62
     7
 10
98.714062
 20
167.856250
 40
3.500000
 50
-90.000000
 51
0.000000
  0
ARC
  8
CSLAYER3
  6
CONTINUOUS
 62
     7
 10
102.214062
 20
177.856250
 40
10.000000
 50
270.000000
 51
302.428164
  0
ARC
  8
CSLAYER3
  6
CONTINUOUS
 62
     7
 10
115.174002
 20
157.656250
 40
14.000000
 50
42.993350
 51
122.865829
  0
LINE
  8
CSLAYER3
  6
CONTINUOUS
 62
     7
 10
125.414062
 20
167.203039
 11
125.414062
 21
150.656250
  0
ARC
  8
CSLAYER3
  6
CONTINUOUS
 62
     7
 10
66.914062
 20
159.656250
 40
3.000000
 50
270.000000
 51
360.000000
  0
ARC
  8
CSLAYER3
  6
CONTINUOUS
 62
     7
 10
78.414062
 20
159.656255
 40
3.500000
 50
99.410896
 51
180.000000
  0
LINE
  8
CSLAYER3
  6
CONTINUOUS
 62
     7
 10
74.914062
 20
159.656255
 11
74.914062
 21
159.656250
  0
LINE
  8
CSLAYER3
  6
CONTINUOUS
 62
     7
 10
74.914062
 20
159.656250
 11
69.914062
 21
159.656250
  0
LINE
  8
CSLAYER3
  6
CONTINUOUS
 62
     7
 10
66.914062
 20
156.656250
 11
65.414063
 21
156.656250
  0
LINE
  8
CSLAYER3
  6
CONTINUOUS
 62
     7
 10
65.414062
 20
150.656250
 11
65.414063
 21
156.656250
  0
TEXT
  8
CSLAYER1
 62
     7
 10
65.114342
 20
90.613274
 40
10.000000
 41
0.630000
  1
FM-2107
 50
0.000000
 51
0.000000
  7
SX_FONT
 72
     5
 11
107.114342
 21
90.613274
  0
DIMENSION
  8
CSLAYER1
 62
     7
  2
*D0000
 10
125.414062
 20
181.732113
 11
95.414063
 21
182.732117
 13
65.414062
 23
176.656250
 14
125.414062
 24
176.656250
 70
1
  0
DIMENSION
  8
CSLAYER1
 62
     7
  2
*D0001
 10
135.297464
 20
171.656250
 11
140.402817
 21
160.917969
 13
130.414062
 23
150.656250
 14
130.414062
 24
171.656250
 50
90.000000
 70
1
  0
TEXT
  8
CSLAYER1
 62
     7
 10
122.315140
 20
90.826370
 40
10.000000
 41
0.642857
  1
60x21
 50
0.000000
 51
0.000000
  7
SX_FONT
 72
     5
 11
152.315140
 21
90.826370
  0
TEXT
  8
CSLAYER1
 62
     7
 10
66.417389
 20
78.997086
 40
5.000000
 41
0.612766
  1
カタログ Vol. 1  P52
 50
0.000000
 51
0.000000
  7
SX_FONT
 72
     5
 11
114.417389
 21
78.997086
  0
TEXT
  8
CSLAYER1
 62
     7
 10
66.347739
 20
68.038901
 40
4.960742
 41
0.729057
  1
ホ%%dケットカタロク゛ Vol. 1 P25
 50
0.000000
 51
0.000000
  7
SX_FONT
 72
     5
 11
141.092096
 21
68.038901
  0
ENDSEC
  0
EOF
