  0
SECTION
  2
HEADER
  9
$ACADVER
  1
AC1006
  9
$INSBASE
 10
70.759336
 20
172.523099
 30
0.0
  9
$EXTMIN
 10
70.759336
 20
172.523099
  9
$EXTMAX
 10
280.759336
 20
469.523099
  9
$LIMMIN
 10
70.759336
 20
172.523099
  9
$LIMMAX
 10
280.759336
 20
469.523099
  9
$VIEWCTR
 10
175.759336
 20
321.023099
  9
$VIEWSIZE
 40
297.000000
  9
$SNAPMODE
 70
     0
  9
$SNAPUNIT
 10
1.0
 20
1.0
  9
$SNAPBASE
 10
0.0
 20
0.0
  9
$SNAPANG
 50
0.0
  9
$SNAPSTYLE
 70
     0
  9
$SNAPISOPAIR
 70
     0
  9
$GRIDMODE
 70
     0
  9
$GRIDUNIT
 10
0.0
 20
0.0
  9
$ORTHOMODE
 70
     0
  9
$REGENMODE
 70
     1
  9
$FILLMODE
 70
     1
  9
$QTEXTMODE
 70
     0
  9
$DRAGMODE
 70
     2
  9
$LTSCALE
 40
15.000000
  9
$OSMODE
 70
     0
  9
$ATTMODE
 70
     1
  9
$TEXTSIZE
 40
0.2
  9
$TRACEWID
 40
0.05
  9
$TEXTSTYLE
  7
STANDARD
  9
$CLAYER
  8
CSLAYER3
  9
$CELTYPE
  6
BYLAYER
  9
$CECOLOR
 62
   256
  9
$DIMSCALE
 40
1.0
  9
$DIMASZ
 40
0.18
  9
$DIMEXO
 40
0.0625
  9
$DIMDLI
 40
0.38
  9
$DIMRND
 40
0.0
  9
$DIMDLE
 40
0.0
  9
$DIMEXE
 40
0.18
  9
$DIMTP
 40
0.0
  9
$DIMTM
 40
0.0
  9
$DIMTXT
 40
0.18
  9
$DIMCEN
 40
0.09
  9
$DIMTSZ
 40
0.0
  9
$DIMTOL
 70
     0
  9
$DIMLIM
 70
     0
  9
$DIMTIH
 70
     1
  9
$DIMTOH
 70
     1
  9
$DIMSE1
 70
     0
  9
$DIMSE2
 70
     0
  9
$DIMTAD
 70
     0
  9
$DIMZIN
 70
     0
  9
$DIMBLK
  1

  9
$LUNITS
 70
     2
  9
$LUPREC
 70
     4
  9
$AXISMODE
 70
     0
  9
$AXISUNIT
 10
0.0
 20
0.0
  9
$SKETCHINC
 40
0.1
  9
$FILLETRAD
 40
0.0
  9
$AUNITS
 70
     0
  9
$AUPREC
 70
     0
  9
$MENU
  1
ACAD
  9
$ELEVATION
 40
0.0
  9
$THICKNESS
 40
0.0
  9
$VIEWDIR
 10
0.0
 20
0.0
 30
1.0
  9
$LIMCHECK
 70
     0
  9
$BLIPMODE
 70
     1
  9
$CHAMFERA
 40
0.0
  9
$CHAMFERB
 40
0.0
  9
$FASTZOOM
 70
     1
  9
$SKPOLY
 70
     0
  9
$TDCREATE
 40
0.000000
  9
$TDUPDATE
 40
0.000000
  9
$TDINDWG
 40
0.0
  9
$TDUSRTIMER
 40
0.0
  9
$USRTIMER
 70
     1
  9
$ANGBASE
 50
0.0
  9
$ANGDIR
 70
     0
  9
$PDMODE
 70
     0
  9
$PDSIZE
 40
0.0
  9
$PLINEWID
 40
0.0
  9
$COORDS
 70
     0
  9
$USERI1
 70
     0
  9
$USERI2
 70
     0
  9
$USERI3
 70
     0
  9
$USERI4
 70
     0
  9
$USERI5
 70
     0
  9
$USERR1
 40
0.0
  9
$USERR2
 40
0.0
  9
$USERR3
 40
0.0
  9
$USERR4
 40
0.0
  9
$USERR5
 40
0.0
  0
ENDSEC
  0
SECTION
  2
TABLES
  0
TABLE
  2
LTYPE
 70
     9
  0
LTYPE
  2
CONTINUOUS
 70
    64
  3
Solid line
 72
    65
 73
     0
 40
0.0
  0
LTYPE
  2
DASHED
 70
    64
  3
__ __ __ __ __ __ __ __ __ __ __ __ __ __ __
 72
    65
 73
     2
 40
0.75
 49
0.5
 49
-0.25
  0
LTYPE
  2
HIDDEN
 70
    64
  3
_ _ _ _ _ _ _ _ _ _ _ _ _ _ _ _ _ _ _ _ _ _ _
 72
    65
 73
     2
 40
0.375
 49
0.25
 49
-0.125
  0
LTYPE
  2
DOT
 70
    64
  3
...............................................
 72
    65
 73
     2
 40
0.25
 49
0.0
 49
-0.25
  0
LTYPE
  2
DASHDOT
 70
    64
  3
__ . __ . __ . __ . __ . __ . __ . __ . __ . __
 72
    65
 73
     4
 40
1.0
 49
0.5
 49
-0.25
 49
0.0
 49
-0.25
  0
LTYPE
  2
DIVIDE
 70
    64
  3
__ . . __ . . __ . . __ . . __ . . __ . . __
 72
    65
 73
     6
 40
1.25
 49
0.5
 49
-0.25
 49
0.0
 49
-0.25
 49
0.0
 49
-0.25
  0
LTYPE
  2
CENTER
 70
    64
  3
____ _ ____ _ ____ _ ____ _ ____ _ ____ _ ____ 
 72
    65
 73
     4
 40
2.0
 49
1.25
 49
-0.25
 49
0.25
 49
-0.25
  0
LTYPE
  2
PHANTOM
 70
    64
  3
______  __  __  ______  __  __  ______  __  __ 
 72
    65
 73
     6
 40
2.5
 49
1.25
 49
-0.25
 49
0.25
 49
-0.25
 49
0.25
 49
-0.25
  0
LTYPE
  2
BORDER
 70
    64
  3
__ __ . __ __ . __ __ . __ __ . __ __ . __ __ .
 72
    65
 73
     6
 40
1.75
 49
0.5
 49
-0.25
 49
0.5
 49
-0.25
 49
0.0
 49
-0.25
  0
ENDTAB
  0
TABLE
  2
LAYER
 70
    16
  0
LAYER
  2
CSLAYER1
 70
    64
 62
     7
  6
CONTINUOUS
  0
LAYER
  2
CSLAYER2
 70
    64
 62
     7
  6
CONTINUOUS
  0
LAYER
  2
CSLAYER3
 70
    64
 62
     7
  6
CONTINUOUS
  0
LAYER
  2
CSLAYER4
 70
    64
 62
     7
  6
CONTINUOUS
  0
LAYER
  2
CSLAYER5
 70
    64
 62
     7
  6
CONTINUOUS
  0
LAYER
  2
CSLAYER6
 70
    64
 62
     7
  6
CONTINUOUS
  0
LAYER
  2
CSLAYER7
 70
    64
 62
     7
  6
CONTINUOUS
  0
LAYER
  2
CSLAYER8
 70
    64
 62
     7
  6
CONTINUOUS
  0
LAYER
  2
CSLAYER9
 70
    64
 62
     7
  6
CONTINUOUS
  0
LAYER
  2
CSLAYER10
 70
    64
 62
     7
  6
CONTINUOUS
  0
LAYER
  2
CSLAYER11
 70
    64
 62
     7
  6
CONTINUOUS
  0
LAYER
  2
CSLAYER12
 70
    64
 62
     7
  6
CONTINUOUS
  0
LAYER
  2
CSLAYER13
 70
    64
 62
     7
  6
CONTINUOUS
  0
LAYER
  2
CSLAYER14
 70
    64
 62
     7
  6
CONTINUOUS
  0
LAYER
  2
CSLAYER15
 70
    64
 62
     7
  6
CONTINUOUS
  0
LAYER
  2
CSLAYER16
 70
    64
 62
     7
  6
CONTINUOUS
  0
ENDTAB
  0
TABLE
  2
STYLE
 70
     1
  0
STYLE
  2
SX_FONT
 70
     0
 40
1.0
 41
1.0
 50
0.0
 71
     0
 42
1.0
  3
monotxt
  4
bigfont
  0
ENDTAB
  0
TABLE
  2
VIEW
 70
     0
  0
ENDTAB
  0
ENDSEC
  0
SECTION
  2
BLOCKS
  0
BLOCK
  8
CSLAYER1
  2
*D0000
 70
    65
 10
0.0
 20
0.0
 30
0.0
  0
LINE
  8
CSLAYER1
  6
CONTINUOUS
 62
     7
 10
70.319620
 20
168.664430
 11
70.319620
 21
173.888753
  0
LINE
  8
CSLAYER1
  6
CONTINUOUS
 62
     7
 10
130.319620
 20
168.664430
 11
130.319620
 21
173.888753
  0
LINE
  8
CSLAYER1
  6
CONTINUOUS
 62
     7
 10
70.319620
 20
172.888753
 11
130.319620
 21
172.888753
  0
LINE
  8
CSLAYER1
  6
CONTINUOUS
 62
     7
 10
70.319620
 20
172.888753
 11
74.183323
 21
173.924029
  0
LINE
  8
CSLAYER1
  6
CONTINUOUS
 62
     7
 10
70.319620
 20
172.888753
 11
74.183323
 21
171.853477
  0
LINE
  8
CSLAYER1
  6
CONTINUOUS
 62
     7
 10
130.319620
 20
172.888753
 11
126.455917
 21
173.924029
  0
LINE
  8
CSLAYER1
  6
CONTINUOUS
 62
     7
 10
130.319620
 20
172.888753
 11
126.455917
 21
171.853477
  0
TEXT
  8
CSLAYER1
 62
     7
 10
97.319618
 20
173.888748
 40
4.000000
 41
0.900000
  1
60
 50
0.000000
 51
0.000000
  7
SX_FONT
 72
     5
 11
103.319618
 21
173.888748
  0
ENDBLK
  8
0
  0
BLOCK
  8
CSLAYER1
  2
*D0001
 70
    65
 10
0.0
 20
0.0
 30
0.0
  0
LINE
  8
CSLAYER1
  6
CONTINUOUS
 62
     7
 10
136.319620
 20
144.664430
 11
141.576964
 21
144.664430
  0
LINE
  8
CSLAYER1
  6
CONTINUOUS
 62
     7
 10
136.319620
 20
162.664430
 11
141.576964
 21
162.664430
  0
LINE
  8
CSLAYER1
  6
CONTINUOUS
 62
     7
 10
140.576964
 20
144.664430
 11
140.576964
 21
162.664430
  0
LINE
  8
CSLAYER1
  6
CONTINUOUS
 62
     7
 10
140.576964
 20
144.664430
 11
139.541688
 21
148.528134
  0
LINE
  8
CSLAYER1
  6
CONTINUOUS
 62
     7
 10
140.576964
 20
144.664430
 11
141.612241
 21
148.528134
  0
LINE
  8
CSLAYER1
  6
CONTINUOUS
 62
     7
 10
140.576964
 20
162.664430
 11
139.541688
 21
158.800727
  0
LINE
  8
CSLAYER1
  6
CONTINUOUS
 62
     7
 10
140.576964
 20
162.664430
 11
141.612241
 21
158.800727
  0
TEXT
  8
CSLAYER1
 62
     7
 10
145.495987
 20
150.780212
 40
4.000000
 41
0.900000
  1
18
 50
90.000000
 51
0.000000
  7
SX_FONT
 72
     5
 11
145.495987
 21
156.780212
  0
ENDBLK
  8
0
  0
ENDSEC
  0
SECTION
  2
ENTITIES
  0
ARC
  8
CSLAYER2
  6
CONTINUOUS
 62
     7
 10
70.319620
 20
152.664430
 40
5.000000
 50
270.000000
 51
331.666951
  0
LINE
  8
CSLAYER2
  6
CONTINUOUS
 62
     7
 10
130.319620
 20
144.664430
 11
70.319620
 21
144.664430
  0
LINE
  8
CSLAYER2
  6
CONTINUOUS
 62
     7
 10
128.319620
 20
162.664430
 11
117.319620
 21
162.664430
  0
LINE
  8
CSLAYER2
  6
CONTINUOUS
 62
     7
 10
130.319620
 20
160.664430
 11
130.319620
 21
144.664430
  0
ARC
  8
CSLAYER2
  6
CONTINUOUS
 62
     7
 10
128.319620
 20
160.664430
 40
2.000000
 50
0.000000
 51
90.000000
  0
ARC
  8
CSLAYER2
  6
CONTINUOUS
 62
     7
 10
79.121657
 20
147.918470
 40
5.000000
 50
86.773627
 51
151.666951
  0
ARC
  8
CSLAYER2
  6
CONTINUOUS
 62
     7
 10
82.673720
 20
151.664430
 40
3.500000
 50
53.234986
 51
159.143244
  0
ARC
  8
CSLAYER2
  6
CONTINUOUS
 62
     7
 10
93.746609
 20
166.484725
 40
15.000000
 50
233.234986
 51
323.854547
  0
LINE
  8
CSLAYER2
  6
CONTINUOUS
 62
     7
 10
117.319620
 20
162.664430
 11
114.319620
 21
160.664430
  0
ARC
  8
CSLAYER2
  6
CONTINUOUS
 62
     7
 10
112.319620
 20
152.918470
 40
8.000000
 50
75.522488
 51
143.854547
  0
LINE
  8
CSLAYER2
  6
CONTINUOUS
 62
     7
 10
70.319620
 20
144.664430
 11
70.319620
 21
147.664430
  0
TEXT
  8
CSLAYER1
 62
     7
 10
70.065620
 20
84.202194
 40
10.000000
 41
0.630000
  1
FM-2106
 50
0.000000
 51
0.000000
  7
SX_FONT
 72
     5
 11
112.065620
 21
84.202194
  0
DIMENSION
  8
CSLAYER1
 62
     7
  2
*D0000
 10
130.319620
 20
172.888753
 11
100.319618
 21
173.888748
 13
70.319620
 23
167.664430
 14
130.319620
 24
167.664430
 70
1
  0
DIMENSION
  8
CSLAYER1
 62
     7
  2
*D0001
 10
140.576964
 20
162.664430
 11
145.495987
 21
153.780212
 13
135.319620
 23
144.664430
 14
135.319620
 24
162.664430
 50
90.000000
 70
1
  0
TEXT
  8
CSLAYER1
 62
     7
 10
126.916473
 20
84.605293
 40
10.000000
 41
0.642857
  1
60x18
 50
0.000000
 51
0.000000
  7
SX_FONT
 72
     5
 11
156.916473
 21
84.605293
  0
TEXT
  8
CSLAYER1
 62
     7
 10
71.065437
 20
72.438606
 40
5.000000
 41
0.612766
  1
カタログ Vol. 1  P52
 50
0.000000
 51
0.000000
  7
SX_FONT
 72
     5
 11
119.065437
 21
72.438606
  0
TEXT
  8
CSLAYER1
 62
     7
 10
70.843481
 20
61.806556
 40
4.960742
 41
0.729057
  1
ホ%%dケットカタロク゛ Vol. 1 P25
 50
0.000000
 51
0.000000
  7
SX_FONT
 72
     5
 11
145.587839
 21
61.806556
  0
ENDSEC
  0
EOF
