  0
SECTION
  2
HEADER
  9
$ACADVER
  1
AC1006
  9
$INSBASE
 10
77.268868
 20
170.615411
 30
0.0
  9
$EXTMIN
 10
77.268868
 20
170.615411
  9
$EXTMAX
 10
287.268868
 20
467.615411
  9
$LIMMIN
 10
77.268868
 20
170.615411
  9
$LIMMAX
 10
287.268868
 20
467.615411
  9
$VIEWCTR
 10
182.268868
 20
319.115411
  9
$VIEWSIZE
 40
297.000000
  9
$SNAPMODE
 70
     0
  9
$SNAPUNIT
 10
1.0
 20
1.0
  9
$SNAPBASE
 10
0.0
 20
0.0
  9
$SNAPANG
 50
0.0
  9
$SNAPSTYLE
 70
     0
  9
$SNAPISOPAIR
 70
     0
  9
$GRIDMODE
 70
     0
  9
$GRIDUNIT
 10
0.0
 20
0.0
  9
$ORTHOMODE
 70
     0
  9
$REGENMODE
 70
     1
  9
$FILLMODE
 70
     1
  9
$QTEXTMODE
 70
     0
  9
$DRAGMODE
 70
     2
  9
$LTSCALE
 40
15.000000
  9
$OSMODE
 70
     0
  9
$ATTMODE
 70
     1
  9
$TEXTSIZE
 40
0.2
  9
$TRACEWID
 40
0.05
  9
$TEXTSTYLE
  7
STANDARD
  9
$CLAYER
  8
CSLAYER3
  9
$CELTYPE
  6
BYLAYER
  9
$CECOLOR
 62
   256
  9
$DIMSCALE
 40
1.0
  9
$DIMASZ
 40
0.18
  9
$DIMEXO
 40
0.0625
  9
$DIMDLI
 40
0.38
  9
$DIMRND
 40
0.0
  9
$DIMDLE
 40
0.0
  9
$DIMEXE
 40
0.18
  9
$DIMTP
 40
0.0
  9
$DIMTM
 40
0.0
  9
$DIMTXT
 40
0.18
  9
$DIMCEN
 40
0.09
  9
$DIMTSZ
 40
0.0
  9
$DIMTOL
 70
     0
  9
$DIMLIM
 70
     0
  9
$DIMTIH
 70
     1
  9
$DIMTOH
 70
     1
  9
$DIMSE1
 70
     0
  9
$DIMSE2
 70
     0
  9
$DIMTAD
 70
     0
  9
$DIMZIN
 70
     0
  9
$DIMBLK
  1

  9
$LUNITS
 70
     2
  9
$LUPREC
 70
     4
  9
$AXISMODE
 70
     0
  9
$AXISUNIT
 10
0.0
 20
0.0
  9
$SKETCHINC
 40
0.1
  9
$FILLETRAD
 40
0.0
  9
$AUNITS
 70
     0
  9
$AUPREC
 70
     0
  9
$MENU
  1
ACAD
  9
$ELEVATION
 40
0.0
  9
$THICKNESS
 40
0.0
  9
$VIEWDIR
 10
0.0
 20
0.0
 30
1.0
  9
$LIMCHECK
 70
     0
  9
$BLIPMODE
 70
     1
  9
$CHAMFERA
 40
0.0
  9
$CHAMFERB
 40
0.0
  9
$FASTZOOM
 70
     1
  9
$SKPOLY
 70
     0
  9
$TDCREATE
 40
0.000000
  9
$TDUPDATE
 40
0.000000
  9
$TDINDWG
 40
0.0
  9
$TDUSRTIMER
 40
0.0
  9
$USRTIMER
 70
     1
  9
$ANGBASE
 50
0.0
  9
$ANGDIR
 70
     0
  9
$PDMODE
 70
     0
  9
$PDSIZE
 40
0.0
  9
$PLINEWID
 40
0.0
  9
$COORDS
 70
     0
  9
$USERI1
 70
     0
  9
$USERI2
 70
     0
  9
$USERI3
 70
     0
  9
$USERI4
 70
     0
  9
$USERI5
 70
     0
  9
$USERR1
 40
0.0
  9
$USERR2
 40
0.0
  9
$USERR3
 40
0.0
  9
$USERR4
 40
0.0
  9
$USERR5
 40
0.0
  0
ENDSEC
  0
SECTION
  2
TABLES
  0
TABLE
  2
LTYPE
 70
     9
  0
LTYPE
  2
CONTINUOUS
 70
    64
  3
Solid line
 72
    65
 73
     0
 40
0.0
  0
LTYPE
  2
DASHED
 70
    64
  3
__ __ __ __ __ __ __ __ __ __ __ __ __ __ __
 72
    65
 73
     2
 40
0.75
 49
0.5
 49
-0.25
  0
LTYPE
  2
HIDDEN
 70
    64
  3
_ _ _ _ _ _ _ _ _ _ _ _ _ _ _ _ _ _ _ _ _ _ _
 72
    65
 73
     2
 40
0.375
 49
0.25
 49
-0.125
  0
LTYPE
  2
DOT
 70
    64
  3
...............................................
 72
    65
 73
     2
 40
0.25
 49
0.0
 49
-0.25
  0
LTYPE
  2
DASHDOT
 70
    64
  3
__ . __ . __ . __ . __ . __ . __ . __ . __ . __
 72
    65
 73
     4
 40
1.0
 49
0.5
 49
-0.25
 49
0.0
 49
-0.25
  0
LTYPE
  2
DIVIDE
 70
    64
  3
__ . . __ . . __ . . __ . . __ . . __ . . __
 72
    65
 73
     6
 40
1.25
 49
0.5
 49
-0.25
 49
0.0
 49
-0.25
 49
0.0
 49
-0.25
  0
LTYPE
  2
CENTER
 70
    64
  3
____ _ ____ _ ____ _ ____ _ ____ _ ____ _ ____ 
 72
    65
 73
     4
 40
2.0
 49
1.25
 49
-0.25
 49
0.25
 49
-0.25
  0
LTYPE
  2
PHANTOM
 70
    64
  3
______  __  __  ______  __  __  ______  __  __ 
 72
    65
 73
     6
 40
2.5
 49
1.25
 49
-0.25
 49
0.25
 49
-0.25
 49
0.25
 49
-0.25
  0
LTYPE
  2
BORDER
 70
    64
  3
__ __ . __ __ . __ __ . __ __ . __ __ . __ __ .
 72
    65
 73
     6
 40
1.75
 49
0.5
 49
-0.25
 49
0.5
 49
-0.25
 49
0.0
 49
-0.25
  0
ENDTAB
  0
TABLE
  2
LAYER
 70
    16
  0
LAYER
  2
CSLAYER1
 70
    64
 62
     7
  6
CONTINUOUS
  0
LAYER
  2
CSLAYER2
 70
    64
 62
     7
  6
CONTINUOUS
  0
LAYER
  2
CSLAYER3
 70
    64
 62
     7
  6
CONTINUOUS
  0
LAYER
  2
CSLAYER4
 70
    64
 62
     7
  6
CONTINUOUS
  0
LAYER
  2
CSLAYER5
 70
    64
 62
     7
  6
CONTINUOUS
  0
LAYER
  2
CSLAYER6
 70
    64
 62
     7
  6
CONTINUOUS
  0
LAYER
  2
CSLAYER7
 70
    64
 62
     7
  6
CONTINUOUS
  0
LAYER
  2
CSLAYER8
 70
    64
 62
     7
  6
CONTINUOUS
  0
LAYER
  2
CSLAYER9
 70
    64
 62
     7
  6
CONTINUOUS
  0
LAYER
  2
CSLAYER10
 70
    64
 62
     7
  6
CONTINUOUS
  0
LAYER
  2
CSLAYER11
 70
    64
 62
     7
  6
CONTINUOUS
  0
LAYER
  2
CSLAYER12
 70
    64
 62
     7
  6
CONTINUOUS
  0
LAYER
  2
CSLAYER13
 70
    64
 62
     7
  6
CONTINUOUS
  0
LAYER
  2
CSLAYER14
 70
    64
 62
     7
  6
CONTINUOUS
  0
LAYER
  2
CSLAYER15
 70
    64
 62
     7
  6
CONTINUOUS
  0
LAYER
  2
CSLAYER16
 70
    64
 62
     7
  6
CONTINUOUS
  0
ENDTAB
  0
TABLE
  2
STYLE
 70
     1
  0
STYLE
  2
SX_FONT
 70
     0
 40
1.0
 41
1.0
 50
0.0
 71
     0
 42
1.0
  3
monotxt
  4
bigfont
  0
ENDTAB
  0
TABLE
  2
VIEW
 70
     0
  0
ENDTAB
  0
ENDSEC
  0
SECTION
  2
BLOCKS
  0
BLOCK
  8
CSLAYER1
  2
*D0000
 70
    65
 10
0.0
 20
0.0
 30
0.0
  0
LINE
  8
CSLAYER1
  6
CONTINUOUS
 62
     7
 10
123.425245
 20
145.765625
 11
128.461703
 21
145.765625
  0
LINE
  8
CSLAYER1
  6
CONTINUOUS
 62
     7
 10
123.425245
 20
160.765625
 11
128.461703
 21
160.765625
  0
LINE
  8
CSLAYER1
  6
CONTINUOUS
 62
     7
 10
127.461703
 20
145.765625
 11
127.461703
 21
160.765625
  0
LINE
  8
CSLAYER1
  6
CONTINUOUS
 62
     7
 10
127.461703
 20
145.765625
 11
126.426427
 21
149.629328
  0
LINE
  8
CSLAYER1
  6
CONTINUOUS
 62
     7
 10
127.461703
 20
145.765625
 11
128.496979
 21
149.629328
  0
LINE
  8
CSLAYER1
  6
CONTINUOUS
 62
     7
 10
127.461703
 20
160.765625
 11
126.426427
 21
156.901922
  0
LINE
  8
CSLAYER1
  6
CONTINUOUS
 62
     7
 10
127.461703
 20
160.765625
 11
128.496979
 21
156.901922
  0
TEXT
  8
CSLAYER1
 62
     7
 10
132.587128
 20
150.202606
 40
4.000000
 41
0.900000
  1
15
 50
90.000000
 51
0.000000
  7
SX_FONT
 72
     5
 11
132.587128
 21
156.202606
  0
ENDBLK
  8
0
  0
BLOCK
  8
CSLAYER1
  2
*D0001
 70
    65
 10
0.0
 20
0.0
 30
0.0
  0
LINE
  8
CSLAYER1
  6
CONTINUOUS
 62
     7
 10
77.425245
 20
166.765625
 11
77.425245
 21
171.714462
  0
LINE
  8
CSLAYER1
  6
CONTINUOUS
 62
     7
 10
117.425245
 20
166.765625
 11
117.425245
 21
171.714462
  0
LINE
  8
CSLAYER1
  6
CONTINUOUS
 62
     7
 10
77.425245
 20
170.714462
 11
117.425245
 21
170.714462
  0
LINE
  8
CSLAYER1
  6
CONTINUOUS
 62
     7
 10
77.425245
 20
170.714462
 11
81.288948
 21
171.749738
  0
LINE
  8
CSLAYER1
  6
CONTINUOUS
 62
     7
 10
77.425245
 20
170.714462
 11
81.288948
 21
169.679186
  0
LINE
  8
CSLAYER1
  6
CONTINUOUS
 62
     7
 10
117.425245
 20
170.714462
 11
113.561541
 21
171.749738
  0
LINE
  8
CSLAYER1
  6
CONTINUOUS
 62
     7
 10
117.425245
 20
170.714462
 11
113.561541
 21
169.679186
  0
TEXT
  8
CSLAYER1
 62
     7
 10
94.425247
 20
171.714462
 40
4.000000
 41
0.900000
  1
40
 50
0.000000
 51
0.000000
  7
SX_FONT
 72
     5
 11
100.425247
 21
171.714462
  0
ENDBLK
  8
0
  0
BLOCK
  8
CSLAYER6
  2
BLKF0000
 70
   64
 10
0.0
 20
0.0
 30
0.0
  0
LINE
  8
CSLAYER6
  6
CONTINUOUS
 62
     7
 10
77.425245
 20
150.765625
 11
77.425245
 21
145.765625
  0
LINE
  8
CSLAYER6
  6
CONTINUOUS
 62
     7
 10
77.425245
 20
145.765625
 11
117.425245
 21
145.765625
  0
LINE
  8
CSLAYER6
  6
CONTINUOUS
 62
     7
 10
117.425245
 20
145.765625
 11
117.425245
 21
159.765625
  0
ARC
  8
CSLAYER6
  6
CONTINUOUS
 62
     7
 10
110.718752
 20
137.866096
 40
22.903415
 50
72.973362
 51
109.247923
  0
ARC
  8
CSLAYER6
  6
CONTINUOUS
 62
     7
 10
100.877207
 20
160.489232
 40
2.500000
 50
270.000000
 51
336.421822
  0
LINE
  8
CSLAYER6
  6
CONTINUOUS
 62
     7
 10
100.877207
 20
157.989232
 11
100.269145
 21
157.989232
  0
ARC
  8
CSLAYER6
  6
CONTINUOUS
 62
     7
 10
97.780181
 20
157.754589
 40
2.500000
 50
-84.614448
 51
5.385552
  0
LINE
  8
CSLAYER6
  6
CONTINUOUS
 62
     7
 10
98.014824
 20
155.265625
 11
85.014824
 21
155.265625
  0
ARC
  8
CSLAYER6
  6
CONTINUOUS
 62
     7
 10
85.014824
 20
152.765625
 40
2.500000
 50
90.000000
 51
180.000000
  0
LINE
  8
CSLAYER6
  6
CONTINUOUS
 62
     7
 10
82.514824
 20
152.765625
 11
79.514824
 21
152.765625
  0
ARC
  8
CSLAYER6
  6
CONTINUOUS
 62
     7
 10
77.556827
 20
152.719735
 40
1.958535
 50
-93.852264
 51
1.342610
  0
ENDBLK
  8
0
  0
ENDSEC
  0
SECTION
  2
ENTITIES
  0
INSERT
  8
CSLAYER6
  2
BLKF0000
 10
0.0
 20
0.0
 30
0.0
  0
TEXT
  8
CSLAYER1
 62
     7
 10
77.311584
 20
85.335922
 40
10.000000
 41
0.630000
  1
FM-2103
 50
0.000000
 51
0.000000
  7
SX_FONT
 72
     5
 11
119.311584
 21
85.335922
  0
DIMENSION
  8
CSLAYER1
 62
     7
  2
*D0000
 10
127.461703
 20
160.765625
 11
132.587128
 21
153.202606
 13
122.425245
 23
145.765625
 14
122.425245
 24
160.765625
 50
90.000000
 70
1
  0
DIMENSION
  8
CSLAYER1
 62
     7
  2
*D0001
 10
117.425245
 20
170.714462
 11
97.425247
 21
171.714462
 13
77.425245
 23
165.765625
 14
117.425245
 24
165.765625
 70
1
  0
TEXT
  8
CSLAYER1
 62
     7
 10
134.595535
 20
85.037987
 40
10.000000
 41
0.642857
  1
40x15
 50
0.000000
 51
0.000000
  7
SX_FONT
 72
     5
 11
164.595535
 21
85.037987
  0
TEXT
  8
CSLAYER1
 62
     7
 10
78.430145
 20
73.232056
 40
5.000000
 41
0.612766
  1
カタログ Vol. 1  P52
 50
0.000000
 51
0.000000
  7
SX_FONT
 72
     5
 11
126.430145
 21
73.232056
  0
TEXT
  8
CSLAYER1
 62
     7
 10
78.024885
 20
61.840789
 40
4.960742
 41
0.729057
  1
ホ%%dケットカタロク゛ Vol. 1 P25
 50
0.000000
 51
0.000000
  7
SX_FONT
 72
     5
 11
152.769243
 21
61.840789
  0
ENDSEC
  0
EOF
