  0
SECTION
  2
HEADER
  9
$ACADVER
  1
AC1006
  9
$INSBASE
 10
88.252035
 20
177.446615
 30
0.0
  9
$EXTMIN
 10
88.252035
 20
177.446615
  9
$EXTMAX
 10
298.252035
 20
474.446615
  9
$LIMMIN
 10
88.252035
 20
177.446615
  9
$LIMMAX
 10
298.252035
 20
474.446615
  9
$VIEWCTR
 10
193.252035
 20
325.946615
  9
$VIEWSIZE
 40
297.000000
  9
$SNAPMODE
 70
     0
  9
$SNAPUNIT
 10
1.0
 20
1.0
  9
$SNAPBASE
 10
0.0
 20
0.0
  9
$SNAPANG
 50
0.0
  9
$SNAPSTYLE
 70
     0
  9
$SNAPISOPAIR
 70
     0
  9
$GRIDMODE
 70
     0
  9
$GRIDUNIT
 10
0.0
 20
0.0
  9
$ORTHOMODE
 70
     0
  9
$REGENMODE
 70
     1
  9
$FILLMODE
 70
     1
  9
$QTEXTMODE
 70
     0
  9
$DRAGMODE
 70
     2
  9
$LTSCALE
 40
15.000000
  9
$OSMODE
 70
     0
  9
$ATTMODE
 70
     1
  9
$TEXTSIZE
 40
0.2
  9
$TRACEWID
 40
0.05
  9
$TEXTSTYLE
  7
STANDARD
  9
$CLAYER
  8
CSLAYER3
  9
$CELTYPE
  6
BYLAYER
  9
$CECOLOR
 62
   256
  9
$DIMSCALE
 40
1.0
  9
$DIMASZ
 40
0.18
  9
$DIMEXO
 40
0.0625
  9
$DIMDLI
 40
0.38
  9
$DIMRND
 40
0.0
  9
$DIMDLE
 40
0.0
  9
$DIMEXE
 40
0.18
  9
$DIMTP
 40
0.0
  9
$DIMTM
 40
0.0
  9
$DIMTXT
 40
0.18
  9
$DIMCEN
 40
0.09
  9
$DIMTSZ
 40
0.0
  9
$DIMTOL
 70
     0
  9
$DIMLIM
 70
     0
  9
$DIMTIH
 70
     1
  9
$DIMTOH
 70
     1
  9
$DIMSE1
 70
     0
  9
$DIMSE2
 70
     0
  9
$DIMTAD
 70
     0
  9
$DIMZIN
 70
     0
  9
$DIMBLK
  1

  9
$LUNITS
 70
     2
  9
$LUPREC
 70
     4
  9
$AXISMODE
 70
     0
  9
$AXISUNIT
 10
0.0
 20
0.0
  9
$SKETCHINC
 40
0.1
  9
$FILLETRAD
 40
0.0
  9
$AUNITS
 70
     0
  9
$AUPREC
 70
     0
  9
$MENU
  1
ACAD
  9
$ELEVATION
 40
0.0
  9
$THICKNESS
 40
0.0
  9
$VIEWDIR
 10
0.0
 20
0.0
 30
1.0
  9
$LIMCHECK
 70
     0
  9
$BLIPMODE
 70
     1
  9
$CHAMFERA
 40
0.0
  9
$CHAMFERB
 40
0.0
  9
$FASTZOOM
 70
     1
  9
$SKPOLY
 70
     0
  9
$TDCREATE
 40
0.000000
  9
$TDUPDATE
 40
0.000000
  9
$TDINDWG
 40
0.0
  9
$TDUSRTIMER
 40
0.0
  9
$USRTIMER
 70
     1
  9
$ANGBASE
 50
0.0
  9
$ANGDIR
 70
     0
  9
$PDMODE
 70
     0
  9
$PDSIZE
 40
0.0
  9
$PLINEWID
 40
0.0
  9
$COORDS
 70
     0
  9
$USERI1
 70
     0
  9
$USERI2
 70
     0
  9
$USERI3
 70
     0
  9
$USERI4
 70
     0
  9
$USERI5
 70
     0
  9
$USERR1
 40
0.0
  9
$USERR2
 40
0.0
  9
$USERR3
 40
0.0
  9
$USERR4
 40
0.0
  9
$USERR5
 40
0.0
  0
ENDSEC
  0
SECTION
  2
TABLES
  0
TABLE
  2
LTYPE
 70
     9
  0
LTYPE
  2
CONTINUOUS
 70
    64
  3
Solid line
 72
    65
 73
     0
 40
0.0
  0
LTYPE
  2
DASHED
 70
    64
  3
__ __ __ __ __ __ __ __ __ __ __ __ __ __ __
 72
    65
 73
     2
 40
0.75
 49
0.5
 49
-0.25
  0
LTYPE
  2
HIDDEN
 70
    64
  3
_ _ _ _ _ _ _ _ _ _ _ _ _ _ _ _ _ _ _ _ _ _ _
 72
    65
 73
     2
 40
0.375
 49
0.25
 49
-0.125
  0
LTYPE
  2
DOT
 70
    64
  3
...............................................
 72
    65
 73
     2
 40
0.25
 49
0.0
 49
-0.25
  0
LTYPE
  2
DASHDOT
 70
    64
  3
__ . __ . __ . __ . __ . __ . __ . __ . __ . __
 72
    65
 73
     4
 40
1.0
 49
0.5
 49
-0.25
 49
0.0
 49
-0.25
  0
LTYPE
  2
DIVIDE
 70
    64
  3
__ . . __ . . __ . . __ . . __ . . __ . . __
 72
    65
 73
     6
 40
1.25
 49
0.5
 49
-0.25
 49
0.0
 49
-0.25
 49
0.0
 49
-0.25
  0
LTYPE
  2
CENTER
 70
    64
  3
____ _ ____ _ ____ _ ____ _ ____ _ ____ _ ____ 
 72
    65
 73
     4
 40
2.0
 49
1.25
 49
-0.25
 49
0.25
 49
-0.25
  0
LTYPE
  2
PHANTOM
 70
    64
  3
______  __  __  ______  __  __  ______  __  __ 
 72
    65
 73
     6
 40
2.5
 49
1.25
 49
-0.25
 49
0.25
 49
-0.25
 49
0.25
 49
-0.25
  0
LTYPE
  2
BORDER
 70
    64
  3
__ __ . __ __ . __ __ . __ __ . __ __ . __ __ .
 72
    65
 73
     6
 40
1.75
 49
0.5
 49
-0.25
 49
0.5
 49
-0.25
 49
0.0
 49
-0.25
  0
ENDTAB
  0
TABLE
  2
LAYER
 70
    16
  0
LAYER
  2
CSLAYER1
 70
    64
 62
     7
  6
CONTINUOUS
  0
LAYER
  2
CSLAYER2
 70
    64
 62
     7
  6
CONTINUOUS
  0
LAYER
  2
CSLAYER3
 70
    64
 62
     7
  6
CONTINUOUS
  0
LAYER
  2
CSLAYER4
 70
    64
 62
     7
  6
CONTINUOUS
  0
LAYER
  2
CSLAYER5
 70
    64
 62
     7
  6
CONTINUOUS
  0
LAYER
  2
CSLAYER6
 70
    64
 62
     7
  6
CONTINUOUS
  0
LAYER
  2
CSLAYER7
 70
    64
 62
     7
  6
CONTINUOUS
  0
LAYER
  2
CSLAYER8
 70
    64
 62
     7
  6
CONTINUOUS
  0
LAYER
  2
CSLAYER9
 70
    64
 62
     7
  6
CONTINUOUS
  0
LAYER
  2
CSLAYER10
 70
    64
 62
     7
  6
CONTINUOUS
  0
LAYER
  2
CSLAYER11
 70
    64
 62
     7
  6
CONTINUOUS
  0
LAYER
  2
CSLAYER12
 70
    64
 62
     7
  6
CONTINUOUS
  0
LAYER
  2
CSLAYER13
 70
    64
 62
     7
  6
CONTINUOUS
  0
LAYER
  2
CSLAYER14
 70
    64
 62
     7
  6
CONTINUOUS
  0
LAYER
  2
CSLAYER15
 70
    64
 62
     7
  6
CONTINUOUS
  0
LAYER
  2
CSLAYER16
 70
    64
 62
     7
  6
CONTINUOUS
  0
ENDTAB
  0
TABLE
  2
STYLE
 70
     1
  0
STYLE
  2
SX_FONT
 70
     0
 40
1.0
 41
1.0
 50
0.0
 71
     0
 42
1.0
  3
monotxt
  4
bigfont
  0
ENDTAB
  0
TABLE
  2
VIEW
 70
     0
  0
ENDTAB
  0
ENDSEC
  0
SECTION
  2
BLOCKS
  0
BLOCK
  8
CSLAYER1
  2
*D0000
 70
    65
 10
0.0
 20
0.0
 30
0.0
  0
LINE
  8
CSLAYER1
  6
CONTINUOUS
 62
     7
 10
124.039063
 20
152.343750
 11
129.146096
 21
152.343750
  0
LINE
  8
CSLAYER1
  6
CONTINUOUS
 62
     7
 10
124.039063
 20
167.343750
 11
129.146096
 21
167.343750
  0
LINE
  8
CSLAYER1
  6
CONTINUOUS
 62
     7
 10
128.146096
 20
152.343750
 11
128.146096
 21
167.343750
  0
LINE
  8
CSLAYER1
  6
CONTINUOUS
 62
     7
 10
128.146096
 20
152.343750
 11
127.110820
 21
156.207453
  0
LINE
  8
CSLAYER1
  6
CONTINUOUS
 62
     7
 10
128.146096
 20
152.343750
 11
129.181372
 21
156.207453
  0
LINE
  8
CSLAYER1
  6
CONTINUOUS
 62
     7
 10
128.146096
 20
167.343750
 11
127.110820
 21
163.480047
  0
LINE
  8
CSLAYER1
  6
CONTINUOUS
 62
     7
 10
128.146096
 20
167.343750
 11
129.181372
 21
163.480047
  0
TEXT
  8
CSLAYER1
 62
     7
 10
133.176926
 20
156.940475
 40
4.000000
 41
0.900000
  1
15
 50
90.000000
 51
0.000000
  7
SX_FONT
 72
     5
 11
133.176926
 21
162.940475
  0
ENDBLK
  8
0
  0
BLOCK
  8
CSLAYER1
  2
*D0001
 70
    65
 10
0.0
 20
0.0
 30
0.0
  0
LINE
  8
CSLAYER1
  6
CONTINUOUS
 62
     7
 10
88.039063
 20
173.343750
 11
88.039063
 21
178.268868
  0
LINE
  8
CSLAYER1
  6
CONTINUOUS
 62
     7
 10
118.039063
 20
173.343750
 11
118.039063
 21
178.268868
  0
LINE
  8
CSLAYER1
  6
CONTINUOUS
 62
     7
 10
88.039063
 20
177.268868
 11
118.039063
 21
177.268868
  0
LINE
  8
CSLAYER1
  6
CONTINUOUS
 62
     7
 10
88.039063
 20
177.268868
 11
91.902766
 21
178.304144
  0
LINE
  8
CSLAYER1
  6
CONTINUOUS
 62
     7
 10
88.039063
 20
177.268868
 11
91.902766
 21
176.233591
  0
LINE
  8
CSLAYER1
  6
CONTINUOUS
 62
     7
 10
118.039063
 20
177.268868
 11
114.175359
 21
178.304144
  0
LINE
  8
CSLAYER1
  6
CONTINUOUS
 62
     7
 10
118.039063
 20
177.268868
 11
114.175359
 21
176.233591
  0
TEXT
  8
CSLAYER1
 62
     7
 10
100.039063
 20
178.268875
 40
4.000000
 41
0.900000
  1
30
 50
0.000000
 51
0.000000
  7
SX_FONT
 72
     5
 11
106.039063
 21
178.268875
  0
ENDBLK
  8
0
  0
ENDSEC
  0
SECTION
  2
ENTITIES
  0
LINE
  8
CSLAYER6
  6
CONTINUOUS
 62
     7
 10
118.039063
 20
152.343750
 11
118.039063
 21
166.343750
  0
TEXT
  8
CSLAYER1
 62
     7
 10
88.194504
 20
91.934761
 40
10.000000
 41
0.630000
  1
FM-2102
 50
0.000000
 51
0.000000
  7
SX_FONT
 72
     5
 11
130.194504
 21
91.934761
  0
DIMENSION
  8
CSLAYER1
 62
     7
  2
*D0000
 10
128.146096
 20
167.343750
 11
133.176926
 21
159.940475
 13
123.039063
 23
152.343750
 14
123.039063
 24
167.343750
 50
90.000000
 70
1
  0
DIMENSION
  8
CSLAYER1
 62
     7
  2
*D0001
 10
118.039063
 20
177.268868
 11
103.039063
 21
178.268875
 13
88.039063
 23
172.343750
 14
118.039063
 24
172.343750
 70
1
  0
TEXT
  8
CSLAYER1
 62
     7
 10
145.159302
 20
91.719170
 40
10.000000
 41
0.642857
  1
30x15
 50
0.000000
 51
0.000000
  7
SX_FONT
 72
     5
 11
175.159302
 21
91.719170
  0
TEXT
  8
CSLAYER1
 62
     7
 10
88.979362
 20
80.136940
 40
5.000000
 41
0.612766
  1
カタログ Vol. 1  P52
 50
0.000000
 51
0.000000
  7
SX_FONT
 72
     5
 11
136.979362
 21
80.136940
  0
ARC
  8
CSLAYER1
  6
CONTINUOUS
 62
     7
 10
89.039063
 20
159.343750
 40
1.500000
 50
270.000000
 51
360.000000
  0
LINE
  8
CSLAYER1
  6
CONTINUOUS
 62
     7
 10
93.039063
 20
159.343750
 11
90.539063
 21
159.343750
  0
ARC
  8
CSLAYER1
  6
CONTINUOUS
 62
     7
 10
113.915957
 20
158.343750
 40
9.000000
 50
62.733956
 51
121.315668
  0
ARC
  8
CSLAYER1
  6
CONTINUOUS
 62
     7
 10
95.039063
 20
159.343750
 40
2.000000
 50
109.972998
 51
180.000000
  0
ARC
  8
CSLAYER1
  6
CONTINUOUS
 62
     7
 10
104.039063
 20
164.843750
 40
2.000000
 50
269.090009
 51
360.000000
  0
ARC
  8
CSLAYER1
  6
CONTINUOUS
 62
     7
 10
103.578494
 20
135.847408
 40
27.000000
 50
89.090009
 51
109.972998
  0
LINE
  8
CSLAYER1
  6
CONTINUOUS
 62
     7
 10
89.039063
 20
157.843750
 11
88.039063
 21
157.843750
  0
LINE
  8
CSLAYER1
  6
CONTINUOUS
 62
     7
 10
118.039063
 20
152.343750
 11
88.039063
 21
152.343750
  0
LINE
  8
CSLAYER1
  6
CONTINUOUS
 62
     7
 10
88.039063
 20
152.343750
 11
88.039063
 21
157.843750
  0
ARC
  8
CSLAYER1
  6
CONTINUOUS
 62
     7
 10
104.560407
 20
173.721451
 40
9.000000
 50
279.456282
 51
301.315668
  0
TEXT
  8
CSLAYER1
 62
     7
 10
88.755011
 20
69.000830
 40
4.960742
 41
0.729057
  1
ホ%%dケットカタロク゛ Vol. 1 P25
 50
0.000000
 51
0.000000
  7
SX_FONT
 72
     5
 11
163.499368
 21
69.000830
  0
ENDSEC
  0
EOF
