  0
SECTION
  2
HEADER
  9
$ACADVER
  1
AC1006
  9
$INSBASE
 10
49.946328
 20
172.871503
 30
0.0
  9
$EXTMIN
 10
49.946328
 20
172.871503
  9
$EXTMAX
 10
259.946328
 20
469.871503
  9
$LIMMIN
 10
49.946328
 20
172.871503
  9
$LIMMAX
 10
259.946328
 20
469.871503
  9
$VIEWCTR
 10
154.946328
 20
321.371503
  9
$VIEWSIZE
 40
297.000000
  9
$SNAPMODE
 70
     0
  9
$SNAPUNIT
 10
1.0
 20
1.0
  9
$SNAPBASE
 10
0.0
 20
0.0
  9
$SNAPANG
 50
0.0
  9
$SNAPSTYLE
 70
     0
  9
$SNAPISOPAIR
 70
     0
  9
$GRIDMODE
 70
     0
  9
$GRIDUNIT
 10
0.0
 20
0.0
  9
$ORTHOMODE
 70
     0
  9
$REGENMODE
 70
     1
  9
$FILLMODE
 70
     1
  9
$QTEXTMODE
 70
     0
  9
$DRAGMODE
 70
     2
  9
$LTSCALE
 40
15.000000
  9
$OSMODE
 70
     0
  9
$ATTMODE
 70
     1
  9
$TEXTSIZE
 40
0.2
  9
$TRACEWID
 40
0.05
  9
$TEXTSTYLE
  7
STANDARD
  9
$CLAYER
  8
CSLAYER3
  9
$CELTYPE
  6
BYLAYER
  9
$CECOLOR
 62
   256
  9
$DIMSCALE
 40
1.0
  9
$DIMASZ
 40
0.18
  9
$DIMEXO
 40
0.0625
  9
$DIMDLI
 40
0.38
  9
$DIMRND
 40
0.0
  9
$DIMDLE
 40
0.0
  9
$DIMEXE
 40
0.18
  9
$DIMTP
 40
0.0
  9
$DIMTM
 40
0.0
  9
$DIMTXT
 40
0.18
  9
$DIMCEN
 40
0.09
  9
$DIMTSZ
 40
0.0
  9
$DIMTOL
 70
     0
  9
$DIMLIM
 70
     0
  9
$DIMTIH
 70
     1
  9
$DIMTOH
 70
     1
  9
$DIMSE1
 70
     0
  9
$DIMSE2
 70
     0
  9
$DIMTAD
 70
     0
  9
$DIMZIN
 70
     0
  9
$DIMBLK
  1

  9
$LUNITS
 70
     2
  9
$LUPREC
 70
     4
  9
$AXISMODE
 70
     0
  9
$AXISUNIT
 10
0.0
 20
0.0
  9
$SKETCHINC
 40
0.1
  9
$FILLETRAD
 40
0.0
  9
$AUNITS
 70
     0
  9
$AUPREC
 70
     0
  9
$MENU
  1
ACAD
  9
$ELEVATION
 40
0.0
  9
$THICKNESS
 40
0.0
  9
$VIEWDIR
 10
0.0
 20
0.0
 30
1.0
  9
$LIMCHECK
 70
     0
  9
$BLIPMODE
 70
     1
  9
$CHAMFERA
 40
0.0
  9
$CHAMFERB
 40
0.0
  9
$FASTZOOM
 70
     1
  9
$SKPOLY
 70
     0
  9
$TDCREATE
 40
0.000000
  9
$TDUPDATE
 40
0.000000
  9
$TDINDWG
 40
0.0
  9
$TDUSRTIMER
 40
0.0
  9
$USRTIMER
 70
     1
  9
$ANGBASE
 50
0.0
  9
$ANGDIR
 70
     0
  9
$PDMODE
 70
     0
  9
$PDSIZE
 40
0.0
  9
$PLINEWID
 40
0.0
  9
$COORDS
 70
     0
  9
$USERI1
 70
     0
  9
$USERI2
 70
     0
  9
$USERI3
 70
     0
  9
$USERI4
 70
     0
  9
$USERI5
 70
     0
  9
$USERR1
 40
0.0
  9
$USERR2
 40
0.0
  9
$USERR3
 40
0.0
  9
$USERR4
 40
0.0
  9
$USERR5
 40
0.0
  0
ENDSEC
  0
SECTION
  2
TABLES
  0
TABLE
  2
LTYPE
 70
     9
  0
LTYPE
  2
CONTINUOUS
 70
    64
  3
Solid line
 72
    65
 73
     0
 40
0.0
  0
LTYPE
  2
DASHED
 70
    64
  3
__ __ __ __ __ __ __ __ __ __ __ __ __ __ __
 72
    65
 73
     2
 40
0.75
 49
0.5
 49
-0.25
  0
LTYPE
  2
HIDDEN
 70
    64
  3
_ _ _ _ _ _ _ _ _ _ _ _ _ _ _ _ _ _ _ _ _ _ _
 72
    65
 73
     2
 40
0.375
 49
0.25
 49
-0.125
  0
LTYPE
  2
DOT
 70
    64
  3
...............................................
 72
    65
 73
     2
 40
0.25
 49
0.0
 49
-0.25
  0
LTYPE
  2
DASHDOT
 70
    64
  3
__ . __ . __ . __ . __ . __ . __ . __ . __ . __
 72
    65
 73
     4
 40
1.0
 49
0.5
 49
-0.25
 49
0.0
 49
-0.25
  0
LTYPE
  2
DIVIDE
 70
    64
  3
__ . . __ . . __ . . __ . . __ . . __ . . __
 72
    65
 73
     6
 40
1.25
 49
0.5
 49
-0.25
 49
0.0
 49
-0.25
 49
0.0
 49
-0.25
  0
LTYPE
  2
CENTER
 70
    64
  3
____ _ ____ _ ____ _ ____ _ ____ _ ____ _ ____ 
 72
    65
 73
     4
 40
2.0
 49
1.25
 49
-0.25
 49
0.25
 49
-0.25
  0
LTYPE
  2
PHANTOM
 70
    64
  3
______  __  __  ______  __  __  ______  __  __ 
 72
    65
 73
     6
 40
2.5
 49
1.25
 49
-0.25
 49
0.25
 49
-0.25
 49
0.25
 49
-0.25
  0
LTYPE
  2
BORDER
 70
    64
  3
__ __ . __ __ . __ __ . __ __ . __ __ . __ __ .
 72
    65
 73
     6
 40
1.75
 49
0.5
 49
-0.25
 49
0.5
 49
-0.25
 49
0.0
 49
-0.25
  0
ENDTAB
  0
TABLE
  2
LAYER
 70
    16
  0
LAYER
  2
CSLAYER1
 70
    64
 62
     7
  6
CONTINUOUS
  0
LAYER
  2
CSLAYER2
 70
    64
 62
     7
  6
CONTINUOUS
  0
LAYER
  2
CSLAYER3
 70
    64
 62
     7
  6
CONTINUOUS
  0
LAYER
  2
CSLAYER4
 70
    64
 62
     7
  6
CONTINUOUS
  0
LAYER
  2
CSLAYER5
 70
    64
 62
     7
  6
CONTINUOUS
  0
LAYER
  2
CSLAYER6
 70
    64
 62
     7
  6
CONTINUOUS
  0
LAYER
  2
CSLAYER7
 70
    64
 62
     7
  6
CONTINUOUS
  0
LAYER
  2
CSLAYER8
 70
    64
 62
     7
  6
CONTINUOUS
  0
LAYER
  2
CSLAYER9
 70
    64
 62
     7
  6
CONTINUOUS
  0
LAYER
  2
CSLAYER10
 70
    64
 62
     7
  6
CONTINUOUS
  0
LAYER
  2
CSLAYER11
 70
    64
 62
     7
  6
CONTINUOUS
  0
LAYER
  2
CSLAYER12
 70
    64
 62
     7
  6
CONTINUOUS
  0
LAYER
  2
CSLAYER13
 70
    64
 62
     7
  6
CONTINUOUS
  0
LAYER
  2
CSLAYER14
 70
    64
 62
     7
  6
CONTINUOUS
  0
LAYER
  2
CSLAYER15
 70
    64
 62
     7
  6
CONTINUOUS
  0
LAYER
  2
CSLAYER16
 70
    64
 62
     7
  6
CONTINUOUS
  0
ENDTAB
  0
TABLE
  2
STYLE
 70
     1
  0
STYLE
  2
SX_FONT
 70
     0
 40
1.0
 41
1.0
 50
0.0
 71
     0
 42
1.0
  3
monotxt
  4
bigfont
  0
ENDTAB
  0
TABLE
  2
VIEW
 70
     0
  0
ENDTAB
  0
ENDSEC
  0
SECTION
  2
BLOCKS
  0
BLOCK
  8
CSLAYER1
  2
*D0000
 70
    65
 10
0.0
 20
0.0
 30
0.0
  0
LINE
  8
CSLAYER1
  6
CONTINUOUS
 62
     7
 10
49.820313
 20
168.546875
 11
49.820313
 21
173.324039
  0
LINE
  8
CSLAYER1
  6
CONTINUOUS
 62
     7
 10
149.820313
 20
168.546875
 11
149.820313
 21
173.324039
  0
LINE
  8
CSLAYER1
  6
CONTINUOUS
 62
     7
 10
49.820313
 20
172.324039
 11
149.820313
 21
172.324039
  0
LINE
  8
CSLAYER1
  6
CONTINUOUS
 62
     7
 10
49.820313
 20
172.324039
 11
53.684016
 21
173.359315
  0
LINE
  8
CSLAYER1
  6
CONTINUOUS
 62
     7
 10
49.820313
 20
172.324039
 11
53.684016
 21
171.288763
  0
LINE
  8
CSLAYER1
  6
CONTINUOUS
 62
     7
 10
149.820313
 20
172.324039
 11
145.956609
 21
173.359315
  0
LINE
  8
CSLAYER1
  6
CONTINUOUS
 62
     7
 10
149.820313
 20
172.324039
 11
145.956609
 21
171.288763
  0
TEXT
  8
CSLAYER1
 62
     7
 10
95.320313
 20
173.324036
 40
4.000000
 41
0.843750
  1
100
 50
0.000000
 51
0.000000
  7
SX_FONT
 72
     5
 11
104.320313
 21
173.324036
  0
ENDBLK
  8
0
  0
BLOCK
  8
CSLAYER1
  2
*D0001
 70
    65
 10
0.0
 20
0.0
 30
0.0
  0
LINE
  8
CSLAYER1
  6
CONTINUOUS
 62
     7
 10
155.820313
 20
138.546875
 11
160.887594
 21
138.546875
  0
LINE
  8
CSLAYER1
  6
CONTINUOUS
 62
     7
 10
155.820313
 20
162.546875
 11
160.887594
 21
162.546875
  0
LINE
  8
CSLAYER1
  6
CONTINUOUS
 62
     7
 10
159.887594
 20
138.546875
 11
159.887594
 21
162.546875
  0
LINE
  8
CSLAYER1
  6
CONTINUOUS
 62
     7
 10
159.887594
 20
138.546875
 11
158.852318
 21
142.410578
  0
LINE
  8
CSLAYER1
  6
CONTINUOUS
 62
     7
 10
159.887594
 20
138.546875
 11
160.922870
 21
142.410578
  0
LINE
  8
CSLAYER1
  6
CONTINUOUS
 62
     7
 10
159.887594
 20
162.546875
 11
158.852318
 21
158.683172
  0
LINE
  8
CSLAYER1
  6
CONTINUOUS
 62
     7
 10
159.887594
 20
162.546875
 11
160.922870
 21
158.683172
  0
TEXT
  8
CSLAYER1
 62
     7
 10
165.185013
 20
147.251480
 40
4.000000
 41
0.900000
  1
24
 50
90.000000
 51
0.000000
  7
SX_FONT
 72
     5
 11
165.185013
 21
153.251480
  0
ENDBLK
  8
0
  0
ENDSEC
  0
SECTION
  2
ENTITIES
  0
ARC
  8
CSLAYER2
  6
CONTINUOUS
 62
     7
 10
61.820312
 20
150.046875
 40
2.000000
 50
90.000000
 51
180.000000
  0
LINE
  8
CSLAYER2
  6
CONTINUOUS
 62
     7
 10
61.820312
 20
152.046875
 11
66.820312
 21
152.046875
  0
ARC
  8
CSLAYER2
  6
CONTINUOUS
 62
     7
 10
100.320312
 20
152.546875
 40
10.000000
 50
73.739795
 51
90.000000
  0
ARC
  8
CSLAYER2
  6
CONTINUOUS
 62
     7
 10
100.320312
 20
145.546875
 40
17.000000
 50
90.000000
 51
115.898977
  0
ARC
  8
CSLAYER2
  6
CONTINUOUS
 62
     7
 10
66.820312
 20
192.046875
 40
40.000000
 50
270.000000
 51
302.166199
  0
ARC
  8
CSLAYER2
  6
CONTINUOUS
 62
     7
 10
114.734241
 20
115.861211
 40
50.000000
 50
115.898977
 51
122.166199
  0
LINE
  8
CSLAYER2
  6
CONTINUOUS
 62
     7
 10
103.120313
 20
162.146875
 11
110.320312
 21
160.046875
  0
LINE
  8
CSLAYER2
  6
CONTINUOUS
 62
     7
 10
110.320312
 20
160.046875
 11
110.320312
 21
162.546875
  0
LINE
  8
CSLAYER2
  6
CONTINUOUS
 62
     7
 10
110.320312
 20
162.546875
 11
149.820313
 21
162.546875
  0
LINE
  8
CSLAYER2
  6
CONTINUOUS
 62
     7
 10
149.820313
 20
162.546875
 11
149.820313
 21
138.546875
  0
LINE
  8
CSLAYER2
  6
CONTINUOUS
 62
     7
 10
149.820313
 20
138.546875
 11
49.820313
 21
138.546875
  0
LINE
  8
CSLAYER2
  6
CONTINUOUS
 62
     7
 10
49.820313
 20
138.546875
 11
49.820313
 21
149.046875
  0
LINE
  8
CSLAYER2
  6
CONTINUOUS
 62
     7
 10
49.820313
 20
149.046875
 11
59.820312
 21
149.046875
  0
LINE
  8
CSLAYER2
  6
CONTINUOUS
 62
     7
 10
59.820312
 20
149.046875
 11
59.820312
 21
150.046875
  0
TEXT
  8
CSLAYER1
 62
     7
 10
49.938019
 20
78.692650
 40
10.000000
 41
0.630000
  1
FM-2101
 50
0.000000
 51
0.000000
  7
SX_FONT
 72
     5
 11
91.938019
 21
78.692650
  0
DIMENSION
  8
CSLAYER1
 62
     7
  2
*D0000
 10
149.820313
 20
172.324039
 11
99.820313
 21
173.324036
 13
49.820313
 23
167.546875
 14
149.820313
 24
167.546875
 70
1
  0
DIMENSION
  8
CSLAYER1
 62
     7
  2
*D0001
 10
159.887594
 20
162.546875
 11
165.185013
 21
150.251480
 13
154.820313
 23
138.546875
 14
154.820313
 24
162.546875
 50
90.000000
 70
1
  0
TEXT
  8
CSLAYER1
 62
     7
 10
103.420876
 20
79.324966
 40
10.000000
 41
0.635294
  1
100x24
 50
0.000000
 51
0.000000
  7
SX_FONT
 72
     5
 11
139.420876
 21
79.324966
  0
TEXT
  8
CSLAYER1
 62
     7
 10
50.734268
 20
67.018913
 40
5.000000
 41
0.612766
  1
カタログ Vol. 1  P51
 50
0.000000
 51
0.000000
  7
SX_FONT
 72
     5
 11
98.734268
 21
67.018913
  0
TEXT
  8
CSLAYER1
 62
     7
 10
50.889517
 20
55.995745
 40
4.960742
 41
0.729057
  1
ホ%%dケットカタロク゛ Vol. 1 P24
 50
0.000000
 51
0.000000
  7
SX_FONT
 72
     5
 11
125.633875
 21
55.995745
  0
ENDSEC
  0
EOF
