  0
SECTION
  2
HEADER
  9
$ACADVER
  1
AC1006
  9
$INSBASE
 10
61.610514
 20
175.910482
 30
0.0
  9
$EXTMIN
 10
61.610514
 20
175.910482
  9
$EXTMAX
 10
271.610514
 20
472.910482
  9
$LIMMIN
 10
61.610514
 20
175.910482
  9
$LIMMAX
 10
271.610514
 20
472.910482
  9
$VIEWCTR
 10
166.610514
 20
324.410482
  9
$VIEWSIZE
 40
297.000000
  9
$SNAPMODE
 70
     0
  9
$SNAPUNIT
 10
1.0
 20
1.0
  9
$SNAPBASE
 10
0.0
 20
0.0
  9
$SNAPANG
 50
0.0
  9
$SNAPSTYLE
 70
     0
  9
$SNAPISOPAIR
 70
     0
  9
$GRIDMODE
 70
     0
  9
$GRIDUNIT
 10
0.0
 20
0.0
  9
$ORTHOMODE
 70
     0
  9
$REGENMODE
 70
     1
  9
$FILLMODE
 70
     1
  9
$QTEXTMODE
 70
     0
  9
$DRAGMODE
 70
     2
  9
$LTSCALE
 40
15.000000
  9
$OSMODE
 70
     0
  9
$ATTMODE
 70
     1
  9
$TEXTSIZE
 40
0.2
  9
$TRACEWID
 40
0.05
  9
$TEXTSTYLE
  7
STANDARD
  9
$CLAYER
  8
CSLAYER3
  9
$CELTYPE
  6
BYLAYER
  9
$CECOLOR
 62
   256
  9
$DIMSCALE
 40
1.0
  9
$DIMASZ
 40
0.18
  9
$DIMEXO
 40
0.0625
  9
$DIMDLI
 40
0.38
  9
$DIMRND
 40
0.0
  9
$DIMDLE
 40
0.0
  9
$DIMEXE
 40
0.18
  9
$DIMTP
 40
0.0
  9
$DIMTM
 40
0.0
  9
$DIMTXT
 40
0.18
  9
$DIMCEN
 40
0.09
  9
$DIMTSZ
 40
0.0
  9
$DIMTOL
 70
     0
  9
$DIMLIM
 70
     0
  9
$DIMTIH
 70
     1
  9
$DIMTOH
 70
     1
  9
$DIMSE1
 70
     0
  9
$DIMSE2
 70
     0
  9
$DIMTAD
 70
     0
  9
$DIMZIN
 70
     0
  9
$DIMBLK
  1

  9
$LUNITS
 70
     2
  9
$LUPREC
 70
     4
  9
$AXISMODE
 70
     0
  9
$AXISUNIT
 10
0.0
 20
0.0
  9
$SKETCHINC
 40
0.1
  9
$FILLETRAD
 40
0.0
  9
$AUNITS
 70
     0
  9
$AUPREC
 70
     0
  9
$MENU
  1
ACAD
  9
$ELEVATION
 40
0.0
  9
$THICKNESS
 40
0.0
  9
$VIEWDIR
 10
0.0
 20
0.0
 30
1.0
  9
$LIMCHECK
 70
     0
  9
$BLIPMODE
 70
     1
  9
$CHAMFERA
 40
0.0
  9
$CHAMFERB
 40
0.0
  9
$FASTZOOM
 70
     1
  9
$SKPOLY
 70
     0
  9
$TDCREATE
 40
0.000000
  9
$TDUPDATE
 40
0.000000
  9
$TDINDWG
 40
0.0
  9
$TDUSRTIMER
 40
0.0
  9
$USRTIMER
 70
     1
  9
$ANGBASE
 50
0.0
  9
$ANGDIR
 70
     0
  9
$PDMODE
 70
     0
  9
$PDSIZE
 40
0.0
  9
$PLINEWID
 40
0.0
  9
$COORDS
 70
     0
  9
$USERI1
 70
     0
  9
$USERI2
 70
     0
  9
$USERI3
 70
     0
  9
$USERI4
 70
     0
  9
$USERI5
 70
     0
  9
$USERR1
 40
0.0
  9
$USERR2
 40
0.0
  9
$USERR3
 40
0.0
  9
$USERR4
 40
0.0
  9
$USERR5
 40
0.0
  0
ENDSEC
  0
SECTION
  2
TABLES
  0
TABLE
  2
LTYPE
 70
     9
  0
LTYPE
  2
CONTINUOUS
 70
    64
  3
Solid line
 72
    65
 73
     0
 40
0.0
  0
LTYPE
  2
DASHED
 70
    64
  3
__ __ __ __ __ __ __ __ __ __ __ __ __ __ __
 72
    65
 73
     2
 40
0.75
 49
0.5
 49
-0.25
  0
LTYPE
  2
HIDDEN
 70
    64
  3
_ _ _ _ _ _ _ _ _ _ _ _ _ _ _ _ _ _ _ _ _ _ _
 72
    65
 73
     2
 40
0.375
 49
0.25
 49
-0.125
  0
LTYPE
  2
DOT
 70
    64
  3
...............................................
 72
    65
 73
     2
 40
0.25
 49
0.0
 49
-0.25
  0
LTYPE
  2
DASHDOT
 70
    64
  3
__ . __ . __ . __ . __ . __ . __ . __ . __ . __
 72
    65
 73
     4
 40
1.0
 49
0.5
 49
-0.25
 49
0.0
 49
-0.25
  0
LTYPE
  2
DIVIDE
 70
    64
  3
__ . . __ . . __ . . __ . . __ . . __ . . __
 72
    65
 73
     6
 40
1.25
 49
0.5
 49
-0.25
 49
0.0
 49
-0.25
 49
0.0
 49
-0.25
  0
LTYPE
  2
CENTER
 70
    64
  3
____ _ ____ _ ____ _ ____ _ ____ _ ____ _ ____ 
 72
    65
 73
     4
 40
2.0
 49
1.25
 49
-0.25
 49
0.25
 49
-0.25
  0
LTYPE
  2
PHANTOM
 70
    64
  3
______  __  __  ______  __  __  ______  __  __ 
 72
    65
 73
     6
 40
2.5
 49
1.25
 49
-0.25
 49
0.25
 49
-0.25
 49
0.25
 49
-0.25
  0
LTYPE
  2
BORDER
 70
    64
  3
__ __ . __ __ . __ __ . __ __ . __ __ . __ __ .
 72
    65
 73
     6
 40
1.75
 49
0.5
 49
-0.25
 49
0.5
 49
-0.25
 49
0.0
 49
-0.25
  0
ENDTAB
  0
TABLE
  2
LAYER
 70
    16
  0
LAYER
  2
CSLAYER1
 70
    64
 62
     7
  6
CONTINUOUS
  0
LAYER
  2
CSLAYER2
 70
    64
 62
     7
  6
CONTINUOUS
  0
LAYER
  2
CSLAYER3
 70
    64
 62
     7
  6
CONTINUOUS
  0
LAYER
  2
CSLAYER4
 70
    64
 62
     7
  6
CONTINUOUS
  0
LAYER
  2
CSLAYER5
 70
    64
 62
     7
  6
CONTINUOUS
  0
LAYER
  2
CSLAYER6
 70
    64
 62
     7
  6
CONTINUOUS
  0
LAYER
  2
CSLAYER7
 70
    64
 62
     7
  6
CONTINUOUS
  0
LAYER
  2
CSLAYER8
 70
    64
 62
     7
  6
CONTINUOUS
  0
LAYER
  2
CSLAYER9
 70
    64
 62
     7
  6
CONTINUOUS
  0
LAYER
  2
CSLAYER10
 70
    64
 62
     7
  6
CONTINUOUS
  0
LAYER
  2
CSLAYER11
 70
    64
 62
     7
  6
CONTINUOUS
  0
LAYER
  2
CSLAYER12
 70
    64
 62
     7
  6
CONTINUOUS
  0
LAYER
  2
CSLAYER13
 70
    64
 62
     7
  6
CONTINUOUS
  0
LAYER
  2
CSLAYER14
 70
    64
 62
     7
  6
CONTINUOUS
  0
LAYER
  2
CSLAYER15
 70
    64
 62
     7
  6
CONTINUOUS
  0
LAYER
  2
CSLAYER16
 70
    64
 62
     7
  6
CONTINUOUS
  0
ENDTAB
  0
TABLE
  2
STYLE
 70
     1
  0
STYLE
  2
SX_FONT
 70
     0
 40
1.0
 41
1.0
 50
0.0
 71
     0
 42
1.0
  3
monotxt
  4
bigfont
  0
ENDTAB
  0
TABLE
  2
VIEW
 70
     0
  0
ENDTAB
  0
ENDSEC
  0
SECTION
  2
BLOCKS
  0
BLOCK
  8
CSLAYER1
  2
*D0000
 70
    65
 10
0.0
 20
0.0
 30
0.0
  0
LINE
  8
CSLAYER1
  6
CONTINUOUS
 62
     7
 10
62.404901
 20
172.462084
 11
62.404901
 21
177.248370
  0
LINE
  8
CSLAYER1
  6
CONTINUOUS
 62
     7
 10
122.404901
 20
172.462084
 11
122.404901
 21
177.248370
  0
LINE
  8
CSLAYER1
  6
CONTINUOUS
 62
     7
 10
62.404901
 20
176.248370
 11
122.404901
 21
176.248370
  0
LINE
  8
CSLAYER1
  6
CONTINUOUS
 62
     7
 10
62.404901
 20
176.248370
 11
66.268604
 21
177.283646
  0
LINE
  8
CSLAYER1
  6
CONTINUOUS
 62
     7
 10
62.404901
 20
176.248370
 11
66.268604
 21
175.213094
  0
LINE
  8
CSLAYER1
  6
CONTINUOUS
 62
     7
 10
122.404901
 20
176.248370
 11
118.541198
 21
177.283646
  0
LINE
  8
CSLAYER1
  6
CONTINUOUS
 62
     7
 10
122.404901
 20
176.248370
 11
118.541198
 21
175.213094
  0
TEXT
  8
CSLAYER1
 62
     7
 10
89.404900
 20
177.248367
 40
4.000000
 41
0.900000
  1
60
 50
0.000000
 51
0.000000
  7
SX_FONT
 72
     5
 11
95.404900
 21
177.248367
  0
ENDBLK
  8
0
  0
BLOCK
  8
CSLAYER1
  2
*D0001
 70
    65
 10
0.0
 20
0.0
 30
0.0
  0
LINE
  8
CSLAYER1
  6
CONTINUOUS
 62
     7
 10
128.404901
 20
145.462084
 11
133.583542
 21
145.462084
  0
LINE
  8
CSLAYER1
  6
CONTINUOUS
 62
     7
 10
128.404901
 20
166.462084
 11
133.583542
 21
166.462084
  0
LINE
  8
CSLAYER1
  6
CONTINUOUS
 62
     7
 10
132.583542
 20
145.462084
 11
132.583542
 21
166.462084
  0
LINE
  8
CSLAYER1
  6
CONTINUOUS
 62
     7
 10
132.583542
 20
145.462084
 11
131.548266
 21
149.325787
  0
LINE
  8
CSLAYER1
  6
CONTINUOUS
 62
     7
 10
132.583542
 20
145.462084
 11
133.618818
 21
149.325787
  0
LINE
  8
CSLAYER1
  6
CONTINUOUS
 62
     7
 10
132.583542
 20
166.462084
 11
131.548266
 21
162.598380
  0
LINE
  8
CSLAYER1
  6
CONTINUOUS
 62
     7
 10
132.583542
 20
166.462084
 11
133.618818
 21
162.598380
  0
TEXT
  8
CSLAYER1
 62
     7
 10
137.439514
 20
152.500153
 40
4.000000
 41
0.900000
  1
21
 50
90.000000
 51
0.000000
  7
SX_FONT
 72
     5
 11
137.439514
 21
158.500153
  0
ENDBLK
  8
0
  0
ENDSEC
  0
SECTION
  2
ENTITIES
  0
LINE
  8
CSLAYER4
  6
CONTINUOUS
 62
     7
 10
80.131414
 20
155.810014
 11
73.258906
 21
156.462065
  0
LINE
  8
CSLAYER2
  6
CONTINUOUS
 62
     7
 10
62.404901
 20
152.462084
 11
62.404901
 21
145.462084
  0
ARC
  8
CSLAYER4
  6
CONTINUOUS
 62
     7
 10
72.043576
 20
151.957028
 40
4.666089
 50
74.902631
 51
173.786149
  0
LINE
  8
CSLAYER2
  6
CONTINUOUS
 62
     7
 10
67.404901
 20
152.462084
 11
62.404901
 21
152.462084
  0
LINE
  8
CSLAYER2
  6
CONTINUOUS
 62
     7
 10
62.404901
 20
145.462084
 11
68.404901
 21
145.462084
  0
LINE
  8
CSLAYER2
  6
CONTINUOUS
 62
     7
 10
122.404901
 20
145.462084
 11
122.404901
 21
166.462084
  0
LINE
  8
CSLAYER2
  6
CONTINUOUS
 62
     7
 10
122.404901
 20
166.462084
 11
109.404901
 21
166.462084
  0
ARC
  8
CSLAYER2
  6
CONTINUOUS
 62
     7
 10
80.131414
 20
166.310014
 40
10.500000
 50
270.000000
 51
330.477942
  0
ARC
  8
CSLAYER2
  6
CONTINUOUS
 62
     7
 10
107.725754
 20
162.697936
 40
1.000000
 50
215.854316
 51
350.000000
  0
LINE
  8
CSLAYER2
  6
CONTINUOUS
 62
     7
 10
108.699593
 20
162.462084
 11
109.404901
 21
166.462084
  0
ARC
  8
CSLAYER2
  6
CONTINUOUS
 62
     7
 10
98.404901
 20
155.962084
 40
10.500000
 50
35.854316
 51
150.477942
  0
TEXT
  8
CSLAYER1
 62
     7
 10
62.747269
 20
84.850037
 40
10.000000
 41
0.630000
  1
FM-2097
 50
0.000000
 51
0.000000
  7
SX_FONT
 72
     5
 11
104.747269
 21
84.850037
  0
LINE
  8
CSLAYER1
  6
CONTINUOUS
 62
     7
 10
62.404901
 20
145.462084
 11
122.404901
 21
145.462084
  0
DIMENSION
  8
CSLAYER1
 62
     7
  2
*D0000
 10
122.404901
 20
176.248370
 11
92.404900
 21
177.248367
 13
62.404901
 23
171.462084
 14
122.404901
 24
171.462084
 70
1
  0
DIMENSION
  8
CSLAYER1
 62
     7
  2
*D0001
 10
132.583542
 20
166.462084
 11
137.439514
 21
155.500153
 13
127.404901
 23
145.462084
 14
127.404901
 24
166.462084
 50
90.000000
 70
1
  0
TEXT
  8
CSLAYER1
 62
     7
 10
120.411957
 20
84.617981
 40
10.000000
 41
0.642857
  1
60x21
 50
0.000000
 51
0.000000
  7
SX_FONT
 72
     5
 11
150.411957
 21
84.617981
  0
TEXT
  8
CSLAYER1
 62
     7
 10
64.109665
 20
72.761368
 40
5.000000
 41
0.612766
  1
カタログ Vol. 1  P51
 50
0.000000
 51
0.000000
  7
SX_FONT
 72
     5
 11
112.109665
 21
72.761368
  0
TEXT
  8
CSLAYER1
 62
     7
 10
63.437407
 20
63.447318
 40
4.960742
 41
0.729057
  1
ホ%%dケットカタロク゛ Vol. 1 P24
 50
0.000000
 51
0.000000
  7
SX_FONT
 72
     5
 11
138.181764
 21
63.447318
  0
ENDSEC
  0
EOF
