  0
SECTION
  2
HEADER
  9
$ACADVER
  1
AC1006
  9
$INSBASE
 10
79.691854
 20
155.136882
 30
0.0
  9
$EXTMIN
 10
79.691854
 20
155.136882
  9
$EXTMAX
 10
289.691854
 20
452.136882
  9
$LIMMIN
 10
79.691854
 20
155.136882
  9
$LIMMAX
 10
289.691854
 20
452.136882
  9
$VIEWCTR
 10
184.691854
 20
303.636882
  9
$VIEWSIZE
 40
297.000000
  9
$SNAPMODE
 70
     0
  9
$SNAPUNIT
 10
1.0
 20
1.0
  9
$SNAPBASE
 10
0.0
 20
0.0
  9
$SNAPANG
 50
0.0
  9
$SNAPSTYLE
 70
     0
  9
$SNAPISOPAIR
 70
     0
  9
$GRIDMODE
 70
     0
  9
$GRIDUNIT
 10
0.0
 20
0.0
  9
$ORTHOMODE
 70
     0
  9
$REGENMODE
 70
     1
  9
$FILLMODE
 70
     1
  9
$QTEXTMODE
 70
     0
  9
$DRAGMODE
 70
     2
  9
$LTSCALE
 40
15.000000
  9
$OSMODE
 70
     0
  9
$ATTMODE
 70
     1
  9
$TEXTSIZE
 40
0.2
  9
$TRACEWID
 40
0.05
  9
$TEXTSTYLE
  7
STANDARD
  9
$CLAYER
  8
CSLAYER3
  9
$CELTYPE
  6
BYLAYER
  9
$CECOLOR
 62
   256
  9
$DIMSCALE
 40
1.0
  9
$DIMASZ
 40
0.18
  9
$DIMEXO
 40
0.0625
  9
$DIMDLI
 40
0.38
  9
$DIMRND
 40
0.0
  9
$DIMDLE
 40
0.0
  9
$DIMEXE
 40
0.18
  9
$DIMTP
 40
0.0
  9
$DIMTM
 40
0.0
  9
$DIMTXT
 40
0.18
  9
$DIMCEN
 40
0.09
  9
$DIMTSZ
 40
0.0
  9
$DIMTOL
 70
     0
  9
$DIMLIM
 70
     0
  9
$DIMTIH
 70
     1
  9
$DIMTOH
 70
     1
  9
$DIMSE1
 70
     0
  9
$DIMSE2
 70
     0
  9
$DIMTAD
 70
     0
  9
$DIMZIN
 70
     0
  9
$DIMBLK
  1

  9
$LUNITS
 70
     2
  9
$LUPREC
 70
     4
  9
$AXISMODE
 70
     0
  9
$AXISUNIT
 10
0.0
 20
0.0
  9
$SKETCHINC
 40
0.1
  9
$FILLETRAD
 40
0.0
  9
$AUNITS
 70
     0
  9
$AUPREC
 70
     0
  9
$MENU
  1
ACAD
  9
$ELEVATION
 40
0.0
  9
$THICKNESS
 40
0.0
  9
$VIEWDIR
 10
0.0
 20
0.0
 30
1.0
  9
$LIMCHECK
 70
     0
  9
$BLIPMODE
 70
     1
  9
$CHAMFERA
 40
0.0
  9
$CHAMFERB
 40
0.0
  9
$FASTZOOM
 70
     1
  9
$SKPOLY
 70
     0
  9
$TDCREATE
 40
0.000000
  9
$TDUPDATE
 40
0.000000
  9
$TDINDWG
 40
0.0
  9
$TDUSRTIMER
 40
0.0
  9
$USRTIMER
 70
     1
  9
$ANGBASE
 50
0.0
  9
$ANGDIR
 70
     0
  9
$PDMODE
 70
     0
  9
$PDSIZE
 40
0.0
  9
$PLINEWID
 40
0.0
  9
$COORDS
 70
     0
  9
$USERI1
 70
     0
  9
$USERI2
 70
     0
  9
$USERI3
 70
     0
  9
$USERI4
 70
     0
  9
$USERI5
 70
     0
  9
$USERR1
 40
0.0
  9
$USERR2
 40
0.0
  9
$USERR3
 40
0.0
  9
$USERR4
 40
0.0
  9
$USERR5
 40
0.0
  0
ENDSEC
  0
SECTION
  2
TABLES
  0
TABLE
  2
LTYPE
 70
     9
  0
LTYPE
  2
CONTINUOUS
 70
    64
  3
Solid line
 72
    65
 73
     0
 40
0.0
  0
LTYPE
  2
DASHED
 70
    64
  3
__ __ __ __ __ __ __ __ __ __ __ __ __ __ __
 72
    65
 73
     2
 40
0.75
 49
0.5
 49
-0.25
  0
LTYPE
  2
HIDDEN
 70
    64
  3
_ _ _ _ _ _ _ _ _ _ _ _ _ _ _ _ _ _ _ _ _ _ _
 72
    65
 73
     2
 40
0.375
 49
0.25
 49
-0.125
  0
LTYPE
  2
DOT
 70
    64
  3
...............................................
 72
    65
 73
     2
 40
0.25
 49
0.0
 49
-0.25
  0
LTYPE
  2
DASHDOT
 70
    64
  3
__ . __ . __ . __ . __ . __ . __ . __ . __ . __
 72
    65
 73
     4
 40
1.0
 49
0.5
 49
-0.25
 49
0.0
 49
-0.25
  0
LTYPE
  2
DIVIDE
 70
    64
  3
__ . . __ . . __ . . __ . . __ . . __ . . __
 72
    65
 73
     6
 40
1.25
 49
0.5
 49
-0.25
 49
0.0
 49
-0.25
 49
0.0
 49
-0.25
  0
LTYPE
  2
CENTER
 70
    64
  3
____ _ ____ _ ____ _ ____ _ ____ _ ____ _ ____ 
 72
    65
 73
     4
 40
2.0
 49
1.25
 49
-0.25
 49
0.25
 49
-0.25
  0
LTYPE
  2
PHANTOM
 70
    64
  3
______  __  __  ______  __  __  ______  __  __ 
 72
    65
 73
     6
 40
2.5
 49
1.25
 49
-0.25
 49
0.25
 49
-0.25
 49
0.25
 49
-0.25
  0
LTYPE
  2
BORDER
 70
    64
  3
__ __ . __ __ . __ __ . __ __ . __ __ . __ __ .
 72
    65
 73
     6
 40
1.75
 49
0.5
 49
-0.25
 49
0.5
 49
-0.25
 49
0.0
 49
-0.25
  0
ENDTAB
  0
TABLE
  2
LAYER
 70
    16
  0
LAYER
  2
CSLAYER1
 70
    64
 62
     7
  6
CONTINUOUS
  0
LAYER
  2
CSLAYER2
 70
    64
 62
     7
  6
CONTINUOUS
  0
LAYER
  2
CSLAYER3
 70
    64
 62
     7
  6
CONTINUOUS
  0
LAYER
  2
CSLAYER4
 70
    64
 62
     7
  6
CONTINUOUS
  0
LAYER
  2
CSLAYER5
 70
    64
 62
     7
  6
CONTINUOUS
  0
LAYER
  2
CSLAYER6
 70
    64
 62
     7
  6
CONTINUOUS
  0
LAYER
  2
CSLAYER7
 70
    64
 62
     7
  6
CONTINUOUS
  0
LAYER
  2
CSLAYER8
 70
    64
 62
     7
  6
CONTINUOUS
  0
LAYER
  2
CSLAYER9
 70
    64
 62
     7
  6
CONTINUOUS
  0
LAYER
  2
CSLAYER10
 70
    64
 62
     7
  6
CONTINUOUS
  0
LAYER
  2
CSLAYER11
 70
    64
 62
     7
  6
CONTINUOUS
  0
LAYER
  2
CSLAYER12
 70
    64
 62
     7
  6
CONTINUOUS
  0
LAYER
  2
CSLAYER13
 70
    64
 62
     7
  6
CONTINUOUS
  0
LAYER
  2
CSLAYER14
 70
    64
 62
     7
  6
CONTINUOUS
  0
LAYER
  2
CSLAYER15
 70
    64
 62
     7
  6
CONTINUOUS
  0
LAYER
  2
CSLAYER16
 70
    64
 62
     7
  6
CONTINUOUS
  0
ENDTAB
  0
TABLE
  2
STYLE
 70
     1
  0
STYLE
  2
SX_FONT
 70
     0
 40
1.0
 41
1.0
 50
0.0
 71
     0
 42
1.0
  3
monotxt
  4
bigfont
  0
ENDTAB
  0
TABLE
  2
VIEW
 70
     0
  0
ENDTAB
  0
ENDSEC
  0
SECTION
  2
BLOCKS
  0
BLOCK
  8
CSLAYER1
  2
*D0000
 70
    65
 10
0.0
 20
0.0
 30
0.0
  0
LINE
  8
CSLAYER1
  6
CONTINUOUS
 62
     7
 10
79.963081
 20
176.531250
 11
79.963081
 21
181.146901
  0
LINE
  8
CSLAYER1
  6
CONTINUOUS
 62
     7
 10
119.963081
 20
176.531250
 11
119.963081
 21
181.146901
  0
LINE
  8
CSLAYER1
  6
CONTINUOUS
 62
     7
 10
79.963081
 20
180.146901
 11
119.963081
 21
180.146901
  0
LINE
  8
CSLAYER1
  6
CONTINUOUS
 62
     7
 10
79.963081
 20
180.146901
 11
83.826784
 21
181.182177
  0
LINE
  8
CSLAYER1
  6
CONTINUOUS
 62
     7
 10
79.963081
 20
180.146901
 11
83.826784
 21
179.111625
  0
LINE
  8
CSLAYER1
  6
CONTINUOUS
 62
     7
 10
119.963081
 20
180.146901
 11
116.099378
 21
181.182177
  0
LINE
  8
CSLAYER1
  6
CONTINUOUS
 62
     7
 10
119.963081
 20
180.146901
 11
116.099378
 21
179.111625
  0
TEXT
  8
CSLAYER1
 62
     7
 10
96.963081
 20
181.146896
 40
4.000000
 41
0.900000
  1
40
 50
0.000000
 51
0.000000
  7
SX_FONT
 72
     5
 11
102.963081
 21
181.146896
  0
ENDBLK
  8
0
  0
BLOCK
  8
CSLAYER1
  2
*D0001
 70
    65
 10
0.0
 20
0.0
 30
0.0
  0
LINE
  8
CSLAYER1
  6
CONTINUOUS
 62
     7
 10
125.963081
 20
155.531250
 11
131.042330
 21
155.531250
  0
LINE
  8
CSLAYER1
  6
CONTINUOUS
 62
     7
 10
125.963081
 20
170.531250
 11
131.042330
 21
170.531250
  0
LINE
  8
CSLAYER1
  6
CONTINUOUS
 62
     7
 10
130.042330
 20
155.531250
 11
130.042330
 21
170.531250
  0
LINE
  8
CSLAYER1
  6
CONTINUOUS
 62
     7
 10
130.042330
 20
155.531250
 11
129.007054
 21
159.394953
  0
LINE
  8
CSLAYER1
  6
CONTINUOUS
 62
     7
 10
130.042330
 20
155.531250
 11
131.077607
 21
159.394953
  0
LINE
  8
CSLAYER1
  6
CONTINUOUS
 62
     7
 10
130.042330
 20
170.531250
 11
129.007054
 21
166.667547
  0
LINE
  8
CSLAYER1
  6
CONTINUOUS
 62
     7
 10
130.042330
 20
170.531250
 11
131.077607
 21
166.667547
  0
TEXT
  8
CSLAYER1
 62
     7
 10
136.096527
 20
160.360291
 40
4.000000
 41
0.900000
  1
15
 50
90.000000
 51
0.000000
  7
SX_FONT
 72
     5
 11
136.096527
 21
166.360291
  0
ENDBLK
  8
0
  0
ENDSEC
  0
SECTION
  2
ENTITIES
  0
ARC
  8
CSLAYER2
  6
CONTINUOUS
 62
     7
 10
91.780756
 20
170.429870
 40
7.000000
 50
270.000000
 51
330.477942
  0
LINE
  8
CSLAYER2
  6
CONTINUOUS
 62
     7
 10
119.963081
 20
155.531250
 11
119.963081
 21
170.531250
  0
LINE
  8
CSLAYER2
  6
CONTINUOUS
 62
     7
 10
119.963081
 20
170.531250
 11
111.296414
 21
170.531250
  0
ARC
  8
CSLAYER2
  6
CONTINUOUS
 62
     7
 10
103.963081
 20
163.531250
 40
7.000000
 50
35.854316
 51
150.477942
  0
LINE
  8
CSLAYER2
  6
CONTINUOUS
 62
     7
 10
110.826209
 20
167.864583
 11
111.296414
 21
170.531250
  0
ARC
  8
CSLAYER2
  6
CONTINUOUS
 62
     7
 10
110.176983
 20
168.021818
 40
0.666667
 50
215.854316
 51
350.000000
  0
LINE
  8
CSLAYER2
  6
CONTINUOUS
 62
     7
 10
79.963081
 20
155.531250
 11
119.963081
 21
155.531250
  0
LINE
  8
CSLAYER2
  6
CONTINUOUS
 62
     7
 10
79.963081
 20
161.197917
 11
79.963081
 21
155.531250
  0
LINE
  8
CSLAYER4
  6
CONTINUOUS
 62
     7
 10
91.780756
 20
163.429870
 11
87.199085
 21
163.864571
  0
LINE
  8
CSLAYER2
  6
CONTINUOUS
 62
     7
 10
83.296414
 20
161.197917
 11
79.963081
 21
161.197917
  0
ARC
  8
CSLAYER4
  6
CONTINUOUS
 62
     7
 10
86.388864
 20
160.861213
 40
3.110726
 50
74.902631
 51
173.786149
  0
TEXT
  8
CSLAYER1
 62
     7
 10
79.710899
 20
95.345970
 40
10.000000
 41
0.630000
  1
FM-2096
 50
0.000000
 51
0.000000
  7
SX_FONT
 72
     5
 11
121.710899
 21
95.345970
  0
DIMENSION
  8
CSLAYER1
 62
     7
  2
*D0000
 10
119.963081
 20
180.146901
 11
99.963081
 21
181.146896
 13
79.963081
 23
175.531250
 14
119.963081
 24
175.531250
 70
1
  0
DIMENSION
  8
CSLAYER1
 62
     7
  2
*D0001
 10
130.042330
 20
170.531250
 11
136.096527
 21
163.360291
 13
124.963081
 23
155.531250
 14
124.963081
 24
170.531250
 50
90.000000
 70
1
  0
TEXT
  8
CSLAYER1
 62
     7
 10
136.305954
 20
95.437347
 40
10.000000
 41
0.642857
  1
40x15
 50
0.000000
 51
0.000000
  7
SX_FONT
 72
     5
 11
166.305954
 21
95.437347
  0
TEXT
  8
CSLAYER1
 62
     7
 10
80.473961
 20
83.569519
 40
5.000000
 41
0.612766
  1
カタログ Vol. 1  P51
 50
0.000000
 51
0.000000
  7
SX_FONT
 72
     5
 11
128.473961
 21
83.569519
  0
TEXT
  8
CSLAYER1
 62
     7
 10
80.430136
 20
72.823935
 40
4.960742
 41
0.729057
  1
ホ%%dケットカタロク゛ Vol. 1 P24
 50
0.000000
 51
0.000000
  7
SX_FONT
 72
     5
 11
155.174494
 21
72.823935
  0
ENDSEC
  0
EOF
