  0
SECTION
  2
HEADER
  9
$ACADVER
  1
AC1006
  9
$INSBASE
 10
77.674047
 20
172.730652
 30
0.0
  9
$EXTMIN
 10
77.674047
 20
172.730652
  9
$EXTMAX
 10
287.674047
 20
469.730652
  9
$LIMMIN
 10
77.674047
 20
172.730652
  9
$LIMMAX
 10
287.674047
 20
469.730652
  9
$VIEWCTR
 10
182.674047
 20
321.230652
  9
$VIEWSIZE
 40
297.000000
  9
$SNAPMODE
 70
     0
  9
$SNAPUNIT
 10
1.0
 20
1.0
  9
$SNAPBASE
 10
0.0
 20
0.0
  9
$SNAPANG
 50
0.0
  9
$SNAPSTYLE
 70
     0
  9
$SNAPISOPAIR
 70
     0
  9
$GRIDMODE
 70
     0
  9
$GRIDUNIT
 10
0.0
 20
0.0
  9
$ORTHOMODE
 70
     0
  9
$REGENMODE
 70
     1
  9
$FILLMODE
 70
     1
  9
$QTEXTMODE
 70
     0
  9
$DRAGMODE
 70
     2
  9
$LTSCALE
 40
15.000000
  9
$OSMODE
 70
     0
  9
$ATTMODE
 70
     1
  9
$TEXTSIZE
 40
0.2
  9
$TRACEWID
 40
0.05
  9
$TEXTSTYLE
  7
STANDARD
  9
$CLAYER
  8
CSLAYER3
  9
$CELTYPE
  6
BYLAYER
  9
$CECOLOR
 62
   256
  9
$DIMSCALE
 40
1.0
  9
$DIMASZ
 40
0.18
  9
$DIMEXO
 40
0.0625
  9
$DIMDLI
 40
0.38
  9
$DIMRND
 40
0.0
  9
$DIMDLE
 40
0.0
  9
$DIMEXE
 40
0.18
  9
$DIMTP
 40
0.0
  9
$DIMTM
 40
0.0
  9
$DIMTXT
 40
0.18
  9
$DIMCEN
 40
0.09
  9
$DIMTSZ
 40
0.0
  9
$DIMTOL
 70
     0
  9
$DIMLIM
 70
     0
  9
$DIMTIH
 70
     1
  9
$DIMTOH
 70
     1
  9
$DIMSE1
 70
     0
  9
$DIMSE2
 70
     0
  9
$DIMTAD
 70
     0
  9
$DIMZIN
 70
     0
  9
$DIMBLK
  1

  9
$LUNITS
 70
     2
  9
$LUPREC
 70
     4
  9
$AXISMODE
 70
     0
  9
$AXISUNIT
 10
0.0
 20
0.0
  9
$SKETCHINC
 40
0.1
  9
$FILLETRAD
 40
0.0
  9
$AUNITS
 70
     0
  9
$AUPREC
 70
     0
  9
$MENU
  1
ACAD
  9
$ELEVATION
 40
0.0
  9
$THICKNESS
 40
0.0
  9
$VIEWDIR
 10
0.0
 20
0.0
 30
1.0
  9
$LIMCHECK
 70
     0
  9
$BLIPMODE
 70
     1
  9
$CHAMFERA
 40
0.0
  9
$CHAMFERB
 40
0.0
  9
$FASTZOOM
 70
     1
  9
$SKPOLY
 70
     0
  9
$TDCREATE
 40
0.000000
  9
$TDUPDATE
 40
0.000000
  9
$TDINDWG
 40
0.0
  9
$TDUSRTIMER
 40
0.0
  9
$USRTIMER
 70
     1
  9
$ANGBASE
 50
0.0
  9
$ANGDIR
 70
     0
  9
$PDMODE
 70
     0
  9
$PDSIZE
 40
0.0
  9
$PLINEWID
 40
0.0
  9
$COORDS
 70
     0
  9
$USERI1
 70
     0
  9
$USERI2
 70
     0
  9
$USERI3
 70
     0
  9
$USERI4
 70
     0
  9
$USERI5
 70
     0
  9
$USERR1
 40
0.0
  9
$USERR2
 40
0.0
  9
$USERR3
 40
0.0
  9
$USERR4
 40
0.0
  9
$USERR5
 40
0.0
  0
ENDSEC
  0
SECTION
  2
TABLES
  0
TABLE
  2
LTYPE
 70
     9
  0
LTYPE
  2
CONTINUOUS
 70
    64
  3
Solid line
 72
    65
 73
     0
 40
0.0
  0
LTYPE
  2
DASHED
 70
    64
  3
__ __ __ __ __ __ __ __ __ __ __ __ __ __ __
 72
    65
 73
     2
 40
0.75
 49
0.5
 49
-0.25
  0
LTYPE
  2
HIDDEN
 70
    64
  3
_ _ _ _ _ _ _ _ _ _ _ _ _ _ _ _ _ _ _ _ _ _ _
 72
    65
 73
     2
 40
0.375
 49
0.25
 49
-0.125
  0
LTYPE
  2
DOT
 70
    64
  3
...............................................
 72
    65
 73
     2
 40
0.25
 49
0.0
 49
-0.25
  0
LTYPE
  2
DASHDOT
 70
    64
  3
__ . __ . __ . __ . __ . __ . __ . __ . __ . __
 72
    65
 73
     4
 40
1.0
 49
0.5
 49
-0.25
 49
0.0
 49
-0.25
  0
LTYPE
  2
DIVIDE
 70
    64
  3
__ . . __ . . __ . . __ . . __ . . __ . . __
 72
    65
 73
     6
 40
1.25
 49
0.5
 49
-0.25
 49
0.0
 49
-0.25
 49
0.0
 49
-0.25
  0
LTYPE
  2
CENTER
 70
    64
  3
____ _ ____ _ ____ _ ____ _ ____ _ ____ _ ____ 
 72
    65
 73
     4
 40
2.0
 49
1.25
 49
-0.25
 49
0.25
 49
-0.25
  0
LTYPE
  2
PHANTOM
 70
    64
  3
______  __  __  ______  __  __  ______  __  __ 
 72
    65
 73
     6
 40
2.5
 49
1.25
 49
-0.25
 49
0.25
 49
-0.25
 49
0.25
 49
-0.25
  0
LTYPE
  2
BORDER
 70
    64
  3
__ __ . __ __ . __ __ . __ __ . __ __ . __ __ .
 72
    65
 73
     6
 40
1.75
 49
0.5
 49
-0.25
 49
0.5
 49
-0.25
 49
0.0
 49
-0.25
  0
ENDTAB
  0
TABLE
  2
LAYER
 70
    16
  0
LAYER
  2
CSLAYER1
 70
    64
 62
     7
  6
CONTINUOUS
  0
LAYER
  2
CSLAYER2
 70
    64
 62
     7
  6
CONTINUOUS
  0
LAYER
  2
CSLAYER3
 70
    64
 62
     7
  6
CONTINUOUS
  0
LAYER
  2
CSLAYER4
 70
    64
 62
     7
  6
CONTINUOUS
  0
LAYER
  2
CSLAYER5
 70
    64
 62
     7
  6
CONTINUOUS
  0
LAYER
  2
CSLAYER6
 70
    64
 62
     7
  6
CONTINUOUS
  0
LAYER
  2
CSLAYER7
 70
    64
 62
     7
  6
CONTINUOUS
  0
LAYER
  2
CSLAYER8
 70
    64
 62
     7
  6
CONTINUOUS
  0
LAYER
  2
CSLAYER9
 70
    64
 62
     7
  6
CONTINUOUS
  0
LAYER
  2
CSLAYER10
 70
    64
 62
     7
  6
CONTINUOUS
  0
LAYER
  2
CSLAYER11
 70
    64
 62
     7
  6
CONTINUOUS
  0
LAYER
  2
CSLAYER12
 70
    64
 62
     7
  6
CONTINUOUS
  0
LAYER
  2
CSLAYER13
 70
    64
 62
     7
  6
CONTINUOUS
  0
LAYER
  2
CSLAYER14
 70
    64
 62
     7
  6
CONTINUOUS
  0
LAYER
  2
CSLAYER15
 70
    64
 62
     7
  6
CONTINUOUS
  0
LAYER
  2
CSLAYER16
 70
    64
 62
     7
  6
CONTINUOUS
  0
ENDTAB
  0
TABLE
  2
STYLE
 70
     1
  0
STYLE
  2
SX_FONT
 70
     0
 40
1.0
 41
1.0
 50
0.0
 71
     0
 42
1.0
  3
monotxt
  4
bigfont
  0
ENDTAB
  0
TABLE
  2
VIEW
 70
     0
  0
ENDTAB
  0
ENDSEC
  0
SECTION
  2
BLOCKS
  0
BLOCK
  8
CSLAYER1
  2
*D0000
 70
    65
 10
0.0
 20
0.0
 30
0.0
  0
LINE
  8
CSLAYER1
  6
CONTINUOUS
 62
     7
 10
77.242188
 20
169.218750
 11
77.242188
 21
174.354570
  0
LINE
  8
CSLAYER1
  6
CONTINUOUS
 62
     7
 10
122.242188
 20
169.218750
 11
122.242188
 21
174.354570
  0
LINE
  8
CSLAYER1
  6
CONTINUOUS
 62
     7
 10
77.242188
 20
173.354570
 11
122.242188
 21
173.354570
  0
LINE
  8
CSLAYER1
  6
CONTINUOUS
 62
     7
 10
77.242188
 20
173.354570
 11
81.105891
 21
174.389846
  0
LINE
  8
CSLAYER1
  6
CONTINUOUS
 62
     7
 10
77.242188
 20
173.354570
 11
81.105891
 21
172.319294
  0
LINE
  8
CSLAYER1
  6
CONTINUOUS
 62
     7
 10
122.242188
 20
173.354570
 11
118.378484
 21
174.389846
  0
LINE
  8
CSLAYER1
  6
CONTINUOUS
 62
     7
 10
122.242188
 20
173.354570
 11
118.378484
 21
172.319294
  0
TEXT
  8
CSLAYER1
 62
     7
 10
96.742188
 20
174.354568
 40
4.000000
 41
0.900000
  1
45
 50
0.000000
 51
0.000000
  7
SX_FONT
 72
     5
 11
102.742188
 21
174.354568
  0
ENDBLK
  8
0
  0
BLOCK
  8
CSLAYER1
  2
*D0001
 70
    65
 10
0.0
 20
0.0
 30
0.0
  0
LINE
  8
CSLAYER1
  6
CONTINUOUS
 62
     7
 10
128.242188
 20
148.218750
 11
133.539827
 21
148.218750
  0
LINE
  8
CSLAYER1
  6
CONTINUOUS
 62
     7
 10
128.242188
 20
163.218750
 11
133.539827
 21
163.218750
  0
LINE
  8
CSLAYER1
  6
CONTINUOUS
 62
     7
 10
132.539827
 20
148.218750
 11
132.539827
 21
163.218750
  0
LINE
  8
CSLAYER1
  6
CONTINUOUS
 62
     7
 10
132.539827
 20
148.218750
 11
131.504551
 21
152.082453
  0
LINE
  8
CSLAYER1
  6
CONTINUOUS
 62
     7
 10
132.539827
 20
148.218750
 11
133.575103
 21
152.082453
  0
LINE
  8
CSLAYER1
  6
CONTINUOUS
 62
     7
 10
132.539827
 20
163.218750
 11
131.504551
 21
159.355047
  0
LINE
  8
CSLAYER1
  6
CONTINUOUS
 62
     7
 10
132.539827
 20
163.218750
 11
133.575103
 21
159.355047
  0
TEXT
  8
CSLAYER1
 62
     7
 10
138.151138
 20
153.104996
 40
4.000000
 41
0.900000
  1
15
 50
90.000000
 51
0.000000
  7
SX_FONT
 72
     5
 11
138.151138
 21
159.104996
  0
ENDBLK
  8
0
  0
ENDSEC
  0
SECTION
  2
ENTITIES
  0
LINE
  8
CSLAYER2
  6
CONTINUOUS
 62
     7
 10
87.460328
 20
156.744043
 11
86.524047
 21
155.993457
  0
LINE
  8
CSLAYER2
  6
CONTINUOUS
 62
     7
 10
83.137564
 20
156.800116
 11
85.215694
 21
155.835037
  0
ARC
  8
CSLAYER2
  6
CONTINUOUS
 62
     7
 10
81.242188
 20
152.718750
 40
4.500000
 50
65.089955
 51
90.000000
  0
ARC
  8
CSLAYER2
  6
CONTINUOUS
 62
     7
 10
85.742188
 20
156.968750
 40
1.250000
 50
245.089955
 51
270.000000
  0
ARC
  8
CSLAYER2
  6
CONTINUOUS
 62
     7
 10
85.742187
 20
156.968750
 40
1.250000
 50
270.000000
 51
308.717988
  0
ARC
  8
CSLAYER2
  6
CONTINUOUS
 62
     7
 10
88.242188
 20
155.768750
 40
1.250000
 50
90.000000
 51
128.717988
  0
LINE
  8
CSLAYER2
  6
CONTINUOUS
 62
     7
 10
89.061291
 20
156.712980
 11
89.931623
 21
155.957982
  0
ARC
  8
CSLAYER2
  6
CONTINUOUS
 62
     7
 10
88.242188
 20
155.768750
 40
1.250000
 50
49.058933
 51
90.000000
  0
ARC
  8
CSLAYER2
  6
CONTINUOUS
 62
     7
 10
91.242188
 20
157.468750
 40
2.000000
 50
229.058933
 51
270.000000
  0
ARC
  8
CSLAYER2
  6
CONTINUOUS
 62
     7
 10
91.242187
 20
157.468750
 40
2.000000
 50
270.000000
 51
312.711395
  0
ARC
  8
CSLAYER2
  6
CONTINUOUS
 62
     7
 10
112.947973
 20
133.955799
 40
30.000000
 50
106.452913
 51
132.711395
  0
ARC
  8
CSLAYER2
  6
CONTINUOUS
 62
     7
 10
119.992188
 20
156.718750
 40
0.500000
 50
11.298914
 51
90.000000
  0
LINE
  8
CSLAYER2
  6
CONTINUOUS
 62
     7
 10
118.242188
 20
157.218750
 11
119.992188
 21
157.218750
  0
ARC
  8
CSLAYER2
  6
CONTINUOUS
 62
     7
 10
122.443733
 20
157.208569
 40
2.000000
 50
191.298914
 51
264.216317
  0
ARC
  8
CSLAYER2
  6
CONTINUOUS
 62
     7
 10
107.849883
 20
151.218750
 40
12.000000
 50
30.000000
 51
90.000000
  0
ARC
  8
CSLAYER2
  6
CONTINUOUS
 62
     7
 10
107.849883
 20
151.218750
 40
12.000000
 50
90.000000
 51
106.452913
  0
LINE
  8
CSLAYER2
  6
CONTINUOUS
 62
     7
 10
122.242188
 20
155.218750
 11
122.242188
 21
148.218750
  0
LINE
  8
CSLAYER2
  6
CONTINUOUS
 62
     7
 10
122.242188
 20
148.218750
 11
77.242188
 21
148.218750
  0
LINE
  8
CSLAYER2
  6
CONTINUOUS
 62
     7
 10
77.242188
 20
148.218750
 11
77.242188
 21
154.218750
  0
ARC
  8
CSLAYER2
  6
CONTINUOUS
 62
     7
 10
79.242188
 20
154.218750
 40
2.000000
 50
143.130102
 51
180.000000
  0
ARC
  8
CSLAYER2
  6
CONTINUOUS
 62
     7
 10
81.242188
 20
152.718750
 40
4.500000
 50
90.000000
 51
143.130102
  0
TEXT
  8
CSLAYER1
 62
     7
 10
77.400444
 20
87.594772
 40
10.000000
 41
0.630000
  1
FM-2089
 50
0.000000
 51
0.000000
  7
SX_FONT
 72
     5
 11
119.400444
 21
87.594772
  0
DIMENSION
  8
CSLAYER1
 62
     7
  2
*D0000
 10
122.242188
 20
173.354570
 11
99.742188
 21
174.354568
 13
77.242188
 23
168.218750
 14
122.242188
 24
168.218750
 70
1
  0
DIMENSION
  8
CSLAYER1
 62
     7
  2
*D0001
 10
132.539827
 20
163.218750
 11
138.151138
 21
156.104996
 13
127.242188
 23
148.218750
 14
127.242188
 24
163.218750
 50
90.000000
 70
1
  0
TEXT
  8
CSLAYER1
 62
     7
 10
133.303345
 20
88.330460
 40
10.000000
 41
0.642857
  1
45x15
 50
0.000000
 51
0.000000
  7
SX_FONT
 72
     5
 11
163.303345
 21
88.330460
  0
TEXT
  8
CSLAYER1
 62
     7
 10
77.823639
 20
76.753746
 40
5.000000
 41
0.612766
  1
カタログ Vol. 1  P50
 50
0.000000
 51
0.000000
  7
SX_FONT
 72
     5
 11
125.823639
 21
76.753746
  0
TEXT
  8
CSLAYER1
 62
     7
 10
77.465628
 20
66.780677
 40
4.960742
 41
0.729057
  1
ホ%%dケットカタロク゛ Vol. 1 P23
 50
0.000000
 51
0.000000
  7
SX_FONT
 72
     5
 11
152.209985
 21
66.780677
  0
ENDSEC
  0
EOF
