  0
SECTION
  2
HEADER
  9
$ACADVER
  1
AC1006
  9
$INSBASE
 10
75.433472
 20
178.186035
 30
0.0
  9
$EXTMIN
 10
75.433472
 20
178.186035
  9
$EXTMAX
 10
285.433472
 20
475.186035
  9
$LIMMIN
 10
75.433472
 20
178.186035
  9
$LIMMAX
 10
285.433472
 20
475.186035
  9
$VIEWCTR
 10
180.433472
 20
326.686035
  9
$VIEWSIZE
 40
297.000000
  9
$SNAPMODE
 70
     0
  9
$SNAPUNIT
 10
1.0
 20
1.0
  9
$SNAPBASE
 10
0.0
 20
0.0
  9
$SNAPANG
 50
0.0
  9
$SNAPSTYLE
 70
     0
  9
$SNAPISOPAIR
 70
     0
  9
$GRIDMODE
 70
     0
  9
$GRIDUNIT
 10
0.0
 20
0.0
  9
$ORTHOMODE
 70
     0
  9
$REGENMODE
 70
     1
  9
$FILLMODE
 70
     1
  9
$QTEXTMODE
 70
     0
  9
$DRAGMODE
 70
     2
  9
$LTSCALE
 40
15.000000
  9
$OSMODE
 70
     0
  9
$ATTMODE
 70
     1
  9
$TEXTSIZE
 40
0.2
  9
$TRACEWID
 40
0.05
  9
$TEXTSTYLE
  7
STANDARD
  9
$CLAYER
  8
CSLAYER3
  9
$CELTYPE
  6
BYLAYER
  9
$CECOLOR
 62
   256
  9
$DIMSCALE
 40
1.0
  9
$DIMASZ
 40
0.18
  9
$DIMEXO
 40
0.0625
  9
$DIMDLI
 40
0.38
  9
$DIMRND
 40
0.0
  9
$DIMDLE
 40
0.0
  9
$DIMEXE
 40
0.18
  9
$DIMTP
 40
0.0
  9
$DIMTM
 40
0.0
  9
$DIMTXT
 40
0.18
  9
$DIMCEN
 40
0.09
  9
$DIMTSZ
 40
0.0
  9
$DIMTOL
 70
     0
  9
$DIMLIM
 70
     0
  9
$DIMTIH
 70
     1
  9
$DIMTOH
 70
     1
  9
$DIMSE1
 70
     0
  9
$DIMSE2
 70
     0
  9
$DIMTAD
 70
     0
  9
$DIMZIN
 70
     0
  9
$DIMBLK
  1

  9
$LUNITS
 70
     2
  9
$LUPREC
 70
     4
  9
$AXISMODE
 70
     0
  9
$AXISUNIT
 10
0.0
 20
0.0
  9
$SKETCHINC
 40
0.1
  9
$FILLETRAD
 40
0.0
  9
$AUNITS
 70
     0
  9
$AUPREC
 70
     0
  9
$MENU
  1
ACAD
  9
$ELEVATION
 40
0.0
  9
$THICKNESS
 40
0.0
  9
$VIEWDIR
 10
0.0
 20
0.0
 30
1.0
  9
$LIMCHECK
 70
     0
  9
$BLIPMODE
 70
     1
  9
$CHAMFERA
 40
0.0
  9
$CHAMFERB
 40
0.0
  9
$FASTZOOM
 70
     1
  9
$SKPOLY
 70
     0
  9
$TDCREATE
 40
0.000000
  9
$TDUPDATE
 40
0.000000
  9
$TDINDWG
 40
0.0
  9
$TDUSRTIMER
 40
0.0
  9
$USRTIMER
 70
     1
  9
$ANGBASE
 50
0.0
  9
$ANGDIR
 70
     0
  9
$PDMODE
 70
     0
  9
$PDSIZE
 40
0.0
  9
$PLINEWID
 40
0.0
  9
$COORDS
 70
     0
  9
$USERI1
 70
     0
  9
$USERI2
 70
     0
  9
$USERI3
 70
     0
  9
$USERI4
 70
     0
  9
$USERI5
 70
     0
  9
$USERR1
 40
0.0
  9
$USERR2
 40
0.0
  9
$USERR3
 40
0.0
  9
$USERR4
 40
0.0
  9
$USERR5
 40
0.0
  0
ENDSEC
  0
SECTION
  2
TABLES
  0
TABLE
  2
LTYPE
 70
     9
  0
LTYPE
  2
CONTINUOUS
 70
    64
  3
Solid line
 72
    65
 73
     0
 40
0.0
  0
LTYPE
  2
DASHED
 70
    64
  3
__ __ __ __ __ __ __ __ __ __ __ __ __ __ __
 72
    65
 73
     2
 40
0.75
 49
0.5
 49
-0.25
  0
LTYPE
  2
HIDDEN
 70
    64
  3
_ _ _ _ _ _ _ _ _ _ _ _ _ _ _ _ _ _ _ _ _ _ _
 72
    65
 73
     2
 40
0.375
 49
0.25
 49
-0.125
  0
LTYPE
  2
DOT
 70
    64
  3
...............................................
 72
    65
 73
     2
 40
0.25
 49
0.0
 49
-0.25
  0
LTYPE
  2
DASHDOT
 70
    64
  3
__ . __ . __ . __ . __ . __ . __ . __ . __ . __
 72
    65
 73
     4
 40
1.0
 49
0.5
 49
-0.25
 49
0.0
 49
-0.25
  0
LTYPE
  2
DIVIDE
 70
    64
  3
__ . . __ . . __ . . __ . . __ . . __ . . __
 72
    65
 73
     6
 40
1.25
 49
0.5
 49
-0.25
 49
0.0
 49
-0.25
 49
0.0
 49
-0.25
  0
LTYPE
  2
CENTER
 70
    64
  3
____ _ ____ _ ____ _ ____ _ ____ _ ____ _ ____ 
 72
    65
 73
     4
 40
2.0
 49
1.25
 49
-0.25
 49
0.25
 49
-0.25
  0
LTYPE
  2
PHANTOM
 70
    64
  3
______  __  __  ______  __  __  ______  __  __ 
 72
    65
 73
     6
 40
2.5
 49
1.25
 49
-0.25
 49
0.25
 49
-0.25
 49
0.25
 49
-0.25
  0
LTYPE
  2
BORDER
 70
    64
  3
__ __ . __ __ . __ __ . __ __ . __ __ . __ __ .
 72
    65
 73
     6
 40
1.75
 49
0.5
 49
-0.25
 49
0.5
 49
-0.25
 49
0.0
 49
-0.25
  0
ENDTAB
  0
TABLE
  2
LAYER
 70
    16
  0
LAYER
  2
CSLAYER1
 70
    64
 62
     7
  6
CONTINUOUS
  0
LAYER
  2
CSLAYER2
 70
    64
 62
     7
  6
CONTINUOUS
  0
LAYER
  2
CSLAYER3
 70
    64
 62
     7
  6
CONTINUOUS
  0
LAYER
  2
CSLAYER4
 70
    64
 62
     7
  6
CONTINUOUS
  0
LAYER
  2
CSLAYER5
 70
    64
 62
     7
  6
CONTINUOUS
  0
LAYER
  2
CSLAYER6
 70
    64
 62
     7
  6
CONTINUOUS
  0
LAYER
  2
CSLAYER7
 70
    64
 62
     7
  6
CONTINUOUS
  0
LAYER
  2
CSLAYER8
 70
    64
 62
     7
  6
CONTINUOUS
  0
LAYER
  2
CSLAYER9
 70
    64
 62
     7
  6
CONTINUOUS
  0
LAYER
  2
CSLAYER10
 70
    64
 62
     7
  6
CONTINUOUS
  0
LAYER
  2
CSLAYER11
 70
    64
 62
     7
  6
CONTINUOUS
  0
LAYER
  2
CSLAYER12
 70
    64
 62
     7
  6
CONTINUOUS
  0
LAYER
  2
CSLAYER13
 70
    64
 62
     7
  6
CONTINUOUS
  0
LAYER
  2
CSLAYER14
 70
    64
 62
     7
  6
CONTINUOUS
  0
LAYER
  2
CSLAYER15
 70
    64
 62
     7
  6
CONTINUOUS
  0
LAYER
  2
CSLAYER16
 70
    64
 62
     7
  6
CONTINUOUS
  0
ENDTAB
  0
TABLE
  2
STYLE
 70
     1
  0
STYLE
  2
SX_FONT
 70
     0
 40
1.0
 41
1.0
 50
0.0
 71
     0
 42
1.0
  3
monotxt
  4
bigfont
  0
ENDTAB
  0
TABLE
  2
VIEW
 70
     0
  0
ENDTAB
  0
ENDSEC
  0
SECTION
  2
BLOCKS
  0
BLOCK
  8
CSLAYER1
  2
*D0000
 70
    65
 10
0.0
 20
0.0
 30
0.0
  0
LINE
  8
CSLAYER1
  6
CONTINUOUS
 62
     7
 10
76.021362
 20
173.821777
 11
76.021362
 21
178.678787
  0
LINE
  8
CSLAYER1
  6
CONTINUOUS
 62
     7
 10
121.021362
 20
173.821777
 11
121.021362
 21
178.678787
  0
LINE
  8
CSLAYER1
  6
CONTINUOUS
 62
     7
 10
76.021362
 20
177.678787
 11
121.021362
 21
177.678787
  0
LINE
  8
CSLAYER1
  6
CONTINUOUS
 62
     7
 10
76.021362
 20
177.678787
 11
79.885066
 21
178.714063
  0
LINE
  8
CSLAYER1
  6
CONTINUOUS
 62
     7
 10
76.021362
 20
177.678787
 11
79.885066
 21
176.643511
  0
LINE
  8
CSLAYER1
  6
CONTINUOUS
 62
     7
 10
121.021362
 20
177.678787
 11
117.157659
 21
178.714063
  0
LINE
  8
CSLAYER1
  6
CONTINUOUS
 62
     7
 10
121.021362
 20
177.678787
 11
117.157659
 21
176.643511
  0
TEXT
  8
CSLAYER1
 62
     7
 10
95.521362
 20
178.678787
 40
4.000000
 41
0.900000
  1
45
 50
0.000000
 51
0.000000
  7
SX_FONT
 72
     5
 11
101.521362
 21
178.678787
  0
ENDBLK
  8
0
  0
BLOCK
  8
CSLAYER1
  2
*D0001
 70
    65
 10
0.0
 20
0.0
 30
0.0
  0
LINE
  8
CSLAYER1
  6
CONTINUOUS
 62
     7
 10
127.021362
 20
146.821777
 11
131.975398
 21
146.821777
  0
LINE
  8
CSLAYER1
  6
CONTINUOUS
 62
     7
 10
127.021362
 20
167.821777
 11
131.975398
 21
167.821777
  0
LINE
  8
CSLAYER1
  6
CONTINUOUS
 62
     7
 10
130.975398
 20
146.821777
 11
130.975398
 21
167.821777
  0
LINE
  8
CSLAYER1
  6
CONTINUOUS
 62
     7
 10
130.975398
 20
146.821777
 11
129.940122
 21
150.685481
  0
LINE
  8
CSLAYER1
  6
CONTINUOUS
 62
     7
 10
130.975398
 20
146.821777
 11
132.010674
 21
150.685481
  0
LINE
  8
CSLAYER1
  6
CONTINUOUS
 62
     7
 10
130.975398
 20
167.821777
 11
129.940122
 21
163.958074
  0
LINE
  8
CSLAYER1
  6
CONTINUOUS
 62
     7
 10
130.975398
 20
167.821777
 11
132.010674
 21
163.958074
  0
TEXT
  8
CSLAYER1
 62
     7
 10
136.350204
 20
154.039505
 40
4.000000
 41
0.900000
  1
21
 50
90.000000
 51
0.000000
  7
SX_FONT
 72
     5
 11
136.350204
 21
160.039505
  0
ENDBLK
  8
0
  0
ENDSEC
  0
SECTION
  2
ENTITIES
  0
ARC
  8
CSLAYER2
  6
CONTINUOUS
 62
     7
 10
78.771362
 20
156.571777
 40
2.750000
 50
90.000000
 51
180.000000
  0
ARC
  8
CSLAYER2
  6
CONTINUOUS
 62
     7
 10
78.771362
 20
155.321777
 40
4.000000
 50
45.920790
 51
90.000000
  0
LINE
  8
CSLAYER2
  6
CONTINUOUS
 62
     7
 10
101.007197
 20
162.461058
 11
98.976824
 21
159.935670
  0
ARC
  8
CSLAYER2
  6
CONTINUOUS
 62
     7
 10
93.521362
 20
164.321777
 40
7.000000
 50
270.000000
 51
321.201254
  0
ARC
  8
CSLAYER2
  6
CONTINUOUS
 62
     7
 10
108.021362
 20
156.821777
 40
9.000000
 50
90.000000
 51
141.201254
  0
LINE
  8
CSLAYER2
  6
CONTINUOUS
 62
     7
 10
108.021362
 20
165.821777
 11
108.021362
 21
167.821777
  0
LINE
  8
CSLAYER2
  6
CONTINUOUS
 62
     7
 10
108.021362
 20
167.821777
 11
121.021362
 21
167.821777
  0
LINE
  8
CSLAYER2
  6
CONTINUOUS
 62
     7
 10
121.021362
 20
167.821777
 11
121.021362
 21
146.821777
  0
LINE
  8
CSLAYER2
  6
CONTINUOUS
 62
     7
 10
121.021362
 20
146.821777
 11
76.021362
 21
146.821777
  0
LINE
  8
CSLAYER2
  6
CONTINUOUS
 62
     7
 10
76.021362
 20
146.821777
 11
76.021362
 21
156.571777
  0
LINE
  8
CSLAYER2
  6
CONTINUOUS
 62
     7
 10
81.553971
 20
158.195292
 11
84.521362
 21
155.321777
  0
LINE
  8
CSLAYER2
  6
CONTINUOUS
 62
     7
 10
84.521362
 20
155.321777
 11
87.521362
 21
155.321777
  0
LINE
  8
CSLAYER2
  6
CONTINUOUS
 62
     7
 10
87.521362
 20
155.321777
 11
87.521362
 21
157.321777
  0
LINE
  8
CSLAYER2
  6
CONTINUOUS
 62
     7
 10
87.521362
 20
157.321777
 11
93.521362
 21
157.321777
  0
TEXT
  8
CSLAYER1
 62
     7
 10
75.964294
 20
86.446716
 40
10.000000
 41
0.630000
  1
FM-2088
 50
0.000000
 51
0.000000
  7
SX_FONT
 72
     5
 11
117.964294
 21
86.446716
  0
DIMENSION
  8
CSLAYER1
 62
     7
  2
*D0000
 10
121.021362
 20
177.678787
 11
98.521362
 21
178.678787
 13
76.021362
 23
172.821777
 14
121.021362
 24
172.821777
 70
1
  0
DIMENSION
  8
CSLAYER1
 62
     7
  2
*D0001
 10
130.975398
 20
167.821777
 11
136.350204
 21
157.039505
 13
126.021362
 23
146.821777
 14
126.021362
 24
167.821777
 50
90.000000
 70
1
  0
TEXT
  8
CSLAYER1
 62
     7
 10
131.403259
 20
86.793571
 40
10.000000
 41
0.642857
  1
45x21
 50
0.000000
 51
0.000000
  7
SX_FONT
 72
     5
 11
161.403259
 21
86.793571
  0
TEXT
  8
CSLAYER1
 62
     7
 10
75.843056
 20
75.929955
 40
5.000000
 41
0.612766
  1
カタログ Vol. 1  P50
 50
0.000000
 51
0.000000
  7
SX_FONT
 72
     5
 11
123.843056
 21
75.929955
  0
TEXT
  8
CSLAYER1
 62
     7
 10
76.087691
 20
65.365485
 40
4.960742
 41
0.729057
  1
ホ%%dケットカタロク゛ Vol. 1 P23
 50
0.000000
 51
0.000000
  7
SX_FONT
 72
     5
 11
150.832048
 21
65.365485
  0
ENDSEC
  0
EOF
