  0
SECTION
  2
HEADER
  9
$ACADVER
  1
AC1006
  9
$INSBASE
 10
80.393677
 20
171.472168
 30
0.0
  9
$EXTMIN
 10
80.393677
 20
171.472168
  9
$EXTMAX
 10
290.393677
 20
468.472168
  9
$LIMMIN
 10
80.393677
 20
171.472168
  9
$LIMMAX
 10
290.393677
 20
468.472168
  9
$VIEWCTR
 10
185.393677
 20
319.972168
  9
$VIEWSIZE
 40
297.000000
  9
$SNAPMODE
 70
     0
  9
$SNAPUNIT
 10
1.0
 20
1.0
  9
$SNAPBASE
 10
0.0
 20
0.0
  9
$SNAPANG
 50
0.0
  9
$SNAPSTYLE
 70
     0
  9
$SNAPISOPAIR
 70
     0
  9
$GRIDMODE
 70
     0
  9
$GRIDUNIT
 10
0.0
 20
0.0
  9
$ORTHOMODE
 70
     0
  9
$REGENMODE
 70
     1
  9
$FILLMODE
 70
     1
  9
$QTEXTMODE
 70
     0
  9
$DRAGMODE
 70
     2
  9
$LTSCALE
 40
15.000000
  9
$OSMODE
 70
     0
  9
$ATTMODE
 70
     1
  9
$TEXTSIZE
 40
0.2
  9
$TRACEWID
 40
0.05
  9
$TEXTSTYLE
  7
STANDARD
  9
$CLAYER
  8
CSLAYER3
  9
$CELTYPE
  6
BYLAYER
  9
$CECOLOR
 62
   256
  9
$DIMSCALE
 40
1.0
  9
$DIMASZ
 40
0.18
  9
$DIMEXO
 40
0.0625
  9
$DIMDLI
 40
0.38
  9
$DIMRND
 40
0.0
  9
$DIMDLE
 40
0.0
  9
$DIMEXE
 40
0.18
  9
$DIMTP
 40
0.0
  9
$DIMTM
 40
0.0
  9
$DIMTXT
 40
0.18
  9
$DIMCEN
 40
0.09
  9
$DIMTSZ
 40
0.0
  9
$DIMTOL
 70
     0
  9
$DIMLIM
 70
     0
  9
$DIMTIH
 70
     1
  9
$DIMTOH
 70
     1
  9
$DIMSE1
 70
     0
  9
$DIMSE2
 70
     0
  9
$DIMTAD
 70
     0
  9
$DIMZIN
 70
     0
  9
$DIMBLK
  1

  9
$LUNITS
 70
     2
  9
$LUPREC
 70
     4
  9
$AXISMODE
 70
     0
  9
$AXISUNIT
 10
0.0
 20
0.0
  9
$SKETCHINC
 40
0.1
  9
$FILLETRAD
 40
0.0
  9
$AUNITS
 70
     0
  9
$AUPREC
 70
     0
  9
$MENU
  1
ACAD
  9
$ELEVATION
 40
0.0
  9
$THICKNESS
 40
0.0
  9
$VIEWDIR
 10
0.0
 20
0.0
 30
1.0
  9
$LIMCHECK
 70
     0
  9
$BLIPMODE
 70
     1
  9
$CHAMFERA
 40
0.0
  9
$CHAMFERB
 40
0.0
  9
$FASTZOOM
 70
     1
  9
$SKPOLY
 70
     0
  9
$TDCREATE
 40
0.000000
  9
$TDUPDATE
 40
0.000000
  9
$TDINDWG
 40
0.0
  9
$TDUSRTIMER
 40
0.0
  9
$USRTIMER
 70
     1
  9
$ANGBASE
 50
0.0
  9
$ANGDIR
 70
     0
  9
$PDMODE
 70
     0
  9
$PDSIZE
 40
0.0
  9
$PLINEWID
 40
0.0
  9
$COORDS
 70
     0
  9
$USERI1
 70
     0
  9
$USERI2
 70
     0
  9
$USERI3
 70
     0
  9
$USERI4
 70
     0
  9
$USERI5
 70
     0
  9
$USERR1
 40
0.0
  9
$USERR2
 40
0.0
  9
$USERR3
 40
0.0
  9
$USERR4
 40
0.0
  9
$USERR5
 40
0.0
  0
ENDSEC
  0
SECTION
  2
TABLES
  0
TABLE
  2
LTYPE
 70
     9
  0
LTYPE
  2
CONTINUOUS
 70
    64
  3
Solid line
 72
    65
 73
     0
 40
0.0
  0
LTYPE
  2
DASHED
 70
    64
  3
__ __ __ __ __ __ __ __ __ __ __ __ __ __ __
 72
    65
 73
     2
 40
0.75
 49
0.5
 49
-0.25
  0
LTYPE
  2
HIDDEN
 70
    64
  3
_ _ _ _ _ _ _ _ _ _ _ _ _ _ _ _ _ _ _ _ _ _ _
 72
    65
 73
     2
 40
0.375
 49
0.25
 49
-0.125
  0
LTYPE
  2
DOT
 70
    64
  3
...............................................
 72
    65
 73
     2
 40
0.25
 49
0.0
 49
-0.25
  0
LTYPE
  2
DASHDOT
 70
    64
  3
__ . __ . __ . __ . __ . __ . __ . __ . __ . __
 72
    65
 73
     4
 40
1.0
 49
0.5
 49
-0.25
 49
0.0
 49
-0.25
  0
LTYPE
  2
DIVIDE
 70
    64
  3
__ . . __ . . __ . . __ . . __ . . __ . . __
 72
    65
 73
     6
 40
1.25
 49
0.5
 49
-0.25
 49
0.0
 49
-0.25
 49
0.0
 49
-0.25
  0
LTYPE
  2
CENTER
 70
    64
  3
____ _ ____ _ ____ _ ____ _ ____ _ ____ _ ____ 
 72
    65
 73
     4
 40
2.0
 49
1.25
 49
-0.25
 49
0.25
 49
-0.25
  0
LTYPE
  2
PHANTOM
 70
    64
  3
______  __  __  ______  __  __  ______  __  __ 
 72
    65
 73
     6
 40
2.5
 49
1.25
 49
-0.25
 49
0.25
 49
-0.25
 49
0.25
 49
-0.25
  0
LTYPE
  2
BORDER
 70
    64
  3
__ __ . __ __ . __ __ . __ __ . __ __ . __ __ .
 72
    65
 73
     6
 40
1.75
 49
0.5
 49
-0.25
 49
0.5
 49
-0.25
 49
0.0
 49
-0.25
  0
ENDTAB
  0
TABLE
  2
LAYER
 70
    16
  0
LAYER
  2
CSLAYER1
 70
    64
 62
     7
  6
CONTINUOUS
  0
LAYER
  2
CSLAYER2
 70
    64
 62
     7
  6
CONTINUOUS
  0
LAYER
  2
CSLAYER3
 70
    64
 62
     7
  6
CONTINUOUS
  0
LAYER
  2
CSLAYER4
 70
    64
 62
     7
  6
CONTINUOUS
  0
LAYER
  2
CSLAYER5
 70
    64
 62
     7
  6
CONTINUOUS
  0
LAYER
  2
CSLAYER6
 70
    64
 62
     7
  6
CONTINUOUS
  0
LAYER
  2
CSLAYER7
 70
    64
 62
     7
  6
CONTINUOUS
  0
LAYER
  2
CSLAYER8
 70
    64
 62
     7
  6
CONTINUOUS
  0
LAYER
  2
CSLAYER9
 70
    64
 62
     7
  6
CONTINUOUS
  0
LAYER
  2
CSLAYER10
 70
    64
 62
     7
  6
CONTINUOUS
  0
LAYER
  2
CSLAYER11
 70
    64
 62
     7
  6
CONTINUOUS
  0
LAYER
  2
CSLAYER12
 70
    64
 62
     7
  6
CONTINUOUS
  0
LAYER
  2
CSLAYER13
 70
    64
 62
     7
  6
CONTINUOUS
  0
LAYER
  2
CSLAYER14
 70
    64
 62
     7
  6
CONTINUOUS
  0
LAYER
  2
CSLAYER15
 70
    64
 62
     7
  6
CONTINUOUS
  0
LAYER
  2
CSLAYER16
 70
    64
 62
     7
  6
CONTINUOUS
  0
ENDTAB
  0
TABLE
  2
STYLE
 70
     1
  0
STYLE
  2
SX_FONT
 70
     0
 40
1.0
 41
1.0
 50
0.0
 71
     0
 42
1.0
  3
monotxt
  4
bigfont
  0
ENDTAB
  0
TABLE
  2
VIEW
 70
     0
  0
ENDTAB
  0
ENDSEC
  0
SECTION
  2
BLOCKS
  0
BLOCK
  8
CSLAYER1
  2
*D0000
 70
    65
 10
0.0
 20
0.0
 30
0.0
  0
LINE
  8
CSLAYER1
  6
CONTINUOUS
 62
     7
 10
80.273438
 20
167.437500
 11
80.273438
 21
172.690528
  0
LINE
  8
CSLAYER1
  6
CONTINUOUS
 62
     7
 10
115.273438
 20
167.437500
 11
115.273438
 21
172.690528
  0
LINE
  8
CSLAYER1
  6
CONTINUOUS
 62
     7
 10
80.273438
 20
171.690528
 11
115.273438
 21
171.690528
  0
LINE
  8
CSLAYER1
  6
CONTINUOUS
 62
     7
 10
80.273438
 20
171.690528
 11
84.137141
 21
172.725804
  0
LINE
  8
CSLAYER1
  6
CONTINUOUS
 62
     7
 10
80.273438
 20
171.690528
 11
84.137141
 21
170.655252
  0
LINE
  8
CSLAYER1
  6
CONTINUOUS
 62
     7
 10
115.273438
 20
171.690528
 11
111.409734
 21
172.725804
  0
LINE
  8
CSLAYER1
  6
CONTINUOUS
 62
     7
 10
115.273438
 20
171.690528
 11
111.409734
 21
170.655252
  0
TEXT
  8
CSLAYER1
 62
     7
 10
94.773438
 20
172.690521
 40
4.000000
 41
0.900000
  1
35
 50
0.000000
 51
0.000000
  7
SX_FONT
 72
     5
 11
100.773438
 21
172.690521
  0
ENDBLK
  8
0
  0
BLOCK
  8
CSLAYER1
  2
*D0001
 70
    65
 10
0.0
 20
0.0
 30
0.0
  0
LINE
  8
CSLAYER1
  6
CONTINUOUS
 62
     7
 10
121.273438
 20
143.437500
 11
126.486639
 21
143.437500
  0
LINE
  8
CSLAYER1
  6
CONTINUOUS
 62
     7
 10
121.273438
 20
161.437500
 11
126.486639
 21
161.437500
  0
LINE
  8
CSLAYER1
  6
CONTINUOUS
 62
     7
 10
125.486639
 20
143.437500
 11
125.486639
 21
161.437500
  0
LINE
  8
CSLAYER1
  6
CONTINUOUS
 62
     7
 10
125.486639
 20
143.437500
 11
124.451362
 21
147.301203
  0
LINE
  8
CSLAYER1
  6
CONTINUOUS
 62
     7
 10
125.486639
 20
143.437500
 11
126.521915
 21
147.301203
  0
LINE
  8
CSLAYER1
  6
CONTINUOUS
 62
     7
 10
125.486639
 20
161.437500
 11
124.451362
 21
157.573797
  0
LINE
  8
CSLAYER1
  6
CONTINUOUS
 62
     7
 10
125.486639
 20
161.437500
 11
126.521915
 21
157.573797
  0
TEXT
  8
CSLAYER1
 62
     7
 10
130.596298
 20
149.140533
 40
4.000000
 41
0.900000
  1
18
 50
90.000000
 51
0.000000
  7
SX_FONT
 72
     5
 11
130.596298
 21
155.140533
  0
ENDBLK
  8
0
  0
ENDSEC
  0
SECTION
  2
ENTITIES
  0
LINE
  8
CSLAYER2
  6
CONTINUOUS
 62
     7
 10
103.190862
 20
158.437500
 11
101.273438
 21
159.437500
  0
ARC
  8
CSLAYER2
  6
CONTINUOUS
 62
     7
 10
90.709038
 20
168.624092
 40
14.000000
 50
283.196555
 51
318.990427
  0
ARC
  8
CSLAYER2
  6
CONTINUOUS
 62
     7
 10
84.773438
 20
193.937500
 40
40.000000
 50
270.000000
 51
283.196555
  0
ARC
  8
CSLAYER2
  6
CONTINUOUS
 62
     7
 10
107.773438
 20
156.437500
 40
5.000000
 50
17.457603
 51
90.000000
  0
ARC
  8
CSLAYER2
  6
CONTINUOUS
 62
     7
 10
107.773438
 20
156.437500
 40
5.000000
 50
90.000000
 51
156.421822
  0
LINE
  8
CSLAYER2
  6
CONTINUOUS
 62
     7
 10
112.543134
 20
157.937500
 11
115.273438
 21
157.937500
  0
LINE
  8
CSLAYER2
  6
CONTINUOUS
 62
     7
 10
115.273438
 20
157.937500
 11
115.273438
 21
143.437500
  0
LINE
  8
CSLAYER2
  6
CONTINUOUS
 62
     7
 10
115.273438
 20
143.437500
 11
80.273438
 21
143.437500
  0
LINE
  8
CSLAYER2
  6
CONTINUOUS
 62
     7
 10
80.273438
 20
143.437500
 11
80.273438
 21
151.937500
  0
LINE
  8
CSLAYER2
  6
CONTINUOUS
 62
     7
 10
80.273438
 20
151.937500
 11
82.273438
 21
151.937500
  0
LINE
  8
CSLAYER2
  6
CONTINUOUS
 62
     7
 10
82.273438
 20
151.937500
 11
82.273438
 21
153.937500
  0
LINE
  8
CSLAYER2
  6
CONTINUOUS
 62
     7
 10
82.273438
 20
153.937500
 11
84.773438
 21
153.937500
  0
TEXT
  8
CSLAYER1
 62
     7
 10
80.427544
 20
83.062729
 40
10.000000
 41
0.630000
  1
FM-2087
 50
0.000000
 51
0.000000
  7
SX_FONT
 72
     5
 11
122.427544
 21
83.062729
  0
DIMENSION
  8
CSLAYER1
 62
     7
  2
*D0000
 10
115.273438
 20
171.690528
 11
97.773438
 21
172.690521
 13
80.273438
 23
166.437500
 14
115.273438
 24
166.437500
 70
1
  0
DIMENSION
  8
CSLAYER1
 62
     7
  2
*D0001
 10
125.486639
 20
161.437500
 11
130.596298
 21
152.140533
 13
120.273438
 23
143.437500
 14
120.273438
 24
161.437500
 50
90.000000
 70
1
  0
TEXT
  8
CSLAYER1
 62
     7
 10
136.839676
 20
82.873344
 40
10.000000
 41
0.642857
  1
35x18
 50
0.000000
 51
0.000000
  7
SX_FONT
 72
     5
 11
166.839676
 21
82.873344
  0
TEXT
  8
CSLAYER1
 62
     7
 10
81.359985
 20
71.296631
 40
5.000000
 41
0.612766
  1
カタログ Vol. 1  P50
 50
0.000000
 51
0.000000
  7
SX_FONT
 72
     5
 11
129.359985
 21
71.296631
  0
TEXT
  8
CSLAYER1
 62
     7
 10
81.210013
 20
60.468684
 40
4.960742
 41
0.729057
  1
ホ%%dケットカタロク゛ Vol. 1 P23
 50
0.000000
 51
0.000000
  7
SX_FONT
 72
     5
 11
155.954370
 21
60.468684
  0
ENDSEC
  0
EOF
