  0
SECTION
  2
HEADER
  9
$ACADVER
  1
AC1006
  9
$INSBASE
 10
76.409220
 20
184.727132
 30
0.0
  9
$EXTMIN
 10
76.409220
 20
184.727132
  9
$EXTMAX
 10
286.409220
 20
481.727132
  9
$LIMMIN
 10
76.409220
 20
184.727132
  9
$LIMMAX
 10
286.409220
 20
481.727132
  9
$VIEWCTR
 10
181.409220
 20
333.227132
  9
$VIEWSIZE
 40
297.000000
  9
$SNAPMODE
 70
     0
  9
$SNAPUNIT
 10
1.0
 20
1.0
  9
$SNAPBASE
 10
0.0
 20
0.0
  9
$SNAPANG
 50
0.0
  9
$SNAPSTYLE
 70
     0
  9
$SNAPISOPAIR
 70
     0
  9
$GRIDMODE
 70
     0
  9
$GRIDUNIT
 10
0.0
 20
0.0
  9
$ORTHOMODE
 70
     0
  9
$REGENMODE
 70
     1
  9
$FILLMODE
 70
     1
  9
$QTEXTMODE
 70
     0
  9
$DRAGMODE
 70
     2
  9
$LTSCALE
 40
15.000000
  9
$OSMODE
 70
     0
  9
$ATTMODE
 70
     1
  9
$TEXTSIZE
 40
0.2
  9
$TRACEWID
 40
0.05
  9
$TEXTSTYLE
  7
STANDARD
  9
$CLAYER
  8
CSLAYER3
  9
$CELTYPE
  6
BYLAYER
  9
$CECOLOR
 62
   256
  9
$DIMSCALE
 40
1.0
  9
$DIMASZ
 40
0.18
  9
$DIMEXO
 40
0.0625
  9
$DIMDLI
 40
0.38
  9
$DIMRND
 40
0.0
  9
$DIMDLE
 40
0.0
  9
$DIMEXE
 40
0.18
  9
$DIMTP
 40
0.0
  9
$DIMTM
 40
0.0
  9
$DIMTXT
 40
0.18
  9
$DIMCEN
 40
0.09
  9
$DIMTSZ
 40
0.0
  9
$DIMTOL
 70
     0
  9
$DIMLIM
 70
     0
  9
$DIMTIH
 70
     1
  9
$DIMTOH
 70
     1
  9
$DIMSE1
 70
     0
  9
$DIMSE2
 70
     0
  9
$DIMTAD
 70
     0
  9
$DIMZIN
 70
     0
  9
$DIMBLK
  1

  9
$LUNITS
 70
     2
  9
$LUPREC
 70
     4
  9
$AXISMODE
 70
     0
  9
$AXISUNIT
 10
0.0
 20
0.0
  9
$SKETCHINC
 40
0.1
  9
$FILLETRAD
 40
0.0
  9
$AUNITS
 70
     0
  9
$AUPREC
 70
     0
  9
$MENU
  1
ACAD
  9
$ELEVATION
 40
0.0
  9
$THICKNESS
 40
0.0
  9
$VIEWDIR
 10
0.0
 20
0.0
 30
1.0
  9
$LIMCHECK
 70
     0
  9
$BLIPMODE
 70
     1
  9
$CHAMFERA
 40
0.0
  9
$CHAMFERB
 40
0.0
  9
$FASTZOOM
 70
     1
  9
$SKPOLY
 70
     0
  9
$TDCREATE
 40
0.000000
  9
$TDUPDATE
 40
0.000000
  9
$TDINDWG
 40
0.0
  9
$TDUSRTIMER
 40
0.0
  9
$USRTIMER
 70
     1
  9
$ANGBASE
 50
0.0
  9
$ANGDIR
 70
     0
  9
$PDMODE
 70
     0
  9
$PDSIZE
 40
0.0
  9
$PLINEWID
 40
0.0
  9
$COORDS
 70
     0
  9
$USERI1
 70
     0
  9
$USERI2
 70
     0
  9
$USERI3
 70
     0
  9
$USERI4
 70
     0
  9
$USERI5
 70
     0
  9
$USERR1
 40
0.0
  9
$USERR2
 40
0.0
  9
$USERR3
 40
0.0
  9
$USERR4
 40
0.0
  9
$USERR5
 40
0.0
  0
ENDSEC
  0
SECTION
  2
TABLES
  0
TABLE
  2
LTYPE
 70
     9
  0
LTYPE
  2
CONTINUOUS
 70
    64
  3
Solid line
 72
    65
 73
     0
 40
0.0
  0
LTYPE
  2
DASHED
 70
    64
  3
__ __ __ __ __ __ __ __ __ __ __ __ __ __ __
 72
    65
 73
     2
 40
0.75
 49
0.5
 49
-0.25
  0
LTYPE
  2
HIDDEN
 70
    64
  3
_ _ _ _ _ _ _ _ _ _ _ _ _ _ _ _ _ _ _ _ _ _ _
 72
    65
 73
     2
 40
0.375
 49
0.25
 49
-0.125
  0
LTYPE
  2
DOT
 70
    64
  3
...............................................
 72
    65
 73
     2
 40
0.25
 49
0.0
 49
-0.25
  0
LTYPE
  2
DASHDOT
 70
    64
  3
__ . __ . __ . __ . __ . __ . __ . __ . __ . __
 72
    65
 73
     4
 40
1.0
 49
0.5
 49
-0.25
 49
0.0
 49
-0.25
  0
LTYPE
  2
DIVIDE
 70
    64
  3
__ . . __ . . __ . . __ . . __ . . __ . . __
 72
    65
 73
     6
 40
1.25
 49
0.5
 49
-0.25
 49
0.0
 49
-0.25
 49
0.0
 49
-0.25
  0
LTYPE
  2
CENTER
 70
    64
  3
____ _ ____ _ ____ _ ____ _ ____ _ ____ _ ____ 
 72
    65
 73
     4
 40
2.0
 49
1.25
 49
-0.25
 49
0.25
 49
-0.25
  0
LTYPE
  2
PHANTOM
 70
    64
  3
______  __  __  ______  __  __  ______  __  __ 
 72
    65
 73
     6
 40
2.5
 49
1.25
 49
-0.25
 49
0.25
 49
-0.25
 49
0.25
 49
-0.25
  0
LTYPE
  2
BORDER
 70
    64
  3
__ __ . __ __ . __ __ . __ __ . __ __ . __ __ .
 72
    65
 73
     6
 40
1.75
 49
0.5
 49
-0.25
 49
0.5
 49
-0.25
 49
0.0
 49
-0.25
  0
ENDTAB
  0
TABLE
  2
LAYER
 70
    16
  0
LAYER
  2
CSLAYER1
 70
    64
 62
     7
  6
CONTINUOUS
  0
LAYER
  2
CSLAYER2
 70
    64
 62
     7
  6
CONTINUOUS
  0
LAYER
  2
CSLAYER3
 70
    64
 62
     7
  6
CONTINUOUS
  0
LAYER
  2
CSLAYER4
 70
    64
 62
     7
  6
CONTINUOUS
  0
LAYER
  2
CSLAYER5
 70
    64
 62
     7
  6
CONTINUOUS
  0
LAYER
  2
CSLAYER6
 70
    64
 62
     7
  6
CONTINUOUS
  0
LAYER
  2
CSLAYER7
 70
    64
 62
     7
  6
CONTINUOUS
  0
LAYER
  2
CSLAYER8
 70
    64
 62
     7
  6
CONTINUOUS
  0
LAYER
  2
CSLAYER9
 70
    64
 62
     7
  6
CONTINUOUS
  0
LAYER
  2
CSLAYER10
 70
    64
 62
     7
  6
CONTINUOUS
  0
LAYER
  2
CSLAYER11
 70
    64
 62
     7
  6
CONTINUOUS
  0
LAYER
  2
CSLAYER12
 70
    64
 62
     7
  6
CONTINUOUS
  0
LAYER
  2
CSLAYER13
 70
    64
 62
     7
  6
CONTINUOUS
  0
LAYER
  2
CSLAYER14
 70
    64
 62
     7
  6
CONTINUOUS
  0
LAYER
  2
CSLAYER15
 70
    64
 62
     7
  6
CONTINUOUS
  0
LAYER
  2
CSLAYER16
 70
    64
 62
     7
  6
CONTINUOUS
  0
ENDTAB
  0
TABLE
  2
STYLE
 70
     1
  0
STYLE
  2
SX_FONT
 70
     0
 40
1.0
 41
1.0
 50
0.0
 71
     0
 42
1.0
  3
monotxt
  4
bigfont
  0
ENDTAB
  0
TABLE
  2
VIEW
 70
     0
  0
ENDTAB
  0
ENDSEC
  0
SECTION
  2
BLOCKS
  0
BLOCK
  8
CSLAYER1
  2
*D0000
 70
    65
 10
0.0
 20
0.0
 30
0.0
  0
LINE
  8
CSLAYER1
  6
CONTINUOUS
 62
     7
 10
76.117188
 20
181.171875
 11
76.117188
 21
186.192059
  0
LINE
  8
CSLAYER1
  6
CONTINUOUS
 62
     7
 10
116.117188
 20
181.171875
 11
116.117188
 21
186.192059
  0
LINE
  8
CSLAYER1
  6
CONTINUOUS
 62
     7
 10
76.117188
 20
185.192059
 11
116.117188
 21
185.192059
  0
LINE
  8
CSLAYER1
  6
CONTINUOUS
 62
     7
 10
76.117188
 20
185.192059
 11
79.980891
 21
186.227335
  0
LINE
  8
CSLAYER1
  6
CONTINUOUS
 62
     7
 10
76.117188
 20
185.192059
 11
79.980891
 21
184.156783
  0
LINE
  8
CSLAYER1
  6
CONTINUOUS
 62
     7
 10
116.117188
 20
185.192059
 11
112.253484
 21
186.227335
  0
LINE
  8
CSLAYER1
  6
CONTINUOUS
 62
     7
 10
116.117188
 20
185.192059
 11
112.253484
 21
184.156783
  0
TEXT
  8
CSLAYER1
 62
     7
 10
93.117188
 20
186.192062
 40
4.000000
 41
0.900000
  1
40
 50
0.000000
 51
0.000000
  7
SX_FONT
 72
     5
 11
99.117188
 21
186.192062
  0
ENDBLK
  8
0
  0
BLOCK
  8
CSLAYER1
  2
*D0001
 70
    65
 10
0.0
 20
0.0
 30
0.0
  0
LINE
  8
CSLAYER1
  6
CONTINUOUS
 62
     7
 10
122.117188
 20
160.171875
 11
127.143799
 21
160.171875
  0
LINE
  8
CSLAYER1
  6
CONTINUOUS
 62
     7
 10
122.117188
 20
175.171875
 11
127.143799
 21
175.171875
  0
LINE
  8
CSLAYER1
  6
CONTINUOUS
 62
     7
 10
126.143799
 20
160.171875
 11
126.143799
 21
175.171875
  0
LINE
  8
CSLAYER1
  6
CONTINUOUS
 62
     7
 10
126.143799
 20
160.171875
 11
125.108523
 21
164.035578
  0
LINE
  8
CSLAYER1
  6
CONTINUOUS
 62
     7
 10
126.143799
 20
160.171875
 11
127.179075
 21
164.035578
  0
LINE
  8
CSLAYER1
  6
CONTINUOUS
 62
     7
 10
126.143799
 20
175.171875
 11
125.108523
 21
171.308172
  0
LINE
  8
CSLAYER1
  6
CONTINUOUS
 62
     7
 10
126.143799
 20
175.171875
 11
127.179075
 21
171.308172
  0
TEXT
  8
CSLAYER1
 62
     7
 10
131.280685
 20
164.763336
 40
4.000000
 41
0.900000
  1
15
 50
90.000000
 51
0.000000
  7
SX_FONT
 72
     5
 11
131.280685
 21
170.763336
  0
ENDBLK
  8
0
  0
ENDSEC
  0
SECTION
  2
ENTITIES
  0
LINE
  8
CSLAYER2
  6
CONTINUOUS
 62
     7
 10
116.117188
 20
160.171875
 11
76.117188
 21
160.171875
  0
ARC
  8
CSLAYER2
  6
CONTINUOUS
 62
     7
 10
112.617188
 20
171.671875
 40
3.500000
 50
0.000000
 51
172.190930
  0
ARC
  8
CSLAYER2
  6
CONTINUOUS
 62
     7
 10
103.117188
 20
164.171875
 40
10.000000
 50
52.872553
 51
148.254363
  0
LINE
  8
CSLAYER4
  6
CONTINUOUS
 62
     7
 10
76.117188
 20
160.171875
 11
76.117188
 21
165.171875
  0
LINE
  8
CSLAYER2
  6
CONTINUOUS
 62
     7
 10
76.117188
 20
160.171875
 11
76.117188
 21
161.171875
  0
LINE
  8
CSLAYER2
  6
CONTINUOUS
 62
     7
 10
81.117188
 20
165.171875
 11
76.117188
 21
165.171875
  0
ARC
  8
CSLAYER2
  6
CONTINUOUS
 62
     7
 10
88.489289
 20
174.309373
 40
7.828059
 50
243.893480
 51
321.472638
  0
ARC
  8
CSLAYER4
  6
CONTINUOUS
 62
     7
 10
83.848711
 20
164.795457
 40
2.757338
 50
63.700552
 51
172.153767
  0
LINE
  8
CSLAYER2
  6
CONTINUOUS
 62
     7
 10
116.117188
 20
171.671875
 11
116.117188
 21
160.171875
  0
TEXT
  8
CSLAYER1
 62
     7
 10
76.060326
 20
99.757622
 40
10.000000
 41
0.630000
  1
FM-2083
 50
0.000000
 51
0.000000
  7
SX_FONT
 72
     5
 11
118.060326
 21
99.757622
  0
DIMENSION
  8
CSLAYER1
 62
     7
  2
*D0000
 10
116.117188
 20
185.192059
 11
96.117188
 21
186.192062
 13
76.117188
 23
180.171875
 14
116.117188
 24
180.171875
 70
1
  0
DIMENSION
  8
CSLAYER1
 62
     7
  2
*D0001
 10
126.143799
 20
175.171875
 11
131.280685
 21
167.763336
 13
121.117188
 23
160.171875
 14
121.117188
 24
175.171875
 50
90.000000
 70
1
  0
TEXT
  8
CSLAYER1
 62
     7
 10
131.615067
 20
99.870110
 40
10.000000
 41
0.642857
  1
40x15
 50
0.000000
 51
0.000000
  7
SX_FONT
 72
     5
 11
161.615067
 21
99.870110
  0
TEXT
  8
CSLAYER1
 62
     7
 10
76.135376
 20
88.293404
 40
5.000000
 41
0.612766
  1
カタログ Vol. 1  P49
 50
0.000000
 51
0.000000
  7
SX_FONT
 72
     5
 11
124.135376
 21
88.293404
  0
TEXT
  8
CSLAYER1
 62
     7
 10
76.435408
 20
77.458960
 40
4.960742
 41
0.729057
  1
ホ%%dケットカタロク゛ Vol. 1 P22
 50
0.000000
 51
0.000000
  7
SX_FONT
 72
     5
 11
151.179765
 21
77.458960
  0
ENDSEC
  0
EOF
