  0
SECTION
  2
HEADER
  9
$ACADVER
  1
AC1006
  9
$INSBASE
 10
84.593424
 20
166.761719
 30
0.0
  9
$EXTMIN
 10
84.593424
 20
166.761719
  9
$EXTMAX
 10
294.593424
 20
463.761719
  9
$LIMMIN
 10
84.593424
 20
166.761719
  9
$LIMMAX
 10
294.593424
 20
463.761719
  9
$VIEWCTR
 10
189.593424
 20
315.261719
  9
$VIEWSIZE
 40
297.000000
  9
$SNAPMODE
 70
     0
  9
$SNAPUNIT
 10
1.0
 20
1.0
  9
$SNAPBASE
 10
0.0
 20
0.0
  9
$SNAPANG
 50
0.0
  9
$SNAPSTYLE
 70
     0
  9
$SNAPISOPAIR
 70
     0
  9
$GRIDMODE
 70
     0
  9
$GRIDUNIT
 10
0.0
 20
0.0
  9
$ORTHOMODE
 70
     0
  9
$REGENMODE
 70
     1
  9
$FILLMODE
 70
     1
  9
$QTEXTMODE
 70
     0
  9
$DRAGMODE
 70
     2
  9
$LTSCALE
 40
15.000000
  9
$OSMODE
 70
     0
  9
$ATTMODE
 70
     1
  9
$TEXTSIZE
 40
0.2
  9
$TRACEWID
 40
0.05
  9
$TEXTSTYLE
  7
STANDARD
  9
$CLAYER
  8
CSLAYER3
  9
$CELTYPE
  6
BYLAYER
  9
$CECOLOR
 62
   256
  9
$DIMSCALE
 40
1.0
  9
$DIMASZ
 40
0.18
  9
$DIMEXO
 40
0.0625
  9
$DIMDLI
 40
0.38
  9
$DIMRND
 40
0.0
  9
$DIMDLE
 40
0.0
  9
$DIMEXE
 40
0.18
  9
$DIMTP
 40
0.0
  9
$DIMTM
 40
0.0
  9
$DIMTXT
 40
0.18
  9
$DIMCEN
 40
0.09
  9
$DIMTSZ
 40
0.0
  9
$DIMTOL
 70
     0
  9
$DIMLIM
 70
     0
  9
$DIMTIH
 70
     1
  9
$DIMTOH
 70
     1
  9
$DIMSE1
 70
     0
  9
$DIMSE2
 70
     0
  9
$DIMTAD
 70
     0
  9
$DIMZIN
 70
     0
  9
$DIMBLK
  1

  9
$LUNITS
 70
     2
  9
$LUPREC
 70
     4
  9
$AXISMODE
 70
     0
  9
$AXISUNIT
 10
0.0
 20
0.0
  9
$SKETCHINC
 40
0.1
  9
$FILLETRAD
 40
0.0
  9
$AUNITS
 70
     0
  9
$AUPREC
 70
     0
  9
$MENU
  1
ACAD
  9
$ELEVATION
 40
0.0
  9
$THICKNESS
 40
0.0
  9
$VIEWDIR
 10
0.0
 20
0.0
 30
1.0
  9
$LIMCHECK
 70
     0
  9
$BLIPMODE
 70
     1
  9
$CHAMFERA
 40
0.0
  9
$CHAMFERB
 40
0.0
  9
$FASTZOOM
 70
     1
  9
$SKPOLY
 70
     0
  9
$TDCREATE
 40
0.000000
  9
$TDUPDATE
 40
0.000000
  9
$TDINDWG
 40
0.0
  9
$TDUSRTIMER
 40
0.0
  9
$USRTIMER
 70
     1
  9
$ANGBASE
 50
0.0
  9
$ANGDIR
 70
     0
  9
$PDMODE
 70
     0
  9
$PDSIZE
 40
0.0
  9
$PLINEWID
 40
0.0
  9
$COORDS
 70
     0
  9
$USERI1
 70
     0
  9
$USERI2
 70
     0
  9
$USERI3
 70
     0
  9
$USERI4
 70
     0
  9
$USERI5
 70
     0
  9
$USERR1
 40
0.0
  9
$USERR2
 40
0.0
  9
$USERR3
 40
0.0
  9
$USERR4
 40
0.0
  9
$USERR5
 40
0.0
  0
ENDSEC
  0
SECTION
  2
TABLES
  0
TABLE
  2
LTYPE
 70
     9
  0
LTYPE
  2
CONTINUOUS
 70
    64
  3
Solid line
 72
    65
 73
     0
 40
0.0
  0
LTYPE
  2
DASHED
 70
    64
  3
__ __ __ __ __ __ __ __ __ __ __ __ __ __ __
 72
    65
 73
     2
 40
0.75
 49
0.5
 49
-0.25
  0
LTYPE
  2
HIDDEN
 70
    64
  3
_ _ _ _ _ _ _ _ _ _ _ _ _ _ _ _ _ _ _ _ _ _ _
 72
    65
 73
     2
 40
0.375
 49
0.25
 49
-0.125
  0
LTYPE
  2
DOT
 70
    64
  3
...............................................
 72
    65
 73
     2
 40
0.25
 49
0.0
 49
-0.25
  0
LTYPE
  2
DASHDOT
 70
    64
  3
__ . __ . __ . __ . __ . __ . __ . __ . __ . __
 72
    65
 73
     4
 40
1.0
 49
0.5
 49
-0.25
 49
0.0
 49
-0.25
  0
LTYPE
  2
DIVIDE
 70
    64
  3
__ . . __ . . __ . . __ . . __ . . __ . . __
 72
    65
 73
     6
 40
1.25
 49
0.5
 49
-0.25
 49
0.0
 49
-0.25
 49
0.0
 49
-0.25
  0
LTYPE
  2
CENTER
 70
    64
  3
____ _ ____ _ ____ _ ____ _ ____ _ ____ _ ____ 
 72
    65
 73
     4
 40
2.0
 49
1.25
 49
-0.25
 49
0.25
 49
-0.25
  0
LTYPE
  2
PHANTOM
 70
    64
  3
______  __  __  ______  __  __  ______  __  __ 
 72
    65
 73
     6
 40
2.5
 49
1.25
 49
-0.25
 49
0.25
 49
-0.25
 49
0.25
 49
-0.25
  0
LTYPE
  2
BORDER
 70
    64
  3
__ __ . __ __ . __ __ . __ __ . __ __ . __ __ .
 72
    65
 73
     6
 40
1.75
 49
0.5
 49
-0.25
 49
0.5
 49
-0.25
 49
0.0
 49
-0.25
  0
ENDTAB
  0
TABLE
  2
LAYER
 70
    16
  0
LAYER
  2
CSLAYER1
 70
    64
 62
     7
  6
CONTINUOUS
  0
LAYER
  2
CSLAYER2
 70
    64
 62
     7
  6
CONTINUOUS
  0
LAYER
  2
CSLAYER3
 70
    64
 62
     7
  6
CONTINUOUS
  0
LAYER
  2
CSLAYER4
 70
    64
 62
     7
  6
CONTINUOUS
  0
LAYER
  2
CSLAYER5
 70
    64
 62
     7
  6
CONTINUOUS
  0
LAYER
  2
CSLAYER6
 70
    64
 62
     7
  6
CONTINUOUS
  0
LAYER
  2
CSLAYER7
 70
    64
 62
     7
  6
CONTINUOUS
  0
LAYER
  2
CSLAYER8
 70
    64
 62
     7
  6
CONTINUOUS
  0
LAYER
  2
CSLAYER9
 70
    64
 62
     7
  6
CONTINUOUS
  0
LAYER
  2
CSLAYER10
 70
    64
 62
     7
  6
CONTINUOUS
  0
LAYER
  2
CSLAYER11
 70
    64
 62
     7
  6
CONTINUOUS
  0
LAYER
  2
CSLAYER12
 70
    64
 62
     7
  6
CONTINUOUS
  0
LAYER
  2
CSLAYER13
 70
    64
 62
     7
  6
CONTINUOUS
  0
LAYER
  2
CSLAYER14
 70
    64
 62
     7
  6
CONTINUOUS
  0
LAYER
  2
CSLAYER15
 70
    64
 62
     7
  6
CONTINUOUS
  0
LAYER
  2
CSLAYER16
 70
    64
 62
     7
  6
CONTINUOUS
  0
ENDTAB
  0
TABLE
  2
STYLE
 70
     1
  0
STYLE
  2
SX_FONT
 70
     0
 40
1.0
 41
1.0
 50
0.0
 71
     0
 42
1.0
  3
monotxt
  4
bigfont
  0
ENDTAB
  0
TABLE
  2
VIEW
 70
     0
  0
ENDTAB
  0
ENDSEC
  0
SECTION
  2
BLOCKS
  0
BLOCK
  8
CSLAYER1
  2
*D0000
 70
    65
 10
0.0
 20
0.0
 30
0.0
  0
LINE
  8
CSLAYER1
  6
CONTINUOUS
 62
     7
 10
84.367188
 20
163.218750
 11
84.367188
 21
168.304680
  0
LINE
  8
CSLAYER1
  6
CONTINUOUS
 62
     7
 10
118.367187
 20
163.218750
 11
118.367187
 21
168.304680
  0
LINE
  8
CSLAYER1
  6
CONTINUOUS
 62
     7
 10
84.367188
 20
167.304680
 11
118.367187
 21
167.304680
  0
LINE
  8
CSLAYER1
  6
CONTINUOUS
 62
     7
 10
84.367188
 20
167.304680
 11
88.230891
 21
168.339956
  0
LINE
  8
CSLAYER1
  6
CONTINUOUS
 62
     7
 10
84.367188
 20
167.304680
 11
88.230891
 21
166.269404
  0
LINE
  8
CSLAYER1
  6
CONTINUOUS
 62
     7
 10
118.367187
 20
167.304680
 11
114.503484
 21
168.339956
  0
LINE
  8
CSLAYER1
  6
CONTINUOUS
 62
     7
 10
118.367187
 20
167.304680
 11
114.503484
 21
166.269404
  0
TEXT
  8
CSLAYER1
 62
     7
 10
98.367188
 20
168.304688
 40
4.000000
 41
0.900000
  1
34
 50
0.000000
 51
0.000000
  7
SX_FONT
 72
     5
 11
104.367188
 21
168.304688
  0
ENDBLK
  8
0
  0
BLOCK
  8
CSLAYER1
  2
*D0001
 70
    65
 10
0.0
 20
0.0
 30
0.0
  0
LINE
  8
CSLAYER1
  6
CONTINUOUS
 62
     7
 10
124.367187
 20
144.218750
 11
129.620513
 21
144.218750
  0
LINE
  8
CSLAYER1
  6
CONTINUOUS
 62
     7
 10
124.367187
 20
157.218750
 11
129.620513
 21
157.218750
  0
LINE
  8
CSLAYER1
  6
CONTINUOUS
 62
     7
 10
128.620513
 20
144.218750
 11
128.620513
 21
157.218750
  0
LINE
  8
CSLAYER1
  6
CONTINUOUS
 62
     7
 10
128.620513
 20
138.218750
 11
128.620513
 21
144.218750
  0
LINE
  8
CSLAYER1
  6
CONTINUOUS
 62
     7
 10
128.620513
 20
144.218750
 11
127.585237
 21
140.355047
  0
LINE
  8
CSLAYER1
  6
CONTINUOUS
 62
     7
 10
128.620513
 20
144.218750
 11
129.655789
 21
140.355047
  0
LINE
  8
CSLAYER1
  6
CONTINUOUS
 62
     7
 10
128.620513
 20
157.218750
 11
128.620513
 21
163.218750
  0
LINE
  8
CSLAYER1
  6
CONTINUOUS
 62
     7
 10
128.620513
 20
157.218750
 11
127.585237
 21
161.082453
  0
LINE
  8
CSLAYER1
  6
CONTINUOUS
 62
     7
 10
128.620513
 20
157.218750
 11
129.655789
 21
161.082453
  0
TEXT
  8
CSLAYER1
 62
     7
 10
133.620514
 20
147.718750
 40
4.000000
 41
0.900000
  1
13
 50
90.000000
 51
0.000000
  7
SX_FONT
 72
     5
 11
133.620514
 21
153.718750
  0
ENDBLK
  8
0
  0
ENDSEC
  0
SECTION
  2
ENTITIES
  0
ARC
  8
CSLAYER2
  6
CONTINUOUS
 62
     7
 10
118.367187
 20
151.718750
 40
5.000000
 50
180.000000
 51
270.000000
  0
ARC
  8
CSLAYER2
  6
CONTINUOUS
 62
     7
 10
93.845266
 20
156.495863
 40
9.000000
 50
282.777881
 51
344.561895
  0
LINE
  8
CSLAYER2
  6
CONTINUOUS
 62
     7
 10
110.867187
 20
152.968750
 11
110.867187
 21
152.718750
  0
LINE
  8
CSLAYER2
  6
CONTINUOUS
 62
     7
 10
110.867187
 20
152.718750
 11
113.367187
 21
152.718750
  0
LINE
  8
CSLAYER2
  6
CONTINUOUS
 62
     7
 10
113.367187
 20
152.718750
 11
113.367187
 21
151.718750
  0
LINE
  8
CSLAYER2
  6
CONTINUOUS
 62
     7
 10
87.867187
 20
147.218750
 11
84.367188
 21
147.218750
  0
LINE
  8
CSLAYER2
  6
CONTINUOUS
 62
     7
 10
84.367188
 20
147.218750
 11
84.367188
 21
144.218750
  0
LINE
  8
CSLAYER2
  6
CONTINUOUS
 62
     7
 10
84.367188
 20
144.218750
 11
118.367187
 21
144.218750
  0
LINE
  8
CSLAYER2
  6
CONTINUOUS
 62
     7
 10
118.367187
 20
144.218750
 11
118.367187
 21
146.718750
  0
ARC
  8
CSLAYER2
  6
CONTINUOUS
 62
     7
 10
106.617187
 20
152.968750
 40
4.250000
 50
90.000000
 51
164.561895
  0
ARC
  8
CSLAYER2
  6
CONTINUOUS
 62
     7
 10
106.617187
 20
152.968750
 40
4.250000
 50
-0.000000
 51
90.000000
  0
ARC
  8
CSLAYER2
  6
CONTINUOUS
 62
     7
 10
91.867187
 20
147.218750
 40
4.000000
 50
90.000000
 51
180.000000
  0
ARC
  8
CSLAYER2
  6
CONTINUOUS
 62
     7
 10
91.867187
 20
147.218750
 40
4.000000
 50
7.180756
 51
90.000000
  0
TEXT
  8
CSLAYER1
 62
     7
 10
83.976349
 20
83.924133
 40
10.000000
 41
0.630000
  1
FM-2080
 50
0.000000
 51
0.000000
  7
SX_FONT
 72
     5
 11
125.976349
 21
83.924133
  0
DIMENSION
  8
CSLAYER1
 62
     7
  2
*D0000
 10
118.367187
 20
167.304680
 11
101.367188
 21
168.304688
 13
84.367188
 23
162.218750
 14
118.367187
 24
162.218750
 70
1
  0
DIMENSION
  8
CSLAYER1
 62
     7
  2
*D0001
 10
128.620513
 20
157.218750
 11
129.620514
 21
150.718750
 13
123.367187
 23
144.218750
 14
123.367187
 24
157.218750
 50
90.000000
 70
1
  0
TEXT
  8
CSLAYER1
 62
     7
 10
140.789063
 20
83.687500
 40
10.000000
 41
0.642857
  1
34x13
 50
0.000000
 51
0.000000
  7
SX_FONT
 72
     5
 11
170.789063
 21
83.687500
  0
TEXT
  8
CSLAYER1
 62
     7
 10
84.860115
 20
71.239624
 40
5.000000
 41
0.612766
  1
カタログ Vol. 1  P49
 50
0.000000
 51
0.000000
  7
SX_FONT
 72
     5
 11
132.860115
 21
71.239624
  0
TEXT
  8
CSLAYER1
 62
     7
 10
84.801398
 20
60.306746
 40
4.960742
 41
0.729057
  1
ホ%%dケットカタロク゛ Vol. 1 P22
 50
0.000000
 51
0.000000
  7
SX_FONT
 72
     5
 11
159.545755
 21
60.306746
  0
ENDSEC
  0
EOF
