  0
SECTION
  2
HEADER
  9
$ACADVER
  1
AC1006
  9
$INSBASE
 10
83.353149
 20
154.990072
 30
0.0
  9
$EXTMIN
 10
83.353149
 20
154.990072
  9
$EXTMAX
 10
293.353149
 20
451.990072
  9
$LIMMIN
 10
83.353149
 20
154.990072
  9
$LIMMAX
 10
293.353149
 20
451.990072
  9
$VIEWCTR
 10
188.353149
 20
303.490072
  9
$VIEWSIZE
 40
297.000000
  9
$SNAPMODE
 70
     0
  9
$SNAPUNIT
 10
1.0
 20
1.0
  9
$SNAPBASE
 10
0.0
 20
0.0
  9
$SNAPANG
 50
0.0
  9
$SNAPSTYLE
 70
     0
  9
$SNAPISOPAIR
 70
     0
  9
$GRIDMODE
 70
     0
  9
$GRIDUNIT
 10
0.0
 20
0.0
  9
$ORTHOMODE
 70
     0
  9
$REGENMODE
 70
     1
  9
$FILLMODE
 70
     1
  9
$QTEXTMODE
 70
     0
  9
$DRAGMODE
 70
     2
  9
$LTSCALE
 40
15.000000
  9
$OSMODE
 70
     0
  9
$ATTMODE
 70
     1
  9
$TEXTSIZE
 40
0.2
  9
$TRACEWID
 40
0.05
  9
$TEXTSTYLE
  7
STANDARD
  9
$CLAYER
  8
CSLAYER3
  9
$CELTYPE
  6
BYLAYER
  9
$CECOLOR
 62
   256
  9
$DIMSCALE
 40
1.0
  9
$DIMASZ
 40
0.18
  9
$DIMEXO
 40
0.0625
  9
$DIMDLI
 40
0.38
  9
$DIMRND
 40
0.0
  9
$DIMDLE
 40
0.0
  9
$DIMEXE
 40
0.18
  9
$DIMTP
 40
0.0
  9
$DIMTM
 40
0.0
  9
$DIMTXT
 40
0.18
  9
$DIMCEN
 40
0.09
  9
$DIMTSZ
 40
0.0
  9
$DIMTOL
 70
     0
  9
$DIMLIM
 70
     0
  9
$DIMTIH
 70
     1
  9
$DIMTOH
 70
     1
  9
$DIMSE1
 70
     0
  9
$DIMSE2
 70
     0
  9
$DIMTAD
 70
     0
  9
$DIMZIN
 70
     0
  9
$DIMBLK
  1

  9
$LUNITS
 70
     2
  9
$LUPREC
 70
     4
  9
$AXISMODE
 70
     0
  9
$AXISUNIT
 10
0.0
 20
0.0
  9
$SKETCHINC
 40
0.1
  9
$FILLETRAD
 40
0.0
  9
$AUNITS
 70
     0
  9
$AUPREC
 70
     0
  9
$MENU
  1
ACAD
  9
$ELEVATION
 40
0.0
  9
$THICKNESS
 40
0.0
  9
$VIEWDIR
 10
0.0
 20
0.0
 30
1.0
  9
$LIMCHECK
 70
     0
  9
$BLIPMODE
 70
     1
  9
$CHAMFERA
 40
0.0
  9
$CHAMFERB
 40
0.0
  9
$FASTZOOM
 70
     1
  9
$SKPOLY
 70
     0
  9
$TDCREATE
 40
0.000000
  9
$TDUPDATE
 40
0.000000
  9
$TDINDWG
 40
0.0
  9
$TDUSRTIMER
 40
0.0
  9
$USRTIMER
 70
     1
  9
$ANGBASE
 50
0.0
  9
$ANGDIR
 70
     0
  9
$PDMODE
 70
     0
  9
$PDSIZE
 40
0.0
  9
$PLINEWID
 40
0.0
  9
$COORDS
 70
     0
  9
$USERI1
 70
     0
  9
$USERI2
 70
     0
  9
$USERI3
 70
     0
  9
$USERI4
 70
     0
  9
$USERI5
 70
     0
  9
$USERR1
 40
0.0
  9
$USERR2
 40
0.0
  9
$USERR3
 40
0.0
  9
$USERR4
 40
0.0
  9
$USERR5
 40
0.0
  0
ENDSEC
  0
SECTION
  2
TABLES
  0
TABLE
  2
LTYPE
 70
     9
  0
LTYPE
  2
CONTINUOUS
 70
    64
  3
Solid line
 72
    65
 73
     0
 40
0.0
  0
LTYPE
  2
DASHED
 70
    64
  3
__ __ __ __ __ __ __ __ __ __ __ __ __ __ __
 72
    65
 73
     2
 40
0.75
 49
0.5
 49
-0.25
  0
LTYPE
  2
HIDDEN
 70
    64
  3
_ _ _ _ _ _ _ _ _ _ _ _ _ _ _ _ _ _ _ _ _ _ _
 72
    65
 73
     2
 40
0.375
 49
0.25
 49
-0.125
  0
LTYPE
  2
DOT
 70
    64
  3
...............................................
 72
    65
 73
     2
 40
0.25
 49
0.0
 49
-0.25
  0
LTYPE
  2
DASHDOT
 70
    64
  3
__ . __ . __ . __ . __ . __ . __ . __ . __ . __
 72
    65
 73
     4
 40
1.0
 49
0.5
 49
-0.25
 49
0.0
 49
-0.25
  0
LTYPE
  2
DIVIDE
 70
    64
  3
__ . . __ . . __ . . __ . . __ . . __ . . __
 72
    65
 73
     6
 40
1.25
 49
0.5
 49
-0.25
 49
0.0
 49
-0.25
 49
0.0
 49
-0.25
  0
LTYPE
  2
CENTER
 70
    64
  3
____ _ ____ _ ____ _ ____ _ ____ _ ____ _ ____ 
 72
    65
 73
     4
 40
2.0
 49
1.25
 49
-0.25
 49
0.25
 49
-0.25
  0
LTYPE
  2
PHANTOM
 70
    64
  3
______  __  __  ______  __  __  ______  __  __ 
 72
    65
 73
     6
 40
2.5
 49
1.25
 49
-0.25
 49
0.25
 49
-0.25
 49
0.25
 49
-0.25
  0
LTYPE
  2
BORDER
 70
    64
  3
__ __ . __ __ . __ __ . __ __ . __ __ . __ __ .
 72
    65
 73
     6
 40
1.75
 49
0.5
 49
-0.25
 49
0.5
 49
-0.25
 49
0.0
 49
-0.25
  0
ENDTAB
  0
TABLE
  2
LAYER
 70
    16
  0
LAYER
  2
CSLAYER1
 70
    64
 62
     7
  6
CONTINUOUS
  0
LAYER
  2
CSLAYER2
 70
    64
 62
     7
  6
CONTINUOUS
  0
LAYER
  2
CSLAYER3
 70
    64
 62
     7
  6
CONTINUOUS
  0
LAYER
  2
CSLAYER4
 70
    64
 62
     7
  6
CONTINUOUS
  0
LAYER
  2
CSLAYER5
 70
    64
 62
     7
  6
CONTINUOUS
  0
LAYER
  2
CSLAYER6
 70
    64
 62
     7
  6
CONTINUOUS
  0
LAYER
  2
CSLAYER7
 70
    64
 62
     7
  6
CONTINUOUS
  0
LAYER
  2
CSLAYER8
 70
    64
 62
     7
  6
CONTINUOUS
  0
LAYER
  2
CSLAYER9
 70
    64
 62
     7
  6
CONTINUOUS
  0
LAYER
  2
CSLAYER10
 70
    64
 62
     7
  6
CONTINUOUS
  0
LAYER
  2
CSLAYER11
 70
    64
 62
     7
  6
CONTINUOUS
  0
LAYER
  2
CSLAYER12
 70
    64
 62
     7
  6
CONTINUOUS
  0
LAYER
  2
CSLAYER13
 70
    64
 62
     7
  6
CONTINUOUS
  0
LAYER
  2
CSLAYER14
 70
    64
 62
     7
  6
CONTINUOUS
  0
LAYER
  2
CSLAYER15
 70
    64
 62
     7
  6
CONTINUOUS
  0
LAYER
  2
CSLAYER16
 70
    64
 62
     7
  6
CONTINUOUS
  0
ENDTAB
  0
TABLE
  2
STYLE
 70
     1
  0
STYLE
  2
SX_FONT
 70
     0
 40
1.0
 41
1.0
 50
0.0
 71
     0
 42
1.0
  3
monotxt
  4
bigfont
  0
ENDTAB
  0
TABLE
  2
VIEW
 70
     0
  0
ENDTAB
  0
ENDSEC
  0
SECTION
  2
BLOCKS
  0
BLOCK
  8
CSLAYER1
  2
*D0000
 70
    65
 10
0.0
 20
0.0
 30
0.0
  0
LINE
  8
CSLAYER1
  6
CONTINUOUS
 62
     7
 10
83.398438
 20
150.843750
 11
83.398438
 21
155.939743
  0
LINE
  8
CSLAYER1
  6
CONTINUOUS
 62
     7
 10
109.898438
 20
150.843750
 11
109.898438
 21
155.939743
  0
LINE
  8
CSLAYER1
  6
CONTINUOUS
 62
     7
 10
83.398438
 20
154.939743
 11
109.898438
 21
154.939743
  0
LINE
  8
CSLAYER1
  6
CONTINUOUS
 62
     7
 10
83.398438
 20
154.939743
 11
87.262141
 21
155.975019
  0
LINE
  8
CSLAYER1
  6
CONTINUOUS
 62
     7
 10
83.398438
 20
154.939743
 11
87.262141
 21
153.904467
  0
LINE
  8
CSLAYER1
  6
CONTINUOUS
 62
     7
 10
109.898438
 20
154.939743
 11
106.034734
 21
155.975019
  0
LINE
  8
CSLAYER1
  6
CONTINUOUS
 62
     7
 10
109.898438
 20
154.939743
 11
106.034734
 21
153.904467
  0
TEXT
  8
CSLAYER1
 62
     7
 10
93.648438
 20
155.939743
 40
4.000000
 41
0.900000
  1
26
 50
0.000000
 51
0.000000
  7
SX_FONT
 72
     5
 11
99.648438
 21
155.939743
  0
ENDBLK
  8
0
  0
BLOCK
  8
CSLAYER1
  2
*D0001
 70
    65
 10
0.0
 20
0.0
 30
0.0
  0
LINE
  8
CSLAYER1
  6
CONTINUOUS
 62
     7
 10
115.898438
 20
135.843750
 11
120.815136
 21
135.843750
  0
LINE
  8
CSLAYER1
  6
CONTINUOUS
 62
     7
 10
115.898438
 20
144.843750
 11
120.815136
 21
144.843750
  0
LINE
  8
CSLAYER1
  6
CONTINUOUS
 62
     7
 10
119.815136
 20
135.843750
 11
119.815136
 21
144.843750
  0
LINE
  8
CSLAYER1
  6
CONTINUOUS
 62
     7
 10
119.815136
 20
129.843750
 11
119.815136
 21
135.843750
  0
LINE
  8
CSLAYER1
  6
CONTINUOUS
 62
     7
 10
119.815136
 20
135.843750
 11
118.779859
 21
131.980047
  0
LINE
  8
CSLAYER1
  6
CONTINUOUS
 62
     7
 10
119.815136
 20
135.843750
 11
120.850412
 21
131.980047
  0
LINE
  8
CSLAYER1
  6
CONTINUOUS
 62
     7
 10
119.815136
 20
144.843750
 11
119.815136
 21
150.843750
  0
LINE
  8
CSLAYER1
  6
CONTINUOUS
 62
     7
 10
119.815136
 20
144.843750
 11
118.779859
 21
148.707453
  0
LINE
  8
CSLAYER1
  6
CONTINUOUS
 62
     7
 10
119.815136
 20
144.843750
 11
120.850412
 21
148.707453
  0
TEXT
  8
CSLAYER1
 62
     7
 10
124.815132
 20
138.843750
 40
4.000000
 41
1.125000
  1
9
 50
90.000000
 51
0.000000
  7
SX_FONT
 72
     5
 11
124.815132
 21
141.843750
  0
ENDBLK
  8
0
  0
ENDSEC
  0
SECTION
  2
ENTITIES
  0
ARC
  8
CSLAYER2
  6
CONTINUOUS
 62
     7
 10
102.544573
 20
139.843750
 40
5.000000
 50
-5.739170
 51
147.790746
  0
LINE
  8
CSLAYER2
  6
CONTINUOUS
 62
     7
 10
83.398438
 20
135.843750
 11
109.898438
 21
135.843750
  0
ARC
  8
CSLAYER2
  6
CONTINUOUS
 62
     7
 10
92.303130
 20
146.994234
 40
7.500000
 50
249.678212
 51
326.885988
  0
ARC
  8
CSLAYER2
  6
CONTINUOUS
 62
     7
 10
87.649851
 20
137.353269
 40
2.500000
 50
65.201106
 51
151.562990
  0
LINE
  8
CSLAYER2
  6
CONTINUOUS
 62
     7
 10
83.398438
 20
138.543750
 11
85.451498
 21
138.543750
  0
LINE
  8
CSLAYER2
  6
CONTINUOUS
 62
     7
 10
83.398438
 20
135.843750
 11
83.398438
 21
138.543750
  0
LINE
  8
CSLAYER2
  6
CONTINUOUS
 62
     7
 10
88.698437
 20
139.622733
 11
89.698437
 21
139.961057
  0
LINE
  8
CSLAYER2
  6
CONTINUOUS
 62
     7
 10
107.519510
 20
139.343750
 11
109.898438
 21
139.343750
  0
LINE
  8
CSLAYER2
  6
CONTINUOUS
 62
     7
 10
109.898438
 20
135.843750
 11
109.898438
 21
139.343750
  0
TEXT
  8
CSLAYER1
 62
     7
 10
83.253258
 20
75.175369
 40
10.000000
 41
0.630000
  1
FM-2079
 50
0.000000
 51
0.000000
  7
SX_FONT
 72
     5
 11
125.253258
 21
75.175369
  0
DIMENSION
  8
CSLAYER1
 62
     7
  2
*D0000
 10
109.898438
 20
154.939743
 11
96.648438
 21
155.939743
 13
83.398438
 23
149.843750
 14
109.898438
 24
149.843750
 70
1
  0
DIMENSION
  8
CSLAYER1
 62
     7
  2
*D0001
 10
119.815136
 20
144.843750
 11
120.815132
 21
140.343750
 13
114.898438
 23
135.843750
 14
114.898438
 24
144.843750
 50
90.000000
 70
1
  0
TEXT
  8
CSLAYER1
 62
     7
 10
141.204788
 20
75.449127
 40
10.000000
 41
0.654545
  1
26x9
 50
0.000000
 51
0.000000
  7
SX_FONT
 72
     5
 11
165.204788
 21
75.449127
  0
TEXT
  8
CSLAYER1
 62
     7
 10
82.725090
 20
63.872421
 40
5.000000
 41
0.612766
  1
カタログ Vol. 1  P49
 50
0.000000
 51
0.000000
  7
SX_FONT
 72
     5
 11
130.725090
 21
63.872421
  0
TEXT
  8
CSLAYER1
 62
     7
 10
83.051901
 20
54.597789
 40
4.960742
 41
0.729057
  1
ホ%%dケットカタロク゛ Vol. 1 P22
 50
0.000000
 51
0.000000
  7
SX_FONT
 72
     5
 11
157.796259
 21
54.597789
  0
ENDSEC
  0
EOF
