  0
SECTION
  2
HEADER
  9
$ACADVER
  1
AC1006
  9
$INSBASE
 10
85.384766
 20
163.410156
 30
0.0
  9
$EXTMIN
 10
85.384766
 20
163.410156
  9
$EXTMAX
 10
295.384766
 20
460.410156
  9
$LIMMIN
 10
85.384766
 20
163.410156
  9
$LIMMAX
 10
295.384766
 20
460.410156
  9
$VIEWCTR
 10
190.384766
 20
311.910156
  9
$VIEWSIZE
 40
297.000000
  9
$SNAPMODE
 70
     0
  9
$SNAPUNIT
 10
1.0
 20
1.0
  9
$SNAPBASE
 10
0.0
 20
0.0
  9
$SNAPANG
 50
0.0
  9
$SNAPSTYLE
 70
     0
  9
$SNAPISOPAIR
 70
     0
  9
$GRIDMODE
 70
     0
  9
$GRIDUNIT
 10
0.0
 20
0.0
  9
$ORTHOMODE
 70
     0
  9
$REGENMODE
 70
     1
  9
$FILLMODE
 70
     1
  9
$QTEXTMODE
 70
     0
  9
$DRAGMODE
 70
     2
  9
$LTSCALE
 40
15.000000
  9
$OSMODE
 70
     0
  9
$ATTMODE
 70
     1
  9
$TEXTSIZE
 40
0.2
  9
$TRACEWID
 40
0.05
  9
$TEXTSTYLE
  7
STANDARD
  9
$CLAYER
  8
CSLAYER3
  9
$CELTYPE
  6
BYLAYER
  9
$CECOLOR
 62
   256
  9
$DIMSCALE
 40
1.0
  9
$DIMASZ
 40
0.18
  9
$DIMEXO
 40
0.0625
  9
$DIMDLI
 40
0.38
  9
$DIMRND
 40
0.0
  9
$DIMDLE
 40
0.0
  9
$DIMEXE
 40
0.18
  9
$DIMTP
 40
0.0
  9
$DIMTM
 40
0.0
  9
$DIMTXT
 40
0.18
  9
$DIMCEN
 40
0.09
  9
$DIMTSZ
 40
0.0
  9
$DIMTOL
 70
     0
  9
$DIMLIM
 70
     0
  9
$DIMTIH
 70
     1
  9
$DIMTOH
 70
     1
  9
$DIMSE1
 70
     0
  9
$DIMSE2
 70
     0
  9
$DIMTAD
 70
     0
  9
$DIMZIN
 70
     0
  9
$DIMBLK
  1

  9
$LUNITS
 70
     2
  9
$LUPREC
 70
     4
  9
$AXISMODE
 70
     0
  9
$AXISUNIT
 10
0.0
 20
0.0
  9
$SKETCHINC
 40
0.1
  9
$FILLETRAD
 40
0.0
  9
$AUNITS
 70
     0
  9
$AUPREC
 70
     0
  9
$MENU
  1
ACAD
  9
$ELEVATION
 40
0.0
  9
$THICKNESS
 40
0.0
  9
$VIEWDIR
 10
0.0
 20
0.0
 30
1.0
  9
$LIMCHECK
 70
     0
  9
$BLIPMODE
 70
     1
  9
$CHAMFERA
 40
0.0
  9
$CHAMFERB
 40
0.0
  9
$FASTZOOM
 70
     1
  9
$SKPOLY
 70
     0
  9
$TDCREATE
 40
0.000000
  9
$TDUPDATE
 40
0.000000
  9
$TDINDWG
 40
0.0
  9
$TDUSRTIMER
 40
0.0
  9
$USRTIMER
 70
     1
  9
$ANGBASE
 50
0.0
  9
$ANGDIR
 70
     0
  9
$PDMODE
 70
     0
  9
$PDSIZE
 40
0.0
  9
$PLINEWID
 40
0.0
  9
$COORDS
 70
     0
  9
$USERI1
 70
     0
  9
$USERI2
 70
     0
  9
$USERI3
 70
     0
  9
$USERI4
 70
     0
  9
$USERI5
 70
     0
  9
$USERR1
 40
0.0
  9
$USERR2
 40
0.0
  9
$USERR3
 40
0.0
  9
$USERR4
 40
0.0
  9
$USERR5
 40
0.0
  0
ENDSEC
  0
SECTION
  2
TABLES
  0
TABLE
  2
LTYPE
 70
     9
  0
LTYPE
  2
CONTINUOUS
 70
    64
  3
Solid line
 72
    65
 73
     0
 40
0.0
  0
LTYPE
  2
DASHED
 70
    64
  3
__ __ __ __ __ __ __ __ __ __ __ __ __ __ __
 72
    65
 73
     2
 40
0.75
 49
0.5
 49
-0.25
  0
LTYPE
  2
HIDDEN
 70
    64
  3
_ _ _ _ _ _ _ _ _ _ _ _ _ _ _ _ _ _ _ _ _ _ _
 72
    65
 73
     2
 40
0.375
 49
0.25
 49
-0.125
  0
LTYPE
  2
DOT
 70
    64
  3
...............................................
 72
    65
 73
     2
 40
0.25
 49
0.0
 49
-0.25
  0
LTYPE
  2
DASHDOT
 70
    64
  3
__ . __ . __ . __ . __ . __ . __ . __ . __ . __
 72
    65
 73
     4
 40
1.0
 49
0.5
 49
-0.25
 49
0.0
 49
-0.25
  0
LTYPE
  2
DIVIDE
 70
    64
  3
__ . . __ . . __ . . __ . . __ . . __ . . __
 72
    65
 73
     6
 40
1.25
 49
0.5
 49
-0.25
 49
0.0
 49
-0.25
 49
0.0
 49
-0.25
  0
LTYPE
  2
CENTER
 70
    64
  3
____ _ ____ _ ____ _ ____ _ ____ _ ____ _ ____ 
 72
    65
 73
     4
 40
2.0
 49
1.25
 49
-0.25
 49
0.25
 49
-0.25
  0
LTYPE
  2
PHANTOM
 70
    64
  3
______  __  __  ______  __  __  ______  __  __ 
 72
    65
 73
     6
 40
2.5
 49
1.25
 49
-0.25
 49
0.25
 49
-0.25
 49
0.25
 49
-0.25
  0
LTYPE
  2
BORDER
 70
    64
  3
__ __ . __ __ . __ __ . __ __ . __ __ . __ __ .
 72
    65
 73
     6
 40
1.75
 49
0.5
 49
-0.25
 49
0.5
 49
-0.25
 49
0.0
 49
-0.25
  0
ENDTAB
  0
TABLE
  2
LAYER
 70
    16
  0
LAYER
  2
CSLAYER1
 70
    64
 62
     7
  6
CONTINUOUS
  0
LAYER
  2
CSLAYER2
 70
    64
 62
     7
  6
CONTINUOUS
  0
LAYER
  2
CSLAYER3
 70
    64
 62
     7
  6
CONTINUOUS
  0
LAYER
  2
CSLAYER4
 70
    64
 62
     7
  6
CONTINUOUS
  0
LAYER
  2
CSLAYER5
 70
    64
 62
     7
  6
CONTINUOUS
  0
LAYER
  2
CSLAYER6
 70
    64
 62
     7
  6
CONTINUOUS
  0
LAYER
  2
CSLAYER7
 70
    64
 62
     7
  6
CONTINUOUS
  0
LAYER
  2
CSLAYER8
 70
    64
 62
     7
  6
CONTINUOUS
  0
LAYER
  2
CSLAYER9
 70
    64
 62
     7
  6
CONTINUOUS
  0
LAYER
  2
CSLAYER10
 70
    64
 62
     7
  6
CONTINUOUS
  0
LAYER
  2
CSLAYER11
 70
    64
 62
     7
  6
CONTINUOUS
  0
LAYER
  2
CSLAYER12
 70
    64
 62
     7
  6
CONTINUOUS
  0
LAYER
  2
CSLAYER13
 70
    64
 62
     7
  6
CONTINUOUS
  0
LAYER
  2
CSLAYER14
 70
    64
 62
     7
  6
CONTINUOUS
  0
LAYER
  2
CSLAYER15
 70
    64
 62
     7
  6
CONTINUOUS
  0
LAYER
  2
CSLAYER16
 70
    64
 62
     7
  6
CONTINUOUS
  0
ENDTAB
  0
TABLE
  2
STYLE
 70
     1
  0
STYLE
  2
SX_FONT
 70
     0
 40
1.0
 41
1.0
 50
0.0
 71
     0
 42
1.0
  3
monotxt
  4
bigfont
  0
ENDTAB
  0
TABLE
  2
VIEW
 70
     0
  0
ENDTAB
  0
ENDSEC
  0
SECTION
  2
BLOCKS
  0
BLOCK
  8
CSLAYER1
  2
*D0000
 70
    65
 10
0.0
 20
0.0
 30
0.0
  0
LINE
  8
CSLAYER1
  6
CONTINUOUS
 62
     7
 10
85.429688
 20
159.609375
 11
85.429688
 21
164.595342
  0
LINE
  8
CSLAYER1
  6
CONTINUOUS
 62
     7
 10
115.429688
 20
159.609375
 11
115.429688
 21
164.595342
  0
LINE
  8
CSLAYER1
  6
CONTINUOUS
 62
     7
 10
85.429688
 20
163.595342
 11
115.429688
 21
163.595342
  0
LINE
  8
CSLAYER1
  6
CONTINUOUS
 62
     7
 10
85.429688
 20
163.595342
 11
89.293391
 21
164.630619
  0
LINE
  8
CSLAYER1
  6
CONTINUOUS
 62
     7
 10
85.429688
 20
163.595342
 11
89.293391
 21
162.560066
  0
LINE
  8
CSLAYER1
  6
CONTINUOUS
 62
     7
 10
115.429688
 20
163.595342
 11
111.565984
 21
164.630619
  0
LINE
  8
CSLAYER1
  6
CONTINUOUS
 62
     7
 10
115.429688
 20
163.595342
 11
111.565984
 21
162.560066
  0
TEXT
  8
CSLAYER1
 62
     7
 10
97.429688
 20
164.595337
 40
4.000000
 41
0.900000
  1
30
 50
0.000000
 51
0.000000
  7
SX_FONT
 72
     5
 11
103.429688
 21
164.595337
  0
ENDBLK
  8
0
  0
BLOCK
  8
CSLAYER1
  2
*D0001
 70
    65
 10
0.0
 20
0.0
 30
0.0
  0
LINE
  8
CSLAYER1
  6
CONTINUOUS
 62
     7
 10
121.429688
 20
144.609375
 11
126.688015
 21
144.609375
  0
LINE
  8
CSLAYER1
  6
CONTINUOUS
 62
     7
 10
121.429688
 20
153.609375
 11
126.688015
 21
153.609375
  0
LINE
  8
CSLAYER1
  6
CONTINUOUS
 62
     7
 10
125.688015
 20
144.609375
 11
125.688015
 21
153.609375
  0
LINE
  8
CSLAYER1
  6
CONTINUOUS
 62
     7
 10
125.688015
 20
138.609375
 11
125.688015
 21
144.609375
  0
LINE
  8
CSLAYER1
  6
CONTINUOUS
 62
     7
 10
125.688015
 20
144.609375
 11
124.652739
 21
140.745672
  0
LINE
  8
CSLAYER1
  6
CONTINUOUS
 62
     7
 10
125.688015
 20
144.609375
 11
126.723291
 21
140.745672
  0
LINE
  8
CSLAYER1
  6
CONTINUOUS
 62
     7
 10
125.688015
 20
153.609375
 11
125.688015
 21
159.609375
  0
LINE
  8
CSLAYER1
  6
CONTINUOUS
 62
     7
 10
125.688015
 20
153.609375
 11
124.652739
 21
157.473078
  0
LINE
  8
CSLAYER1
  6
CONTINUOUS
 62
     7
 10
125.688015
 20
153.609375
 11
126.723291
 21
157.473078
  0
TEXT
  8
CSLAYER1
 62
     7
 10
130.688011
 20
147.609375
 40
4.000000
 41
1.125000
  1
9
 50
90.000000
 51
0.000000
  7
SX_FONT
 72
     5
 11
130.688011
 21
150.609375
  0
ENDBLK
  8
0
  0
ENDSEC
  0
SECTION
  2
ENTITIES
  0
ARC
  8
CSLAYER2
  6
CONTINUOUS
 62
     7
 10
87.336853
 20
147.492984
 40
2.500000
 50
39.223331
 51
139.717528
  0
LINE
  8
CSLAYER2
  6
CONTINUOUS
 62
     7
 10
85.429688
 20
144.609375
 11
115.429688
 21
144.609375
  0
LINE
  8
CSLAYER2
  6
CONTINUOUS
 62
     7
 10
85.429688
 20
144.609375
 11
85.429688
 21
149.109375
  0
LINE
  8
CSLAYER2
  6
CONTINUOUS
 62
     7
 10
112.374831
 20
152.609375
 11
114.429688
 21
152.609375
  0
ARC
  8
CSLAYER2
  6
CONTINUOUS
 62
     7
 10
90.216696
 20
149.894221
 40
1.250000
 50
218.624964
 51
330.027492
  0
ARC
  8
CSLAYER2
  6
CONTINUOUS
 62
     7
 10
99.303523
 20
151.859373
 40
1.750000
 50
47.045102
 51
102.226930
  0
ARC
  8
CSLAYER2
  6
CONTINUOUS
 62
     7
 10
102.157216
 20
138.920316
 40
15.000000
 50
102.412848
 51
136.372926
  0
ARC
  8
CSLAYER2
  6
CONTINUOUS
 62
     7
 10
109.790426
 20
151.609372
 40
2.000000
 50
51.049389
 51
132.186402
  0
ARC
  8
CSLAYER2
  6
CONTINUOUS
 62
     7
 10
104.499300
 20
157.609375
 40
6.000000
 50
227.649687
 51
311.667186
  0
ARC
  8
CSLAYER2
  6
CONTINUOUS
 62
     7
 10
112.431703
 20
154.608566
 40
2.000000
 50
226.212313
 51
271.629475
  0
LINE
  8
CSLAYER2
  6
CONTINUOUS
 62
     7
 10
115.429688
 20
151.609375
 11
115.429688
 21
144.609375
  0
ARC
  8
CSLAYER2
  6
CONTINUOUS
 62
     7
 10
114.429688
 20
151.609375
 40
1.000000
 50
0.000000
 51
90.000000
  0
TEXT
  8
CSLAYER1
 62
     7
 10
85.481300
 20
84.101860
 40
10.000000
 41
0.630000
  1
FM-2078
 50
0.000000
 51
0.000000
  7
SX_FONT
 72
     5
 11
127.481300
 21
84.101860
  0
DIMENSION
  8
CSLAYER1
 62
     7
  2
*D0000
 10
115.429688
 20
163.595342
 11
100.429688
 21
164.595337
 13
85.429688
 23
158.609375
 14
115.429688
 24
158.609375
 70
1
  0
DIMENSION
  8
CSLAYER1
 62
     7
  2
*D0001
 10
125.688015
 20
153.609375
 11
126.688011
 21
149.109375
 13
120.429688
 23
144.609375
 14
120.429688
 24
153.609375
 50
90.000000
 70
1
  0
TEXT
  8
CSLAYER1
 62
     7
 10
143.870255
 20
83.784950
 40
10.000000
 41
0.654545
  1
30x9
 50
0.000000
 51
0.000000
  7
SX_FONT
 72
     5
 11
167.870255
 21
83.784950
  0
TEXT
  8
CSLAYER1
 62
     7
 10
85.390556
 20
72.208244
 40
5.000000
 41
0.612766
  1
カタログ Vol. 1  P49
 50
0.000000
 51
0.000000
  7
SX_FONT
 72
     5
 11
133.390556
 21
72.208244
  0
TEXT
  8
CSLAYER1
 62
     7
 10
85.389525
 20
62.569869
 40
4.960742
 41
0.729057
  1
ホ%%dケットカタロク゛ Vol. 1 P22
 50
0.000000
 51
0.000000
  7
SX_FONT
 72
     5
 11
160.133882
 21
62.569869
  0
ENDSEC
  0
EOF
