  0
SECTION
  2
HEADER
  9
$ACADVER
  1
AC1006
  9
$INSBASE
 10
81.859985
 20
148.432861
 30
0.0
  9
$EXTMIN
 10
81.859985
 20
148.432861
  9
$EXTMAX
 10
291.859985
 20
445.432861
  9
$LIMMIN
 10
81.859985
 20
148.432861
  9
$LIMMAX
 10
291.859985
 20
445.432861
  9
$VIEWCTR
 10
186.859985
 20
296.932861
  9
$VIEWSIZE
 40
297.000000
  9
$SNAPMODE
 70
     0
  9
$SNAPUNIT
 10
1.0
 20
1.0
  9
$SNAPBASE
 10
0.0
 20
0.0
  9
$SNAPANG
 50
0.0
  9
$SNAPSTYLE
 70
     0
  9
$SNAPISOPAIR
 70
     0
  9
$GRIDMODE
 70
     0
  9
$GRIDUNIT
 10
0.0
 20
0.0
  9
$ORTHOMODE
 70
     0
  9
$REGENMODE
 70
     1
  9
$FILLMODE
 70
     1
  9
$QTEXTMODE
 70
     0
  9
$DRAGMODE
 70
     2
  9
$LTSCALE
 40
15.000000
  9
$OSMODE
 70
     0
  9
$ATTMODE
 70
     1
  9
$TEXTSIZE
 40
0.2
  9
$TRACEWID
 40
0.05
  9
$TEXTSTYLE
  7
STANDARD
  9
$CLAYER
  8
CSLAYER3
  9
$CELTYPE
  6
BYLAYER
  9
$CECOLOR
 62
   256
  9
$DIMSCALE
 40
1.0
  9
$DIMASZ
 40
0.18
  9
$DIMEXO
 40
0.0625
  9
$DIMDLI
 40
0.38
  9
$DIMRND
 40
0.0
  9
$DIMDLE
 40
0.0
  9
$DIMEXE
 40
0.18
  9
$DIMTP
 40
0.0
  9
$DIMTM
 40
0.0
  9
$DIMTXT
 40
0.18
  9
$DIMCEN
 40
0.09
  9
$DIMTSZ
 40
0.0
  9
$DIMTOL
 70
     0
  9
$DIMLIM
 70
     0
  9
$DIMTIH
 70
     1
  9
$DIMTOH
 70
     1
  9
$DIMSE1
 70
     0
  9
$DIMSE2
 70
     0
  9
$DIMTAD
 70
     0
  9
$DIMZIN
 70
     0
  9
$DIMBLK
  1

  9
$LUNITS
 70
     2
  9
$LUPREC
 70
     4
  9
$AXISMODE
 70
     0
  9
$AXISUNIT
 10
0.0
 20
0.0
  9
$SKETCHINC
 40
0.1
  9
$FILLETRAD
 40
0.0
  9
$AUNITS
 70
     0
  9
$AUPREC
 70
     0
  9
$MENU
  1
ACAD
  9
$ELEVATION
 40
0.0
  9
$THICKNESS
 40
0.0
  9
$VIEWDIR
 10
0.0
 20
0.0
 30
1.0
  9
$LIMCHECK
 70
     0
  9
$BLIPMODE
 70
     1
  9
$CHAMFERA
 40
0.0
  9
$CHAMFERB
 40
0.0
  9
$FASTZOOM
 70
     1
  9
$SKPOLY
 70
     0
  9
$TDCREATE
 40
0.000000
  9
$TDUPDATE
 40
0.000000
  9
$TDINDWG
 40
0.0
  9
$TDUSRTIMER
 40
0.0
  9
$USRTIMER
 70
     1
  9
$ANGBASE
 50
0.0
  9
$ANGDIR
 70
     0
  9
$PDMODE
 70
     0
  9
$PDSIZE
 40
0.0
  9
$PLINEWID
 40
0.0
  9
$COORDS
 70
     0
  9
$USERI1
 70
     0
  9
$USERI2
 70
     0
  9
$USERI3
 70
     0
  9
$USERI4
 70
     0
  9
$USERI5
 70
     0
  9
$USERR1
 40
0.0
  9
$USERR2
 40
0.0
  9
$USERR3
 40
0.0
  9
$USERR4
 40
0.0
  9
$USERR5
 40
0.0
  0
ENDSEC
  0
SECTION
  2
TABLES
  0
TABLE
  2
LTYPE
 70
     9
  0
LTYPE
  2
CONTINUOUS
 70
    64
  3
Solid line
 72
    65
 73
     0
 40
0.0
  0
LTYPE
  2
DASHED
 70
    64
  3
__ __ __ __ __ __ __ __ __ __ __ __ __ __ __
 72
    65
 73
     2
 40
0.75
 49
0.5
 49
-0.25
  0
LTYPE
  2
HIDDEN
 70
    64
  3
_ _ _ _ _ _ _ _ _ _ _ _ _ _ _ _ _ _ _ _ _ _ _
 72
    65
 73
     2
 40
0.375
 49
0.25
 49
-0.125
  0
LTYPE
  2
DOT
 70
    64
  3
...............................................
 72
    65
 73
     2
 40
0.25
 49
0.0
 49
-0.25
  0
LTYPE
  2
DASHDOT
 70
    64
  3
__ . __ . __ . __ . __ . __ . __ . __ . __ . __
 72
    65
 73
     4
 40
1.0
 49
0.5
 49
-0.25
 49
0.0
 49
-0.25
  0
LTYPE
  2
DIVIDE
 70
    64
  3
__ . . __ . . __ . . __ . . __ . . __ . . __
 72
    65
 73
     6
 40
1.25
 49
0.5
 49
-0.25
 49
0.0
 49
-0.25
 49
0.0
 49
-0.25
  0
LTYPE
  2
CENTER
 70
    64
  3
____ _ ____ _ ____ _ ____ _ ____ _ ____ _ ____ 
 72
    65
 73
     4
 40
2.0
 49
1.25
 49
-0.25
 49
0.25
 49
-0.25
  0
LTYPE
  2
PHANTOM
 70
    64
  3
______  __  __  ______  __  __  ______  __  __ 
 72
    65
 73
     6
 40
2.5
 49
1.25
 49
-0.25
 49
0.25
 49
-0.25
 49
0.25
 49
-0.25
  0
LTYPE
  2
BORDER
 70
    64
  3
__ __ . __ __ . __ __ . __ __ . __ __ . __ __ .
 72
    65
 73
     6
 40
1.75
 49
0.5
 49
-0.25
 49
0.5
 49
-0.25
 49
0.0
 49
-0.25
  0
ENDTAB
  0
TABLE
  2
LAYER
 70
    16
  0
LAYER
  2
CSLAYER1
 70
    64
 62
     7
  6
CONTINUOUS
  0
LAYER
  2
CSLAYER2
 70
    64
 62
     7
  6
CONTINUOUS
  0
LAYER
  2
CSLAYER3
 70
    64
 62
     7
  6
CONTINUOUS
  0
LAYER
  2
CSLAYER4
 70
    64
 62
     7
  6
CONTINUOUS
  0
LAYER
  2
CSLAYER5
 70
    64
 62
     7
  6
CONTINUOUS
  0
LAYER
  2
CSLAYER6
 70
    64
 62
     7
  6
CONTINUOUS
  0
LAYER
  2
CSLAYER7
 70
    64
 62
     7
  6
CONTINUOUS
  0
LAYER
  2
CSLAYER8
 70
    64
 62
     7
  6
CONTINUOUS
  0
LAYER
  2
CSLAYER9
 70
    64
 62
     7
  6
CONTINUOUS
  0
LAYER
  2
CSLAYER10
 70
    64
 62
     7
  6
CONTINUOUS
  0
LAYER
  2
CSLAYER11
 70
    64
 62
     7
  6
CONTINUOUS
  0
LAYER
  2
CSLAYER12
 70
    64
 62
     7
  6
CONTINUOUS
  0
LAYER
  2
CSLAYER13
 70
    64
 62
     7
  6
CONTINUOUS
  0
LAYER
  2
CSLAYER14
 70
    64
 62
     7
  6
CONTINUOUS
  0
LAYER
  2
CSLAYER15
 70
    64
 62
     7
  6
CONTINUOUS
  0
LAYER
  2
CSLAYER16
 70
    64
 62
     7
  6
CONTINUOUS
  0
ENDTAB
  0
TABLE
  2
STYLE
 70
     1
  0
STYLE
  2
SX_FONT
 70
     0
 40
1.0
 41
1.0
 50
0.0
 71
     0
 42
1.0
  3
monotxt
  4
bigfont
  0
ENDTAB
  0
TABLE
  2
VIEW
 70
     0
  0
ENDTAB
  0
ENDSEC
  0
SECTION
  2
BLOCKS
  0
BLOCK
  8
CSLAYER1
  2
*D0000
 70
    65
 10
0.0
 20
0.0
 30
0.0
  0
LINE
  8
CSLAYER1
  6
CONTINUOUS
 62
     7
 10
81.851563
 20
164.734375
 11
81.851563
 21
174.550781
  0
LINE
  8
CSLAYER1
  6
CONTINUOUS
 62
     7
 10
111.851563
 20
164.734375
 11
111.851563
 21
174.550781
  0
LINE
  8
CSLAYER1
  6
CONTINUOUS
 62
     7
 10
81.851563
 20
173.550781
 11
111.851563
 21
173.550781
  0
LINE
  8
CSLAYER1
  6
CONTINUOUS
 62
     7
 10
81.851563
 20
173.550781
 11
85.715266
 21
174.586057
  0
LINE
  8
CSLAYER1
  6
CONTINUOUS
 62
     7
 10
81.851563
 20
173.550781
 11
85.715266
 21
172.515505
  0
LINE
  8
CSLAYER1
  6
CONTINUOUS
 62
     7
 10
111.851563
 20
173.550781
 11
107.987859
 21
174.586057
  0
LINE
  8
CSLAYER1
  6
CONTINUOUS
 62
     7
 10
111.851563
 20
173.550781
 11
107.987859
 21
172.515505
  0
TEXT
  8
CSLAYER1
 62
     7
 10
93.851563
 20
174.550781
 40
4.000000
 41
0.900000
  1
30
 50
0.000000
 51
0.000000
  7
SX_FONT
 72
     5
 11
99.851563
 21
174.550781
  0
ENDBLK
  8
0
  0
BLOCK
  8
CSLAYER1
  2
*D0001
 70
    65
 10
0.0
 20
0.0
 30
0.0
  0
LINE
  8
CSLAYER1
  6
CONTINUOUS
 62
     7
 10
112.851563
 20
148.734375
 11
122.745728
 21
148.734375
  0
LINE
  8
CSLAYER1
  6
CONTINUOUS
 62
     7
 10
112.851563
 20
163.734375
 11
122.745728
 21
163.734375
  0
LINE
  8
CSLAYER1
  6
CONTINUOUS
 62
     7
 10
121.745728
 20
148.734375
 11
121.745728
 21
163.734375
  0
LINE
  8
CSLAYER1
  6
CONTINUOUS
 62
     7
 10
121.745728
 20
148.734375
 11
120.710451
 21
152.598078
  0
LINE
  8
CSLAYER1
  6
CONTINUOUS
 62
     7
 10
121.745728
 20
148.734375
 11
122.781004
 21
152.598078
  0
LINE
  8
CSLAYER1
  6
CONTINUOUS
 62
     7
 10
121.745728
 20
163.734375
 11
120.710451
 21
159.870672
  0
LINE
  8
CSLAYER1
  6
CONTINUOUS
 62
     7
 10
121.745728
 20
163.734375
 11
122.781004
 21
159.870672
  0
TEXT
  8
CSLAYER1
 62
     7
 10
127.299438
 20
153.258545
 40
4.000000
 41
0.900000
  1
15
 50
90.000000
 51
0.000000
  7
SX_FONT
 72
     5
 11
127.299438
 21
159.258545
  0
ENDBLK
  8
0
  0
ENDSEC
  0
SECTION
  2
ENTITIES
  0
LINE
  8
CSLAYER2
  6
CONTINUOUS
 62
     7
 10
90.101563
 20
154.984375
 11
90.101563
 21
154.420516
  0
LINE
  8
CSLAYER2
  6
CONTINUOUS
 62
     7
 10
111.851563
 20
157.734375
 11
111.851563
 21
148.734375
  0
LINE
  8
CSLAYER2
  6
CONTINUOUS
 62
     7
 10
111.851563
 20
148.734375
 11
81.851563
 21
148.734375
  0
LINE
  8
CSLAYER2
  6
CONTINUOUS
 62
     7
 10
81.851563
 20
148.734375
 11
81.851563
 21
152.984375
  0
ARC
  8
CSLAYER2
  6
CONTINUOUS
 62
     7
 10
105.851563
 20
157.734375
 40
6.000000
 50
0.000000
 51
90.000000
  0
ARC
  8
CSLAYER2
  6
CONTINUOUS
 62
     7
 10
105.851563
 20
157.734375
 40
6.000000
 50
90.000000
 51
180.440530
  0
ARC
  8
CSLAYER2
  6
CONTINUOUS
 62
     7
 10
95.351563
 20
154.984375
 40
5.250000
 50
30.998961
 51
90.000000
  0
ARC
  8
CSLAYER2
  6
CONTINUOUS
 62
     7
 10
95.351563
 20
154.984375
 40
5.250000
 50
90.000000
 51
180.000000
  0
ARC
  8
CSLAYER2
  6
CONTINUOUS
 62
     7
 10
86.101563
 20
152.984375
 40
4.250000
 50
19.749923
 51
90.000000
  0
ARC
  8
CSLAYER2
  6
CONTINUOUS
 62
     7
 10
86.101563
 20
152.984375
 40
4.250000
 50
90.000000
 51
180.000000
  0
TEXT
  8
CSLAYER1
 62
     7
 10
81.683815
 20
88.186722
 40
10.000000
 41
0.630000
  1
FM-2067
 50
0.000000
 51
0.000000
  7
SX_FONT
 72
     5
 11
123.683815
 21
88.186722
  0
DIMENSION
  8
CSLAYER1
 62
     7
  2
*D0000
 10
111.851563
 20
173.550781
 11
96.851563
 21
174.550781
 13
81.851563
 23
163.734375
 14
111.851563
 24
163.734375
 70
1
  0
DIMENSION
  8
CSLAYER1
 62
     7
  2
*D0001
 10
121.745728
 20
163.734375
 11
127.299438
 21
156.258545
 13
111.851563
 23
148.734375
 14
111.851563
 24
163.734375
 50
90.000000
 70
1
  0
TEXT
  8
CSLAYER1
 62
     7
 10
137.953125
 20
87.812500
 40
10.000000
 41
0.642857
  1
30x15
 50
0.000000
 51
0.000000
  7
SX_FONT
 72
     5
 11
167.953125
 21
87.812500
  0
TEXT
  8
CSLAYER1
 62
     7
 10
82.124718
 20
75.412315
 40
5.000000
 41
0.612766
  1
カタログ Vol. 1  P48
 50
0.000000
 51
0.000000
  7
SX_FONT
 72
     5
 11
130.124718
 21
75.412315
  0
TEXT
  8
CSLAYER1
 62
     7
 10
82.139647
 20
66.397246
 40
4.960742
 41
0.729057
  1
ホ%%dケットカタロク゛ Vol. 1 P21
 50
0.000000
 51
0.000000
  7
SX_FONT
 72
     5
 11
156.884004
 21
66.397246
  0
ENDSEC
  0
EOF
