  0
SECTION
  2
HEADER
  9
$ACADVER
  1
AC1006
  9
$INSBASE
 10
89.644043
 20
143.533529
 30
0.0
  9
$EXTMIN
 10
89.644043
 20
143.533529
  9
$EXTMAX
 10
299.644043
 20
440.533529
  9
$LIMMIN
 10
89.644043
 20
143.533529
  9
$LIMMAX
 10
299.644043
 20
440.533529
  9
$VIEWCTR
 10
194.644043
 20
292.033529
  9
$VIEWSIZE
 40
297.000000
  9
$SNAPMODE
 70
     0
  9
$SNAPUNIT
 10
1.0
 20
1.0
  9
$SNAPBASE
 10
0.0
 20
0.0
  9
$SNAPANG
 50
0.0
  9
$SNAPSTYLE
 70
     0
  9
$SNAPISOPAIR
 70
     0
  9
$GRIDMODE
 70
     0
  9
$GRIDUNIT
 10
0.0
 20
0.0
  9
$ORTHOMODE
 70
     0
  9
$REGENMODE
 70
     1
  9
$FILLMODE
 70
     1
  9
$QTEXTMODE
 70
     0
  9
$DRAGMODE
 70
     2
  9
$LTSCALE
 40
15.000000
  9
$OSMODE
 70
     0
  9
$ATTMODE
 70
     1
  9
$TEXTSIZE
 40
0.2
  9
$TRACEWID
 40
0.05
  9
$TEXTSTYLE
  7
STANDARD
  9
$CLAYER
  8
CSLAYER3
  9
$CELTYPE
  6
BYLAYER
  9
$CECOLOR
 62
   256
  9
$DIMSCALE
 40
1.0
  9
$DIMASZ
 40
0.18
  9
$DIMEXO
 40
0.0625
  9
$DIMDLI
 40
0.38
  9
$DIMRND
 40
0.0
  9
$DIMDLE
 40
0.0
  9
$DIMEXE
 40
0.18
  9
$DIMTP
 40
0.0
  9
$DIMTM
 40
0.0
  9
$DIMTXT
 40
0.18
  9
$DIMCEN
 40
0.09
  9
$DIMTSZ
 40
0.0
  9
$DIMTOL
 70
     0
  9
$DIMLIM
 70
     0
  9
$DIMTIH
 70
     1
  9
$DIMTOH
 70
     1
  9
$DIMSE1
 70
     0
  9
$DIMSE2
 70
     0
  9
$DIMTAD
 70
     0
  9
$DIMZIN
 70
     0
  9
$DIMBLK
  1

  9
$LUNITS
 70
     2
  9
$LUPREC
 70
     4
  9
$AXISMODE
 70
     0
  9
$AXISUNIT
 10
0.0
 20
0.0
  9
$SKETCHINC
 40
0.1
  9
$FILLETRAD
 40
0.0
  9
$AUNITS
 70
     0
  9
$AUPREC
 70
     0
  9
$MENU
  1
ACAD
  9
$ELEVATION
 40
0.0
  9
$THICKNESS
 40
0.0
  9
$VIEWDIR
 10
0.0
 20
0.0
 30
1.0
  9
$LIMCHECK
 70
     0
  9
$BLIPMODE
 70
     1
  9
$CHAMFERA
 40
0.0
  9
$CHAMFERB
 40
0.0
  9
$FASTZOOM
 70
     1
  9
$SKPOLY
 70
     0
  9
$TDCREATE
 40
0.000000
  9
$TDUPDATE
 40
0.000000
  9
$TDINDWG
 40
0.0
  9
$TDUSRTIMER
 40
0.0
  9
$USRTIMER
 70
     1
  9
$ANGBASE
 50
0.0
  9
$ANGDIR
 70
     0
  9
$PDMODE
 70
     0
  9
$PDSIZE
 40
0.0
  9
$PLINEWID
 40
0.0
  9
$COORDS
 70
     0
  9
$USERI1
 70
     0
  9
$USERI2
 70
     0
  9
$USERI3
 70
     0
  9
$USERI4
 70
     0
  9
$USERI5
 70
     0
  9
$USERR1
 40
0.0
  9
$USERR2
 40
0.0
  9
$USERR3
 40
0.0
  9
$USERR4
 40
0.0
  9
$USERR5
 40
0.0
  0
ENDSEC
  0
SECTION
  2
TABLES
  0
TABLE
  2
LTYPE
 70
     9
  0
LTYPE
  2
CONTINUOUS
 70
    64
  3
Solid line
 72
    65
 73
     0
 40
0.0
  0
LTYPE
  2
DASHED
 70
    64
  3
__ __ __ __ __ __ __ __ __ __ __ __ __ __ __
 72
    65
 73
     2
 40
0.75
 49
0.5
 49
-0.25
  0
LTYPE
  2
HIDDEN
 70
    64
  3
_ _ _ _ _ _ _ _ _ _ _ _ _ _ _ _ _ _ _ _ _ _ _
 72
    65
 73
     2
 40
0.375
 49
0.25
 49
-0.125
  0
LTYPE
  2
DOT
 70
    64
  3
...............................................
 72
    65
 73
     2
 40
0.25
 49
0.0
 49
-0.25
  0
LTYPE
  2
DASHDOT
 70
    64
  3
__ . __ . __ . __ . __ . __ . __ . __ . __ . __
 72
    65
 73
     4
 40
1.0
 49
0.5
 49
-0.25
 49
0.0
 49
-0.25
  0
LTYPE
  2
DIVIDE
 70
    64
  3
__ . . __ . . __ . . __ . . __ . . __ . . __
 72
    65
 73
     6
 40
1.25
 49
0.5
 49
-0.25
 49
0.0
 49
-0.25
 49
0.0
 49
-0.25
  0
LTYPE
  2
CENTER
 70
    64
  3
____ _ ____ _ ____ _ ____ _ ____ _ ____ _ ____ 
 72
    65
 73
     4
 40
2.0
 49
1.25
 49
-0.25
 49
0.25
 49
-0.25
  0
LTYPE
  2
PHANTOM
 70
    64
  3
______  __  __  ______  __  __  ______  __  __ 
 72
    65
 73
     6
 40
2.5
 49
1.25
 49
-0.25
 49
0.25
 49
-0.25
 49
0.25
 49
-0.25
  0
LTYPE
  2
BORDER
 70
    64
  3
__ __ . __ __ . __ __ . __ __ . __ __ . __ __ .
 72
    65
 73
     6
 40
1.75
 49
0.5
 49
-0.25
 49
0.5
 49
-0.25
 49
0.0
 49
-0.25
  0
ENDTAB
  0
TABLE
  2
LAYER
 70
    16
  0
LAYER
  2
CSLAYER1
 70
    64
 62
     7
  6
CONTINUOUS
  0
LAYER
  2
CSLAYER2
 70
    64
 62
     7
  6
CONTINUOUS
  0
LAYER
  2
CSLAYER3
 70
    64
 62
     7
  6
CONTINUOUS
  0
LAYER
  2
CSLAYER4
 70
    64
 62
     7
  6
CONTINUOUS
  0
LAYER
  2
CSLAYER5
 70
    64
 62
     7
  6
CONTINUOUS
  0
LAYER
  2
CSLAYER6
 70
    64
 62
     7
  6
CONTINUOUS
  0
LAYER
  2
CSLAYER7
 70
    64
 62
     7
  6
CONTINUOUS
  0
LAYER
  2
CSLAYER8
 70
    64
 62
     7
  6
CONTINUOUS
  0
LAYER
  2
CSLAYER9
 70
    64
 62
     7
  6
CONTINUOUS
  0
LAYER
  2
CSLAYER10
 70
    64
 62
     7
  6
CONTINUOUS
  0
LAYER
  2
CSLAYER11
 70
    64
 62
     7
  6
CONTINUOUS
  0
LAYER
  2
CSLAYER12
 70
    64
 62
     7
  6
CONTINUOUS
  0
LAYER
  2
CSLAYER13
 70
    64
 62
     7
  6
CONTINUOUS
  0
LAYER
  2
CSLAYER14
 70
    64
 62
     7
  6
CONTINUOUS
  0
LAYER
  2
CSLAYER15
 70
    64
 62
     7
  6
CONTINUOUS
  0
LAYER
  2
CSLAYER16
 70
    64
 62
     7
  6
CONTINUOUS
  0
ENDTAB
  0
TABLE
  2
STYLE
 70
     1
  0
STYLE
  2
SX_FONT
 70
     0
 40
1.0
 41
1.0
 50
0.0
 71
     0
 42
1.0
  3
monotxt
  4
bigfont
  0
ENDTAB
  0
TABLE
  2
VIEW
 70
     0
  0
ENDTAB
  0
ENDSEC
  0
SECTION
  2
BLOCKS
  0
BLOCK
  8
CSLAYER1
  2
*D0000
 70
    65
 10
0.0
 20
0.0
 30
0.0
  0
LINE
  8
CSLAYER1
  6
CONTINUOUS
 62
     7
 10
74.840598
 20
163.955956
 11
74.840598
 21
169.006989
  0
LINE
  8
CSLAYER1
  6
CONTINUOUS
 62
     7
 10
90.840598
 20
163.955956
 11
90.840598
 21
169.006989
  0
LINE
  8
CSLAYER1
  6
CONTINUOUS
 62
     7
 10
74.840598
 20
168.006989
 11
90.840598
 21
168.006989
  0
LINE
  8
CSLAYER1
  6
CONTINUOUS
 62
     7
 10
74.840598
 20
168.006989
 11
78.704302
 21
169.042265
  0
LINE
  8
CSLAYER1
  6
CONTINUOUS
 62
     7
 10
74.840598
 20
168.006989
 11
78.704302
 21
166.971713
  0
LINE
  8
CSLAYER1
  6
CONTINUOUS
 62
     7
 10
90.840598
 20
168.006989
 11
86.976895
 21
169.042265
  0
LINE
  8
CSLAYER1
  6
CONTINUOUS
 62
     7
 10
90.840598
 20
168.006989
 11
86.976895
 21
166.971713
  0
TEXT
  8
CSLAYER1
 62
     7
 10
79.840599
 20
169.007004
 40
4.000000
 41
0.900000
  1
16
 50
0.000000
 51
0.000000
  7
SX_FONT
 72
     5
 11
85.840599
 21
169.007004
  0
ENDBLK
  8
0
  0
BLOCK
  8
CSLAYER1
  2
*D0001
 70
    65
 10
0.0
 20
0.0
 30
0.0
  0
LINE
  8
CSLAYER1
  6
CONTINUOUS
 62
     7
 10
96.840598
 20
144.955956
 11
101.801196
 21
144.955956
  0
LINE
  8
CSLAYER1
  6
CONTINUOUS
 62
     7
 10
96.840598
 20
157.955956
 11
101.801196
 21
157.955956
  0
LINE
  8
CSLAYER1
  6
CONTINUOUS
 62
     7
 10
100.801196
 20
144.955956
 11
100.801196
 21
157.955956
  0
LINE
  8
CSLAYER1
  6
CONTINUOUS
 62
     7
 10
100.801196
 20
138.955956
 11
100.801196
 21
144.955956
  0
LINE
  8
CSLAYER1
  6
CONTINUOUS
 62
     7
 10
100.801196
 20
144.955956
 11
99.765920
 21
141.092253
  0
LINE
  8
CSLAYER1
  6
CONTINUOUS
 62
     7
 10
100.801196
 20
144.955956
 11
101.836472
 21
141.092253
  0
LINE
  8
CSLAYER1
  6
CONTINUOUS
 62
     7
 10
100.801196
 20
157.955956
 11
100.801196
 21
163.955956
  0
LINE
  8
CSLAYER1
  6
CONTINUOUS
 62
     7
 10
100.801196
 20
157.955956
 11
99.765920
 21
161.819659
  0
LINE
  8
CSLAYER1
  6
CONTINUOUS
 62
     7
 10
100.801196
 20
157.955956
 11
101.836472
 21
161.819659
  0
TEXT
  8
CSLAYER1
 62
     7
 10
105.801193
 20
148.455963
 40
4.000000
 41
0.900000
  1
13
 50
90.000000
 51
0.000000
  7
SX_FONT
 72
     5
 11
105.801193
 21
154.455963
  0
ENDBLK
  8
0
  0
ENDSEC
  0
SECTION
  2
ENTITIES
  0
LINE
  8
CSLAYER2
  6
CONTINUOUS
 62
     7
 10
80.500719
 20
155.980876
 11
78.641648
 21
153.047217
  0
ARC
  8
CSLAYER2
  6
CONTINUOUS
 62
     7
 10
74.840598
 20
155.455956
 40
4.500000
 50
270.000000
 51
327.637414
  0
LINE
  8
CSLAYER2
  6
CONTINUOUS
 62
     7
 10
88.340598
 20
153.705956
 11
90.840598
 21
153.705956
  0
LINE
  8
CSLAYER2
  6
CONTINUOUS
 62
     7
 10
90.840598
 20
153.705956
 11
90.840598
 21
144.955956
  0
LINE
  8
CSLAYER2
  6
CONTINUOUS
 62
     7
 10
90.840598
 20
144.955956
 11
74.840598
 21
144.955956
  0
LINE
  8
CSLAYER2
  6
CONTINUOUS
 62
     7
 10
74.840598
 20
144.955956
 11
74.840598
 21
150.955956
  0
ARC
  8
CSLAYER2
  6
CONTINUOUS
 62
     7
 10
84.090598
 20
153.705956
 40
4.250000
 50
90.000000
 51
147.637414
  0
ARC
  8
CSLAYER2
  6
CONTINUOUS
 62
     7
 10
84.090598
 20
153.705956
 40
4.250000
 50
0.000000
 51
90.000000
  0
TEXT
  8
CSLAYER1
 62
     7
 10
74.553230
 20
84.656540
 40
10.000000
 41
0.630000
  1
FM-2063
 50
0.000000
 51
0.000000
  7
SX_FONT
 72
     5
 11
116.553230
 21
84.656540
  0
DIMENSION
  8
CSLAYER1
 62
     7
  2
*D0000
 10
90.840598
 20
168.006989
 11
82.840599
 21
169.007004
 13
74.840598
 23
162.955956
 14
90.840598
 24
162.955956
 70
1
  0
DIMENSION
  8
CSLAYER1
 62
     7
  2
*D0001
 10
100.801196
 20
157.955956
 11
101.801193
 21
151.455963
 13
95.840598
 23
144.955956
 14
95.840598
 24
157.955956
 50
90.000000
 70
1
  0
TEXT
  8
CSLAYER1
 62
     7
 10
131.463074
 20
84.784081
 40
10.000000
 41
0.642857
  1
16x13
 50
0.000000
 51
0.000000
  7
SX_FONT
 72
     5
 11
161.463074
 21
84.784081
  0
TEXT
  8
CSLAYER1
 62
     7
 10
74.450813
 20
71.982971
 40
5.000000
 41
0.612766
  1
カタログ Vol. 1  P48
 50
0.000000
 51
0.000000
  7
SX_FONT
 72
     5
 11
122.450813
 21
71.982971
  0
TEXT
  8
CSLAYER1
 62
     7
 10
74.526343
 20
61.844077
 40
4.960742
 41
0.729057
  1
ホ%%dケットカタロク゛ Vol. 1 P21
 50
0.000000
 51
0.000000
  7
SX_FONT
 72
     5
 11
149.270700
 21
61.844077
  0
ENDSEC
  0
EOF
