  0
SECTION
  2
HEADER
  9
$ACADVER
  1
AC1006
  9
$INSBASE
 10
91.347127
 20
178.641683
 30
0.0
  9
$EXTMIN
 10
91.347127
 20
178.641683
  9
$EXTMAX
 10
301.347127
 20
475.641683
  9
$LIMMIN
 10
91.347127
 20
178.641683
  9
$LIMMAX
 10
301.347127
 20
475.641683
  9
$VIEWCTR
 10
196.347127
 20
327.141683
  9
$VIEWSIZE
 40
297.000000
  9
$SNAPMODE
 70
     0
  9
$SNAPUNIT
 10
1.0
 20
1.0
  9
$SNAPBASE
 10
0.0
 20
0.0
  9
$SNAPANG
 50
0.0
  9
$SNAPSTYLE
 70
     0
  9
$SNAPISOPAIR
 70
     0
  9
$GRIDMODE
 70
     0
  9
$GRIDUNIT
 10
0.0
 20
0.0
  9
$ORTHOMODE
 70
     0
  9
$REGENMODE
 70
     1
  9
$FILLMODE
 70
     1
  9
$QTEXTMODE
 70
     0
  9
$DRAGMODE
 70
     2
  9
$LTSCALE
 40
15.000000
  9
$OSMODE
 70
     0
  9
$ATTMODE
 70
     1
  9
$TEXTSIZE
 40
0.2
  9
$TRACEWID
 40
0.05
  9
$TEXTSTYLE
  7
STANDARD
  9
$CLAYER
  8
CSLAYER3
  9
$CELTYPE
  6
BYLAYER
  9
$CECOLOR
 62
   256
  9
$DIMSCALE
 40
1.0
  9
$DIMASZ
 40
0.18
  9
$DIMEXO
 40
0.0625
  9
$DIMDLI
 40
0.38
  9
$DIMRND
 40
0.0
  9
$DIMDLE
 40
0.0
  9
$DIMEXE
 40
0.18
  9
$DIMTP
 40
0.0
  9
$DIMTM
 40
0.0
  9
$DIMTXT
 40
0.18
  9
$DIMCEN
 40
0.09
  9
$DIMTSZ
 40
0.0
  9
$DIMTOL
 70
     0
  9
$DIMLIM
 70
     0
  9
$DIMTIH
 70
     1
  9
$DIMTOH
 70
     1
  9
$DIMSE1
 70
     0
  9
$DIMSE2
 70
     0
  9
$DIMTAD
 70
     0
  9
$DIMZIN
 70
     0
  9
$DIMBLK
  1

  9
$LUNITS
 70
     2
  9
$LUPREC
 70
     4
  9
$AXISMODE
 70
     0
  9
$AXISUNIT
 10
0.0
 20
0.0
  9
$SKETCHINC
 40
0.1
  9
$FILLETRAD
 40
0.0
  9
$AUNITS
 70
     0
  9
$AUPREC
 70
     0
  9
$MENU
  1
ACAD
  9
$ELEVATION
 40
0.0
  9
$THICKNESS
 40
0.0
  9
$VIEWDIR
 10
0.0
 20
0.0
 30
1.0
  9
$LIMCHECK
 70
     0
  9
$BLIPMODE
 70
     1
  9
$CHAMFERA
 40
0.0
  9
$CHAMFERB
 40
0.0
  9
$FASTZOOM
 70
     1
  9
$SKPOLY
 70
     0
  9
$TDCREATE
 40
0.000000
  9
$TDUPDATE
 40
0.000000
  9
$TDINDWG
 40
0.0
  9
$TDUSRTIMER
 40
0.0
  9
$USRTIMER
 70
     1
  9
$ANGBASE
 50
0.0
  9
$ANGDIR
 70
     0
  9
$PDMODE
 70
     0
  9
$PDSIZE
 40
0.0
  9
$PLINEWID
 40
0.0
  9
$COORDS
 70
     0
  9
$USERI1
 70
     0
  9
$USERI2
 70
     0
  9
$USERI3
 70
     0
  9
$USERI4
 70
     0
  9
$USERI5
 70
     0
  9
$USERR1
 40
0.0
  9
$USERR2
 40
0.0
  9
$USERR3
 40
0.0
  9
$USERR4
 40
0.0
  9
$USERR5
 40
0.0
  0
ENDSEC
  0
SECTION
  2
TABLES
  0
TABLE
  2
LTYPE
 70
     9
  0
LTYPE
  2
CONTINUOUS
 70
    64
  3
Solid line
 72
    65
 73
     0
 40
0.0
  0
LTYPE
  2
DASHED
 70
    64
  3
__ __ __ __ __ __ __ __ __ __ __ __ __ __ __
 72
    65
 73
     2
 40
0.75
 49
0.5
 49
-0.25
  0
LTYPE
  2
HIDDEN
 70
    64
  3
_ _ _ _ _ _ _ _ _ _ _ _ _ _ _ _ _ _ _ _ _ _ _
 72
    65
 73
     2
 40
0.375
 49
0.25
 49
-0.125
  0
LTYPE
  2
DOT
 70
    64
  3
...............................................
 72
    65
 73
     2
 40
0.25
 49
0.0
 49
-0.25
  0
LTYPE
  2
DASHDOT
 70
    64
  3
__ . __ . __ . __ . __ . __ . __ . __ . __ . __
 72
    65
 73
     4
 40
1.0
 49
0.5
 49
-0.25
 49
0.0
 49
-0.25
  0
LTYPE
  2
DIVIDE
 70
    64
  3
__ . . __ . . __ . . __ . . __ . . __ . . __
 72
    65
 73
     6
 40
1.25
 49
0.5
 49
-0.25
 49
0.0
 49
-0.25
 49
0.0
 49
-0.25
  0
LTYPE
  2
CENTER
 70
    64
  3
____ _ ____ _ ____ _ ____ _ ____ _ ____ _ ____ 
 72
    65
 73
     4
 40
2.0
 49
1.25
 49
-0.25
 49
0.25
 49
-0.25
  0
LTYPE
  2
PHANTOM
 70
    64
  3
______  __  __  ______  __  __  ______  __  __ 
 72
    65
 73
     6
 40
2.5
 49
1.25
 49
-0.25
 49
0.25
 49
-0.25
 49
0.25
 49
-0.25
  0
LTYPE
  2
BORDER
 70
    64
  3
__ __ . __ __ . __ __ . __ __ . __ __ . __ __ .
 72
    65
 73
     6
 40
1.75
 49
0.5
 49
-0.25
 49
0.5
 49
-0.25
 49
0.0
 49
-0.25
  0
ENDTAB
  0
TABLE
  2
LAYER
 70
    16
  0
LAYER
  2
CSLAYER1
 70
    64
 62
     7
  6
CONTINUOUS
  0
LAYER
  2
CSLAYER2
 70
    64
 62
     7
  6
CONTINUOUS
  0
LAYER
  2
CSLAYER3
 70
    64
 62
     7
  6
CONTINUOUS
  0
LAYER
  2
CSLAYER4
 70
    64
 62
     7
  6
CONTINUOUS
  0
LAYER
  2
CSLAYER5
 70
    64
 62
     7
  6
CONTINUOUS
  0
LAYER
  2
CSLAYER6
 70
    64
 62
     7
  6
CONTINUOUS
  0
LAYER
  2
CSLAYER7
 70
    64
 62
     7
  6
CONTINUOUS
  0
LAYER
  2
CSLAYER8
 70
    64
 62
     7
  6
CONTINUOUS
  0
LAYER
  2
CSLAYER9
 70
    64
 62
     7
  6
CONTINUOUS
  0
LAYER
  2
CSLAYER10
 70
    64
 62
     7
  6
CONTINUOUS
  0
LAYER
  2
CSLAYER11
 70
    64
 62
     7
  6
CONTINUOUS
  0
LAYER
  2
CSLAYER12
 70
    64
 62
     7
  6
CONTINUOUS
  0
LAYER
  2
CSLAYER13
 70
    64
 62
     7
  6
CONTINUOUS
  0
LAYER
  2
CSLAYER14
 70
    64
 62
     7
  6
CONTINUOUS
  0
LAYER
  2
CSLAYER15
 70
    64
 62
     7
  6
CONTINUOUS
  0
LAYER
  2
CSLAYER16
 70
    64
 62
     7
  6
CONTINUOUS
  0
ENDTAB
  0
TABLE
  2
STYLE
 70
     1
  0
STYLE
  2
SX_FONT
 70
     0
 40
1.0
 41
1.0
 50
0.0
 71
     0
 42
1.0
  3
monotxt
  4
bigfont
  0
ENDTAB
  0
TABLE
  2
VIEW
 70
     0
  0
ENDTAB
  0
ENDSEC
  0
SECTION
  2
BLOCKS
  0
BLOCK
  8
CSLAYER1
  2
*D0000
 70
    65
 10
0.0
 20
0.0
 30
0.0
  0
LINE
  8
CSLAYER1
  6
CONTINUOUS
 62
     7
 10
71.040686
 20
176.675843
 11
71.040686
 21
181.778979
  0
LINE
  8
CSLAYER1
  6
CONTINUOUS
 62
     7
 10
91.040686
 20
176.675843
 11
91.040686
 21
181.778979
  0
LINE
  8
CSLAYER1
  6
CONTINUOUS
 62
     7
 10
71.040686
 20
180.778979
 11
91.040686
 21
180.778979
  0
LINE
  8
CSLAYER1
  6
CONTINUOUS
 62
     7
 10
71.040686
 20
180.778979
 11
74.904390
 21
181.814255
  0
LINE
  8
CSLAYER1
  6
CONTINUOUS
 62
     7
 10
71.040686
 20
180.778979
 11
74.904390
 21
179.743703
  0
LINE
  8
CSLAYER1
  6
CONTINUOUS
 62
     7
 10
91.040686
 20
180.778979
 11
87.176983
 21
181.814255
  0
LINE
  8
CSLAYER1
  6
CONTINUOUS
 62
     7
 10
91.040686
 20
180.778979
 11
87.176983
 21
179.743703
  0
TEXT
  8
CSLAYER1
 62
     7
 10
78.040688
 20
181.778976
 40
4.000000
 41
0.900000
  1
20
 50
0.000000
 51
0.000000
  7
SX_FONT
 72
     5
 11
84.040688
 21
181.778976
  0
ENDBLK
  8
0
  0
BLOCK
  8
CSLAYER1
  2
*D0001
 70
    65
 10
0.0
 20
0.0
 30
0.0
  0
LINE
  8
CSLAYER1
  6
CONTINUOUS
 62
     7
 10
97.040686
 20
158.675843
 11
102.264146
 21
158.675843
  0
LINE
  8
CSLAYER1
  6
CONTINUOUS
 62
     7
 10
97.040686
 20
170.675843
 11
102.264146
 21
170.675843
  0
LINE
  8
CSLAYER1
  6
CONTINUOUS
 62
     7
 10
101.264146
 20
158.675843
 11
101.264146
 21
170.675843
  0
LINE
  8
CSLAYER1
  6
CONTINUOUS
 62
     7
 10
101.264146
 20
152.675843
 11
101.264146
 21
158.675843
  0
LINE
  8
CSLAYER1
  6
CONTINUOUS
 62
     7
 10
101.264146
 20
158.675843
 11
100.228870
 21
154.812140
  0
LINE
  8
CSLAYER1
  6
CONTINUOUS
 62
     7
 10
101.264146
 20
158.675843
 11
102.299423
 21
154.812140
  0
LINE
  8
CSLAYER1
  6
CONTINUOUS
 62
     7
 10
101.264146
 20
170.675843
 11
101.264146
 21
176.675843
  0
LINE
  8
CSLAYER1
  6
CONTINUOUS
 62
     7
 10
101.264146
 20
170.675843
 11
100.228870
 21
174.539547
  0
LINE
  8
CSLAYER1
  6
CONTINUOUS
 62
     7
 10
101.264146
 20
170.675843
 11
102.299423
 21
174.539547
  0
TEXT
  8
CSLAYER1
 62
     7
 10
106.264145
 20
161.675842
 40
4.000000
 41
0.900000
  1
12
 50
90.000000
 51
0.000000
  7
SX_FONT
 72
     5
 11
106.264145
 21
167.675842
  0
ENDBLK
  8
0
  0
ENDSEC
  0
SECTION
  2
ENTITIES
  0
LINE
  8
CSLAYER2
  6
CONTINUOUS
 62
     7
 10
74.781954
 20
163.266939
 11
72.126461
 21
162.915008
  0
ARC
  8
CSLAYER2
  6
CONTINUOUS
 62
     7
 10
72.290686
 20
161.675843
 40
1.250000
 50
97.549382
 51
180.000000
  0
ARC
  8
CSLAYER2
  6
CONTINUOUS
 62
     7
 10
82.540686
 20
166.466019
 40
2.000000
 50
90.000000
 51
151.760538
  0
ARC
  8
CSLAYER2
  6
CONTINUOUS
 62
     7
 10
73.730909
 20
171.197595
 40
8.000000
 50
277.549382
 51
331.760538
  0
ARC
  8
CSLAYER2
  6
CONTINUOUS
 62
     7
 10
85.690686
 20
167.325843
 40
3.350000
 50
0.000000
 51
90.000000
  0
ARC
  8
CSLAYER2
  6
CONTINUOUS
 62
     7
 10
85.690686
 20
167.325843
 40
3.350000
 50
90.000000
 51
160.101747
  0
LINE
  8
CSLAYER2
  6
CONTINUOUS
 62
     7
 10
89.040686
 20
167.325843
 11
89.040686
 21
166.675843
  0
LINE
  8
CSLAYER2
  6
CONTINUOUS
 62
     7
 10
89.040686
 20
166.675843
 11
91.040686
 21
166.675843
  0
LINE
  8
CSLAYER2
  6
CONTINUOUS
 62
     7
 10
91.040686
 20
166.675843
 11
91.040686
 21
158.675843
  0
LINE
  8
CSLAYER2
  6
CONTINUOUS
 62
     7
 10
91.040686
 20
158.675843
 11
71.040686
 21
158.675843
  0
LINE
  8
CSLAYER2
  6
CONTINUOUS
 62
     7
 10
71.040686
 20
158.675843
 11
71.040686
 21
161.675843
  0
TEXT
  8
CSLAYER1
 62
     7
 10
70.459053
 20
99.607124
 40
10.000000
 41
0.630000
  1
FM-2058
 50
0.000000
 51
0.000000
  7
SX_FONT
 72
     5
 11
112.459053
 21
99.607124
  0
DIMENSION
  8
CSLAYER1
 62
     7
  2
*D0000
 10
91.040686
 20
180.778979
 11
81.040688
 21
181.778976
 13
71.040686
 23
175.675843
 14
91.040686
 24
175.675843
 70
1
  0
DIMENSION
  8
CSLAYER1
 62
     7
  2
*D0001
 10
101.264146
 20
170.675843
 11
102.264145
 21
164.675842
 13
96.040686
 23
158.675843
 14
96.040686
 24
170.675843
 50
90.000000
 70
1
  0
TEXT
  8
CSLAYER1
 62
     7
 10
126.297073
 20
99.841789
 40
10.000000
 41
0.642857
  1
20x12
 50
0.000000
 51
0.000000
  7
SX_FONT
 72
     5
 11
156.297073
 21
99.841789
  0
TEXT
  8
CSLAYER1
 62
     7
 10
70.817383
 20
88.265083
 40
5.000000
 41
0.612766
  1
カタログ Vol. 1  P48
 50
0.000000
 51
0.000000
  7
SX_FONT
 72
     5
 11
118.817383
 21
88.265083
  0
TEXT
  8
CSLAYER1
 62
     7
 10
71.141310
 20
78.284163
 40
4.960742
 41
0.729057
  1
ホ%%dケットカタロク゛ Vol. 1 P21
 50
0.000000
 51
0.000000
  7
SX_FONT
 72
     5
 11
145.885668
 21
78.284163
  0
ENDSEC
  0
EOF
