  0
SECTION
  2
HEADER
  9
$ACADVER
  1
AC1006
  9
$INSBASE
 10
84.447510
 20
202.984375
 30
0.0
  9
$EXTMIN
 10
84.447510
 20
202.984375
  9
$EXTMAX
 10
294.447510
 20
499.984375
  9
$LIMMIN
 10
84.447510
 20
202.984375
  9
$LIMMAX
 10
294.447510
 20
499.984375
  9
$VIEWCTR
 10
189.447510
 20
351.484375
  9
$VIEWSIZE
 40
297.000000
  9
$SNAPMODE
 70
     0
  9
$SNAPUNIT
 10
1.0
 20
1.0
  9
$SNAPBASE
 10
0.0
 20
0.0
  9
$SNAPANG
 50
0.0
  9
$SNAPSTYLE
 70
     0
  9
$SNAPISOPAIR
 70
     0
  9
$GRIDMODE
 70
     0
  9
$GRIDUNIT
 10
0.0
 20
0.0
  9
$ORTHOMODE
 70
     0
  9
$REGENMODE
 70
     1
  9
$FILLMODE
 70
     1
  9
$QTEXTMODE
 70
     0
  9
$DRAGMODE
 70
     2
  9
$LTSCALE
 40
15.000000
  9
$OSMODE
 70
     0
  9
$ATTMODE
 70
     1
  9
$TEXTSIZE
 40
0.2
  9
$TRACEWID
 40
0.05
  9
$TEXTSTYLE
  7
STANDARD
  9
$CLAYER
  8
CSLAYER3
  9
$CELTYPE
  6
BYLAYER
  9
$CECOLOR
 62
   256
  9
$DIMSCALE
 40
1.0
  9
$DIMASZ
 40
0.18
  9
$DIMEXO
 40
0.0625
  9
$DIMDLI
 40
0.38
  9
$DIMRND
 40
0.0
  9
$DIMDLE
 40
0.0
  9
$DIMEXE
 40
0.18
  9
$DIMTP
 40
0.0
  9
$DIMTM
 40
0.0
  9
$DIMTXT
 40
0.18
  9
$DIMCEN
 40
0.09
  9
$DIMTSZ
 40
0.0
  9
$DIMTOL
 70
     0
  9
$DIMLIM
 70
     0
  9
$DIMTIH
 70
     1
  9
$DIMTOH
 70
     1
  9
$DIMSE1
 70
     0
  9
$DIMSE2
 70
     0
  9
$DIMTAD
 70
     0
  9
$DIMZIN
 70
     0
  9
$DIMBLK
  1

  9
$LUNITS
 70
     2
  9
$LUPREC
 70
     4
  9
$AXISMODE
 70
     0
  9
$AXISUNIT
 10
0.0
 20
0.0
  9
$SKETCHINC
 40
0.1
  9
$FILLETRAD
 40
0.0
  9
$AUNITS
 70
     0
  9
$AUPREC
 70
     0
  9
$MENU
  1
ACAD
  9
$ELEVATION
 40
0.0
  9
$THICKNESS
 40
0.0
  9
$VIEWDIR
 10
0.0
 20
0.0
 30
1.0
  9
$LIMCHECK
 70
     0
  9
$BLIPMODE
 70
     1
  9
$CHAMFERA
 40
0.0
  9
$CHAMFERB
 40
0.0
  9
$FASTZOOM
 70
     1
  9
$SKPOLY
 70
     0
  9
$TDCREATE
 40
0.000000
  9
$TDUPDATE
 40
0.000000
  9
$TDINDWG
 40
0.0
  9
$TDUSRTIMER
 40
0.0
  9
$USRTIMER
 70
     1
  9
$ANGBASE
 50
0.0
  9
$ANGDIR
 70
     0
  9
$PDMODE
 70
     0
  9
$PDSIZE
 40
0.0
  9
$PLINEWID
 40
0.0
  9
$COORDS
 70
     0
  9
$USERI1
 70
     0
  9
$USERI2
 70
     0
  9
$USERI3
 70
     0
  9
$USERI4
 70
     0
  9
$USERI5
 70
     0
  9
$USERR1
 40
0.0
  9
$USERR2
 40
0.0
  9
$USERR3
 40
0.0
  9
$USERR4
 40
0.0
  9
$USERR5
 40
0.0
  0
ENDSEC
  0
SECTION
  2
TABLES
  0
TABLE
  2
LTYPE
 70
     9
  0
LTYPE
  2
CONTINUOUS
 70
    64
  3
Solid line
 72
    65
 73
     0
 40
0.0
  0
LTYPE
  2
DASHED
 70
    64
  3
__ __ __ __ __ __ __ __ __ __ __ __ __ __ __
 72
    65
 73
     2
 40
0.75
 49
0.5
 49
-0.25
  0
LTYPE
  2
HIDDEN
 70
    64
  3
_ _ _ _ _ _ _ _ _ _ _ _ _ _ _ _ _ _ _ _ _ _ _
 72
    65
 73
     2
 40
0.375
 49
0.25
 49
-0.125
  0
LTYPE
  2
DOT
 70
    64
  3
...............................................
 72
    65
 73
     2
 40
0.25
 49
0.0
 49
-0.25
  0
LTYPE
  2
DASHDOT
 70
    64
  3
__ . __ . __ . __ . __ . __ . __ . __ . __ . __
 72
    65
 73
     4
 40
1.0
 49
0.5
 49
-0.25
 49
0.0
 49
-0.25
  0
LTYPE
  2
DIVIDE
 70
    64
  3
__ . . __ . . __ . . __ . . __ . . __ . . __
 72
    65
 73
     6
 40
1.25
 49
0.5
 49
-0.25
 49
0.0
 49
-0.25
 49
0.0
 49
-0.25
  0
LTYPE
  2
CENTER
 70
    64
  3
____ _ ____ _ ____ _ ____ _ ____ _ ____ _ ____ 
 72
    65
 73
     4
 40
2.0
 49
1.25
 49
-0.25
 49
0.25
 49
-0.25
  0
LTYPE
  2
PHANTOM
 70
    64
  3
______  __  __  ______  __  __  ______  __  __ 
 72
    65
 73
     6
 40
2.5
 49
1.25
 49
-0.25
 49
0.25
 49
-0.25
 49
0.25
 49
-0.25
  0
LTYPE
  2
BORDER
 70
    64
  3
__ __ . __ __ . __ __ . __ __ . __ __ . __ __ .
 72
    65
 73
     6
 40
1.75
 49
0.5
 49
-0.25
 49
0.5
 49
-0.25
 49
0.0
 49
-0.25
  0
ENDTAB
  0
TABLE
  2
LAYER
 70
    16
  0
LAYER
  2
CSLAYER1
 70
    64
 62
     7
  6
CONTINUOUS
  0
LAYER
  2
CSLAYER2
 70
    64
 62
     7
  6
CONTINUOUS
  0
LAYER
  2
CSLAYER3
 70
    64
 62
     7
  6
CONTINUOUS
  0
LAYER
  2
CSLAYER4
 70
    64
 62
     7
  6
CONTINUOUS
  0
LAYER
  2
CSLAYER5
 70
    64
 62
     7
  6
CONTINUOUS
  0
LAYER
  2
CSLAYER6
 70
    64
 62
     7
  6
CONTINUOUS
  0
LAYER
  2
CSLAYER7
 70
    64
 62
     7
  6
CONTINUOUS
  0
LAYER
  2
CSLAYER8
 70
    64
 62
     7
  6
CONTINUOUS
  0
LAYER
  2
CSLAYER9
 70
    64
 62
     7
  6
CONTINUOUS
  0
LAYER
  2
CSLAYER10
 70
    64
 62
     7
  6
CONTINUOUS
  0
LAYER
  2
CSLAYER11
 70
    64
 62
     7
  6
CONTINUOUS
  0
LAYER
  2
CSLAYER12
 70
    64
 62
     7
  6
CONTINUOUS
  0
LAYER
  2
CSLAYER13
 70
    64
 62
     7
  6
CONTINUOUS
  0
LAYER
  2
CSLAYER14
 70
    64
 62
     7
  6
CONTINUOUS
  0
LAYER
  2
CSLAYER15
 70
    64
 62
     7
  6
CONTINUOUS
  0
LAYER
  2
CSLAYER16
 70
    64
 62
     7
  6
CONTINUOUS
  0
ENDTAB
  0
TABLE
  2
STYLE
 70
     1
  0
STYLE
  2
SX_FONT
 70
     0
 40
1.0
 41
1.0
 50
0.0
 71
     0
 42
1.0
  3
monotxt
  4
bigfont
  0
ENDTAB
  0
TABLE
  2
VIEW
 70
     0
  0
ENDTAB
  0
ENDSEC
  0
SECTION
  2
BLOCKS
  0
BLOCK
  8
CSLAYER1
  2
*D0000
 70
    65
 10
0.0
 20
0.0
 30
0.0
  0
LINE
  8
CSLAYER1
  6
CONTINUOUS
 62
     7
 10
66.522807
 20
207.669703
 11
66.522807
 21
212.555877
  0
LINE
  8
CSLAYER1
  6
CONTINUOUS
 62
     7
 10
108.522807
 20
207.669703
 11
108.522807
 21
212.555877
  0
LINE
  8
CSLAYER1
  6
CONTINUOUS
 62
     7
 10
66.522807
 20
211.555877
 11
108.522807
 21
211.555877
  0
LINE
  8
CSLAYER1
  6
CONTINUOUS
 62
     7
 10
66.522807
 20
211.555877
 11
70.386511
 21
212.591153
  0
LINE
  8
CSLAYER1
  6
CONTINUOUS
 62
     7
 10
66.522807
 20
211.555877
 11
70.386511
 21
210.520601
  0
LINE
  8
CSLAYER1
  6
CONTINUOUS
 62
     7
 10
108.522807
 20
211.555877
 11
104.659104
 21
212.591153
  0
LINE
  8
CSLAYER1
  6
CONTINUOUS
 62
     7
 10
108.522807
 20
211.555877
 11
104.659104
 21
210.520601
  0
TEXT
  8
CSLAYER1
 62
     7
 10
84.522804
 20
212.555878
 40
4.000000
 41
0.900000
  1
42
 50
0.000000
 51
0.000000
  7
SX_FONT
 72
     5
 11
90.522804
 21
212.555878
  0
ENDBLK
  8
0
  0
BLOCK
  8
CSLAYER1
  2
*D0001
 70
    65
 10
0.0
 20
0.0
 30
0.0
  0
LINE
  8
CSLAYER1
  6
CONTINUOUS
 62
     7
 10
114.522807
 20
159.669703
 11
119.415534
 21
159.669703
  0
LINE
  8
CSLAYER1
  6
CONTINUOUS
 62
     7
 10
114.522807
 20
201.669703
 11
119.415534
 21
201.669703
  0
LINE
  8
CSLAYER1
  6
CONTINUOUS
 62
     7
 10
118.415534
 20
159.669703
 11
118.415534
 21
201.669703
  0
LINE
  8
CSLAYER1
  6
CONTINUOUS
 62
     7
 10
118.415534
 20
159.669703
 11
117.380258
 21
163.533406
  0
LINE
  8
CSLAYER1
  6
CONTINUOUS
 62
     7
 10
118.415534
 20
159.669703
 11
119.450810
 21
163.533406
  0
LINE
  8
CSLAYER1
  6
CONTINUOUS
 62
     7
 10
118.415534
 20
201.669703
 11
117.380258
 21
197.805999
  0
LINE
  8
CSLAYER1
  6
CONTINUOUS
 62
     7
 10
118.415534
 20
201.669703
 11
119.450810
 21
197.805999
  0
TEXT
  8
CSLAYER1
 62
     7
 10
123.804680
 20
177.029373
 40
4.000000
 41
0.900000
  1
42
 50
90.000000
 51
0.000000
  7
SX_FONT
 72
     5
 11
123.804680
 21
183.029373
  0
ENDBLK
  8
0
  0
ENDSEC
  0
SECTION
  2
ENTITIES
  0
ARC
  8
CSLAYER2
  6
CONTINUOUS
 62
     7
 10
70.522807
 20
197.669703
 40
21.000000
 50
282.824954
 51
347.175046
  0
LINE
  8
CSLAYER2
  6
CONTINUOUS
 62
     7
 10
108.522807
 20
159.669703
 11
108.522807
 21
201.669703
  0
LINE
  8
CSLAYER2
  6
CONTINUOUS
 62
     7
 10
108.522807
 20
197.669703
 11
108.522807
 21
201.669703
  0
ARC
  8
CSLAYER2
  6
CONTINUOUS
 62
     7
 10
96.847697
 20
191.669703
 40
6.000000
 50
90.000000
 51
167.211635
  0
LINE
  8
CSLAYER2
  6
CONTINUOUS
 62
     7
 10
100.522803
 20
197.669703
 11
96.847697
 21
197.669703
  0
LINE
  8
CSLAYER2
  6
CONTINUOUS
 62
     7
 10
100.522803
 20
201.669703
 11
100.522803
 21
197.669703
  0
LINE
  8
CSLAYER2
  6
CONTINUOUS
 62
     7
 10
108.522807
 20
201.669703
 11
106.179657
 21
201.669703
  0
LINE
  8
CSLAYER2
  6
CONTINUOUS
 62
     7
 10
108.522807
 20
201.669703
 11
100.522803
 21
201.669703
  0
LINE
  8
CSLAYER2
  6
CONTINUOUS
 62
     7
 10
66.522807
 20
167.669707
 11
66.522807
 21
159.669703
  0
LINE
  8
CSLAYER2
  6
CONTINUOUS
 62
     7
 10
70.522807
 20
167.669703
 11
70.522807
 21
171.344813
  0
LINE
  8
CSLAYER2
  6
CONTINUOUS
 62
     7
 10
70.522807
 20
167.669707
 11
66.522807
 21
167.669707
  0
ARC
  8
CSLAYER2
  6
CONTINUOUS
 62
     7
 10
76.522807
 20
171.344813
 40
6.000000
 50
102.788365
 51
180.000000
  0
LINE
  8
CSLAYER2
  6
CONTINUOUS
 62
     7
 10
66.480739
 20
162.012853
 11
66.522807
 21
162.012853
  0
LINE
  8
CSLAYER2
  6
CONTINUOUS
 62
     7
 10
66.522807
 20
162.012853
 11
66.522807
 21
159.669703
  0
LINE
  8
CSLAYER2
  6
CONTINUOUS
 62
     7
 10
66.522807
 20
159.669703
 11
70.522807
 21
159.669703
  0
LINE
  8
CSLAYER2
  6
CONTINUOUS
 62
     7
 10
66.522807
 20
159.669703
 11
108.522807
 21
159.669703
  0
TEXT
  8
CSLAYER1
 62
     7
 10
66.203789
 20
96.844185
 40
12.000000
 41
0.700000
  1
FM-2041
 50
0.000000
 51
0.000000
  7
SX_FONT
 72
     5
 11
122.203789
 21
96.844185
  0
DIMENSION
  8
CSLAYER1
 62
     7
  2
*D0000
 10
108.522807
 20
211.555877
 11
87.522804
 21
212.555878
 13
66.522807
 23
206.669703
 14
108.522807
 24
206.669703
 70
1
  0
DIMENSION
  8
CSLAYER1
 62
     7
  2
*D0001
 10
118.415534
 20
201.669703
 11
123.804680
 21
180.029373
 13
113.522807
 23
159.669703
 14
113.522807
 24
201.669703
 50
90.000000
 70
1
  0
TEXT
  8
CSLAYER1
 62
     7
 10
140.586319
 20
97.923447
 40
12.000000
 41
0.714286
  1
42x42
 50
0.000000
 51
0.000000
  7
SX_FONT
 72
     5
 11
180.586319
 21
97.923447
  0
TEXT
  8
CSLAYER1
 62
     7
 10
67.678259
 20
73.262313
 40
4.960742
 41
0.729057
  1
ホ%%dケットカタロク゛ Vol. 1 P19
 50
0.000000
 51
0.000000
  7
SX_FONT
 72
     5
 11
142.422617
 21
73.262313
  0
TEXT
  8
CSLAYER1
 62
     7
 10
67.534996
 20
82.164558
 40
5.000000
 41
0.612766
  1
カタログ Vol. 1  P46
 50
0.000000
 51
0.000000
  7
SX_FONT
 72
     5
 11
115.534996
 21
82.164558
  0
ENDSEC
  0
EOF
