  0
SECTION
  2
HEADER
  9
$ACADVER
  1
AC1006
  9
$INSBASE
 10
0.000000
 20
0.000000
 30
0.0
  9
$EXTMIN
 10
0.000000
 20
0.000000
  9
$EXTMAX
 10
210.000000
 20
297.000000
  9
$LIMMIN
 10
0.000000
 20
0.000000
  9
$LIMMAX
 10
210.000000
 20
297.000000
  9
$VIEWCTR
 10
105.000000
 20
148.500000
  9
$VIEWSIZE
 40
297.000000
  9
$SNAPMODE
 70
     0
  9
$SNAPUNIT
 10
1.0
 20
1.0
  9
$SNAPBASE
 10
0.0
 20
0.0
  9
$SNAPANG
 50
0.0
  9
$SNAPSTYLE
 70
     0
  9
$SNAPISOPAIR
 70
     0
  9
$GRIDMODE
 70
     0
  9
$GRIDUNIT
 10
0.0
 20
0.0
  9
$ORTHOMODE
 70
     0
  9
$REGENMODE
 70
     1
  9
$FILLMODE
 70
     1
  9
$QTEXTMODE
 70
     0
  9
$DRAGMODE
 70
     2
  9
$LTSCALE
 40
15.000000
  9
$OSMODE
 70
     0
  9
$ATTMODE
 70
     1
  9
$TEXTSIZE
 40
0.2
  9
$TRACEWID
 40
0.05
  9
$TEXTSTYLE
  7
STANDARD
  9
$CLAYER
  8
CSLAYER3
  9
$CELTYPE
  6
BYLAYER
  9
$CECOLOR
 62
   256
  9
$DIMSCALE
 40
1.0
  9
$DIMASZ
 40
0.18
  9
$DIMEXO
 40
0.0625
  9
$DIMDLI
 40
0.38
  9
$DIMRND
 40
0.0
  9
$DIMDLE
 40
0.0
  9
$DIMEXE
 40
0.18
  9
$DIMTP
 40
0.0
  9
$DIMTM
 40
0.0
  9
$DIMTXT
 40
0.18
  9
$DIMCEN
 40
0.09
  9
$DIMTSZ
 40
0.0
  9
$DIMTOL
 70
     0
  9
$DIMLIM
 70
     0
  9
$DIMTIH
 70
     1
  9
$DIMTOH
 70
     1
  9
$DIMSE1
 70
     0
  9
$DIMSE2
 70
     0
  9
$DIMTAD
 70
     0
  9
$DIMZIN
 70
     0
  9
$DIMBLK
  1

  9
$LUNITS
 70
     2
  9
$LUPREC
 70
     4
  9
$AXISMODE
 70
     0
  9
$AXISUNIT
 10
0.0
 20
0.0
  9
$SKETCHINC
 40
0.1
  9
$FILLETRAD
 40
0.0
  9
$AUNITS
 70
     0
  9
$AUPREC
 70
     0
  9
$MENU
  1
ACAD
  9
$ELEVATION
 40
0.0
  9
$THICKNESS
 40
0.0
  9
$VIEWDIR
 10
0.0
 20
0.0
 30
1.0
  9
$LIMCHECK
 70
     0
  9
$BLIPMODE
 70
     1
  9
$CHAMFERA
 40
0.0
  9
$CHAMFERB
 40
0.0
  9
$FASTZOOM
 70
     1
  9
$SKPOLY
 70
     0
  9
$TDCREATE
 40
0.000000
  9
$TDUPDATE
 40
0.000000
  9
$TDINDWG
 40
0.0
  9
$TDUSRTIMER
 40
0.0
  9
$USRTIMER
 70
     1
  9
$ANGBASE
 50
0.0
  9
$ANGDIR
 70
     0
  9
$PDMODE
 70
     0
  9
$PDSIZE
 40
0.0
  9
$PLINEWID
 40
0.0
  9
$COORDS
 70
     0
  9
$USERI1
 70
     0
  9
$USERI2
 70
     0
  9
$USERI3
 70
     0
  9
$USERI4
 70
     0
  9
$USERI5
 70
     0
  9
$USERR1
 40
0.0
  9
$USERR2
 40
0.0
  9
$USERR3
 40
0.0
  9
$USERR4
 40
0.0
  9
$USERR5
 40
0.0
  0
ENDSEC
  0
SECTION
  2
TABLES
  0
TABLE
  2
LTYPE
 70
     9
  0
LTYPE
  2
CONTINUOUS
 70
    64
  3
Solid line
 72
    65
 73
     0
 40
0.0
  0
LTYPE
  2
DASHED
 70
    64
  3
__ __ __ __ __ __ __ __ __ __ __ __ __ __ __
 72
    65
 73
     2
 40
0.75
 49
0.5
 49
-0.25
  0
LTYPE
  2
HIDDEN
 70
    64
  3
_ _ _ _ _ _ _ _ _ _ _ _ _ _ _ _ _ _ _ _ _ _ _
 72
    65
 73
     2
 40
0.375
 49
0.25
 49
-0.125
  0
LTYPE
  2
DOT
 70
    64
  3
...............................................
 72
    65
 73
     2
 40
0.25
 49
0.0
 49
-0.25
  0
LTYPE
  2
DASHDOT
 70
    64
  3
__ . __ . __ . __ . __ . __ . __ . __ . __ . __
 72
    65
 73
     4
 40
1.0
 49
0.5
 49
-0.25
 49
0.0
 49
-0.25
  0
LTYPE
  2
DIVIDE
 70
    64
  3
__ . . __ . . __ . . __ . . __ . . __ . . __
 72
    65
 73
     6
 40
1.25
 49
0.5
 49
-0.25
 49
0.0
 49
-0.25
 49
0.0
 49
-0.25
  0
LTYPE
  2
CENTER
 70
    64
  3
____ _ ____ _ ____ _ ____ _ ____ _ ____ _ ____ 
 72
    65
 73
     4
 40
2.0
 49
1.25
 49
-0.25
 49
0.25
 49
-0.25
  0
LTYPE
  2
PHANTOM
 70
    64
  3
______  __  __  ______  __  __  ______  __  __ 
 72
    65
 73
     6
 40
2.5
 49
1.25
 49
-0.25
 49
0.25
 49
-0.25
 49
0.25
 49
-0.25
  0
LTYPE
  2
BORDER
 70
    64
  3
__ __ . __ __ . __ __ . __ __ . __ __ . __ __ .
 72
    65
 73
     6
 40
1.75
 49
0.5
 49
-0.25
 49
0.5
 49
-0.25
 49
0.0
 49
-0.25
  0
ENDTAB
  0
TABLE
  2
LAYER
 70
    16
  0
LAYER
  2
CSLAYER1
 70
    64
 62
     7
  6
CONTINUOUS
  0
LAYER
  2
CSLAYER2
 70
    64
 62
     7
  6
CONTINUOUS
  0
LAYER
  2
CSLAYER3
 70
    64
 62
     7
  6
CONTINUOUS
  0
LAYER
  2
CSLAYER4
 70
    64
 62
     7
  6
CONTINUOUS
  0
LAYER
  2
CSLAYER5
 70
    64
 62
     7
  6
CONTINUOUS
  0
LAYER
  2
CSLAYER6
 70
    64
 62
     7
  6
CONTINUOUS
  0
LAYER
  2
CSLAYER7
 70
    64
 62
     7
  6
CONTINUOUS
  0
LAYER
  2
CSLAYER8
 70
    64
 62
     7
  6
CONTINUOUS
  0
LAYER
  2
CSLAYER9
 70
    64
 62
     7
  6
CONTINUOUS
  0
LAYER
  2
CSLAYER10
 70
    64
 62
     7
  6
CONTINUOUS
  0
LAYER
  2
CSLAYER11
 70
    64
 62
     7
  6
CONTINUOUS
  0
LAYER
  2
CSLAYER12
 70
    64
 62
     7
  6
CONTINUOUS
  0
LAYER
  2
CSLAYER13
 70
    64
 62
     7
  6
CONTINUOUS
  0
LAYER
  2
CSLAYER14
 70
    64
 62
     7
  6
CONTINUOUS
  0
LAYER
  2
CSLAYER15
 70
    64
 62
     7
  6
CONTINUOUS
  0
LAYER
  2
CSLAYER16
 70
    64
 62
     7
  6
CONTINUOUS
  0
ENDTAB
  0
TABLE
  2
STYLE
 70
     1
  0
STYLE
  2
SX_FONT
 70
     0
 40
1.0
 41
1.0
 50
0.0
 71
     0
 42
1.0
  3
monotxt
  4
bigfont
  0
ENDTAB
  0
TABLE
  2
VIEW
 70
     0
  0
ENDTAB
  0
ENDSEC
  0
SECTION
  2
BLOCKS
  0
BLOCK
  8
CSLAYER1
  2
*D0000
 70
    65
 10
0.0
 20
0.0
 30
0.0
  0
LINE
  8
CSLAYER1
  6
CONTINUOUS
 62
     7
 10
64.173368
 20
182.625952
 11
64.173368
 21
187.708473
  0
LINE
  8
CSLAYER1
  6
CONTINUOUS
 62
     7
 10
94.173368
 20
182.625952
 11
94.173368
 21
187.708473
  0
LINE
  8
CSLAYER1
  6
CONTINUOUS
 62
     7
 10
64.173368
 20
186.708473
 11
94.173368
 21
186.708473
  0
LINE
  8
CSLAYER1
  6
CONTINUOUS
 62
     7
 10
64.173368
 20
186.708473
 11
68.037072
 21
187.743749
  0
LINE
  8
CSLAYER1
  6
CONTINUOUS
 62
     7
 10
64.173368
 20
186.708473
 11
68.037072
 21
185.673197
  0
LINE
  8
CSLAYER1
  6
CONTINUOUS
 62
     7
 10
94.173368
 20
186.708473
 11
90.309665
 21
187.743749
  0
LINE
  8
CSLAYER1
  6
CONTINUOUS
 62
     7
 10
94.173368
 20
186.708473
 11
90.309665
 21
185.673197
  0
TEXT
  8
CSLAYER1
 62
     7
 10
76.173370
 20
187.708466
 40
4.000000
 41
0.900000
  1
30
 50
0.000000
 51
0.000000
  7
SX_FONT
 72
     5
 11
82.173370
 21
187.708466
  0
ENDBLK
  8
0
  0
BLOCK
  8
CSLAYER1
  2
*D0001
 70
    65
 10
0.0
 20
0.0
 30
0.0
  0
LINE
  8
CSLAYER1
  6
CONTINUOUS
 62
     7
 10
100.173368
 20
146.625952
 11
105.471118
 21
146.625952
  0
LINE
  8
CSLAYER1
  6
CONTINUOUS
 62
     7
 10
100.173368
 20
176.625952
 11
105.471118
 21
176.625952
  0
LINE
  8
CSLAYER1
  6
CONTINUOUS
 62
     7
 10
104.471118
 20
146.625952
 11
104.471118
 21
176.625952
  0
LINE
  8
CSLAYER1
  6
CONTINUOUS
 62
     7
 10
104.471118
 20
146.625952
 11
103.435842
 21
150.489656
  0
LINE
  8
CSLAYER1
  6
CONTINUOUS
 62
     7
 10
104.471118
 20
146.625952
 11
105.506395
 21
150.489656
  0
LINE
  8
CSLAYER1
  6
CONTINUOUS
 62
     7
 10
104.471118
 20
176.625952
 11
103.435842
 21
172.762249
  0
LINE
  8
CSLAYER1
  6
CONTINUOUS
 62
     7
 10
104.471118
 20
176.625952
 11
105.506395
 21
172.762249
  0
TEXT
  8
CSLAYER1
 62
     7
 10
109.802933
 20
158.648941
 40
4.000000
 41
0.900000
  1
30
 50
90.000000
 51
0.000000
  7
SX_FONT
 72
     5
 11
109.802933
 21
164.648941
  0
ENDBLK
  8
0
  0
ENDSEC
  0
SECTION
  2
ENTITIES
  0
ARC
  8
CSLAYER2
  6
CONTINUOUS
 62
     7
 10
60.173582
 20
155.687919
 40
9.000000
 50
-27.271973
 51
0.394495
  0
ARC
  8
CSLAYER2
  6
CONTINUOUS
 62
     7
 10
64.173368
 20
153.625952
 40
4.500000
 50
270.000000
 51
332.728027
  0
ARC
  8
CSLAYER2
  6
CONTINUOUS
 62
     7
 10
85.111402
 20
180.625739
 40
9.000000
 50
269.605505
 51
297.271973
  0
ARC
  8
CSLAYER2
  6
CONTINUOUS
 62
     7
 10
87.173368
 20
176.625952
 40
4.500000
 50
297.271973
 51
360.000000
  0
ARC
  8
CSLAYER2
  6
CONTINUOUS
 62
     7
 10
74.549435
 20
166.249886
 40
11.000000
 50
-90.238778
 51
0.238778
  0
ARC
  8
CSLAYER2
  6
CONTINUOUS
 62
     7
 10
74.628617
 20
185.249721
 40
30.000000
 50
259.522953
 51
269.761222
  0
ARC
  8
CSLAYER2
  6
CONTINUOUS
 62
     7
 10
55.549600
 20
166.170704
 40
30.000000
 50
0.238778
 51
10.477047
  0
LINE
  8
CSLAYER2
  6
CONTINUOUS
 62
     7
 10
91.673368
 20
176.625952
 11
94.173368
 21
176.625952
  0
LINE
  8
CSLAYER2
  6
CONTINUOUS
 62
     7
 10
94.173368
 20
176.625952
 11
94.173368
 21
146.625952
  0
LINE
  8
CSLAYER2
  6
CONTINUOUS
 62
     7
 10
94.173368
 20
146.625952
 11
64.173368
 21
146.625952
  0
LINE
  8
CSLAYER2
  6
CONTINUOUS
 62
     7
 10
64.173368
 20
146.625952
 11
64.173368
 21
149.125952
  0
TEXT
  8
CSLAYER1
 62
     7
 10
63.974319
 20
84.300087
 40
12.000000
 41
0.700000
  1
FM-2030
 50
0.000000
 51
0.000000
  7
SX_FONT
 72
     5
 11
119.974319
 21
84.300087
  0
DIMENSION
  8
CSLAYER1
 62
     7
  2
*D0000
 10
94.173368
 20
186.708473
 11
79.173370
 21
187.708466
 13
64.173368
 23
181.625952
 14
94.173368
 24
181.625952
 70
1
  0
DIMENSION
  8
CSLAYER1
 62
     7
  2
*D0001
 10
104.471118
 20
176.625952
 11
109.802933
 21
161.648941
 13
99.173368
 23
146.625952
 14
99.173368
 24
176.625952
 50
90.000000
 70
1
  0
TEXT
  8
CSLAYER1
 62
     7
 10
134.809479
 20
84.434814
 40
12.000000
 41
0.714286
  1
30x30
 50
0.000000
 51
0.000000
  7
SX_FONT
 72
     5
 11
174.809479
 21
84.434814
  0
TEXT
  8
CSLAYER1
 62
     7
 10
64.479033
 20
64.354140
 40
4.960742
 41
0.729057
  1
ホ%%dケットカタロク゛ Vol. 1 P18
 50
0.000000
 51
0.000000
  7
SX_FONT
 72
     5
 11
139.223390
 21
64.354140
  0
TEXT
  8
CSLAYER1
 62
     7
 10
65.084793
 20
73.022766
 40
5.000000
 41
0.612766
  1
カタログ Vol. 1  P45
 50
0.000000
 51
0.000000
  7
SX_FONT
 72
     5
 11
113.084793
 21
73.022766
  0
ENDSEC
  0
EOF
