  0
SECTION
  2
HEADER
  9
$ACADVER
  1
AC1006
  9
$INSBASE
 10
90.692749
 20
185.889079
 30
0.0
  9
$EXTMIN
 10
90.692749
 20
185.889079
  9
$EXTMAX
 10
300.692749
 20
482.889079
  9
$LIMMIN
 10
90.692749
 20
185.889079
  9
$LIMMAX
 10
300.692749
 20
482.889079
  9
$VIEWCTR
 10
195.692749
 20
334.389079
  9
$VIEWSIZE
 40
297.000000
  9
$SNAPMODE
 70
     0
  9
$SNAPUNIT
 10
1.0
 20
1.0
  9
$SNAPBASE
 10
0.0
 20
0.0
  9
$SNAPANG
 50
0.0
  9
$SNAPSTYLE
 70
     0
  9
$SNAPISOPAIR
 70
     0
  9
$GRIDMODE
 70
     0
  9
$GRIDUNIT
 10
0.0
 20
0.0
  9
$ORTHOMODE
 70
     0
  9
$REGENMODE
 70
     1
  9
$FILLMODE
 70
     1
  9
$QTEXTMODE
 70
     0
  9
$DRAGMODE
 70
     2
  9
$LTSCALE
 40
15.000000
  9
$OSMODE
 70
     0
  9
$ATTMODE
 70
     1
  9
$TEXTSIZE
 40
0.2
  9
$TRACEWID
 40
0.05
  9
$TEXTSTYLE
  7
STANDARD
  9
$CLAYER
  8
CSLAYER3
  9
$CELTYPE
  6
BYLAYER
  9
$CECOLOR
 62
   256
  9
$DIMSCALE
 40
1.0
  9
$DIMASZ
 40
0.18
  9
$DIMEXO
 40
0.0625
  9
$DIMDLI
 40
0.38
  9
$DIMRND
 40
0.0
  9
$DIMDLE
 40
0.0
  9
$DIMEXE
 40
0.18
  9
$DIMTP
 40
0.0
  9
$DIMTM
 40
0.0
  9
$DIMTXT
 40
0.18
  9
$DIMCEN
 40
0.09
  9
$DIMTSZ
 40
0.0
  9
$DIMTOL
 70
     0
  9
$DIMLIM
 70
     0
  9
$DIMTIH
 70
     1
  9
$DIMTOH
 70
     1
  9
$DIMSE1
 70
     0
  9
$DIMSE2
 70
     0
  9
$DIMTAD
 70
     0
  9
$DIMZIN
 70
     0
  9
$DIMBLK
  1

  9
$LUNITS
 70
     2
  9
$LUPREC
 70
     4
  9
$AXISMODE
 70
     0
  9
$AXISUNIT
 10
0.0
 20
0.0
  9
$SKETCHINC
 40
0.1
  9
$FILLETRAD
 40
0.0
  9
$AUNITS
 70
     0
  9
$AUPREC
 70
     0
  9
$MENU
  1
ACAD
  9
$ELEVATION
 40
0.0
  9
$THICKNESS
 40
0.0
  9
$VIEWDIR
 10
0.0
 20
0.0
 30
1.0
  9
$LIMCHECK
 70
     0
  9
$BLIPMODE
 70
     1
  9
$CHAMFERA
 40
0.0
  9
$CHAMFERB
 40
0.0
  9
$FASTZOOM
 70
     1
  9
$SKPOLY
 70
     0
  9
$TDCREATE
 40
0.000000
  9
$TDUPDATE
 40
0.000000
  9
$TDINDWG
 40
0.0
  9
$TDUSRTIMER
 40
0.0
  9
$USRTIMER
 70
     1
  9
$ANGBASE
 50
0.0
  9
$ANGDIR
 70
     0
  9
$PDMODE
 70
     0
  9
$PDSIZE
 40
0.0
  9
$PLINEWID
 40
0.0
  9
$COORDS
 70
     0
  9
$USERI1
 70
     0
  9
$USERI2
 70
     0
  9
$USERI3
 70
     0
  9
$USERI4
 70
     0
  9
$USERI5
 70
     0
  9
$USERR1
 40
0.0
  9
$USERR2
 40
0.0
  9
$USERR3
 40
0.0
  9
$USERR4
 40
0.0
  9
$USERR5
 40
0.0
  0
ENDSEC
  0
SECTION
  2
TABLES
  0
TABLE
  2
LTYPE
 70
     9
  0
LTYPE
  2
CONTINUOUS
 70
    64
  3
Solid line
 72
    65
 73
     0
 40
0.0
  0
LTYPE
  2
DASHED
 70
    64
  3
__ __ __ __ __ __ __ __ __ __ __ __ __ __ __
 72
    65
 73
     2
 40
0.75
 49
0.5
 49
-0.25
  0
LTYPE
  2
HIDDEN
 70
    64
  3
_ _ _ _ _ _ _ _ _ _ _ _ _ _ _ _ _ _ _ _ _ _ _
 72
    65
 73
     2
 40
0.375
 49
0.25
 49
-0.125
  0
LTYPE
  2
DOT
 70
    64
  3
...............................................
 72
    65
 73
     2
 40
0.25
 49
0.0
 49
-0.25
  0
LTYPE
  2
DASHDOT
 70
    64
  3
__ . __ . __ . __ . __ . __ . __ . __ . __ . __
 72
    65
 73
     4
 40
1.0
 49
0.5
 49
-0.25
 49
0.0
 49
-0.25
  0
LTYPE
  2
DIVIDE
 70
    64
  3
__ . . __ . . __ . . __ . . __ . . __ . . __
 72
    65
 73
     6
 40
1.25
 49
0.5
 49
-0.25
 49
0.0
 49
-0.25
 49
0.0
 49
-0.25
  0
LTYPE
  2
CENTER
 70
    64
  3
____ _ ____ _ ____ _ ____ _ ____ _ ____ _ ____ 
 72
    65
 73
     4
 40
2.0
 49
1.25
 49
-0.25
 49
0.25
 49
-0.25
  0
LTYPE
  2
PHANTOM
 70
    64
  3
______  __  __  ______  __  __  ______  __  __ 
 72
    65
 73
     6
 40
2.5
 49
1.25
 49
-0.25
 49
0.25
 49
-0.25
 49
0.25
 49
-0.25
  0
LTYPE
  2
BORDER
 70
    64
  3
__ __ . __ __ . __ __ . __ __ . __ __ . __ __ .
 72
    65
 73
     6
 40
1.75
 49
0.5
 49
-0.25
 49
0.5
 49
-0.25
 49
0.0
 49
-0.25
  0
ENDTAB
  0
TABLE
  2
LAYER
 70
    16
  0
LAYER
  2
CSLAYER1
 70
    64
 62
     7
  6
CONTINUOUS
  0
LAYER
  2
CSLAYER2
 70
    64
 62
     7
  6
CONTINUOUS
  0
LAYER
  2
CSLAYER3
 70
    64
 62
     7
  6
CONTINUOUS
  0
LAYER
  2
CSLAYER4
 70
    64
 62
     7
  6
CONTINUOUS
  0
LAYER
  2
CSLAYER5
 70
    64
 62
     7
  6
CONTINUOUS
  0
LAYER
  2
CSLAYER6
 70
    64
 62
     7
  6
CONTINUOUS
  0
LAYER
  2
CSLAYER7
 70
    64
 62
     7
  6
CONTINUOUS
  0
LAYER
  2
CSLAYER8
 70
    64
 62
     7
  6
CONTINUOUS
  0
LAYER
  2
CSLAYER9
 70
    64
 62
     7
  6
CONTINUOUS
  0
LAYER
  2
CSLAYER10
 70
    64
 62
     7
  6
CONTINUOUS
  0
LAYER
  2
CSLAYER11
 70
    64
 62
     7
  6
CONTINUOUS
  0
LAYER
  2
CSLAYER12
 70
    64
 62
     7
  6
CONTINUOUS
  0
LAYER
  2
CSLAYER13
 70
    64
 62
     7
  6
CONTINUOUS
  0
LAYER
  2
CSLAYER14
 70
    64
 62
     7
  6
CONTINUOUS
  0
LAYER
  2
CSLAYER15
 70
    64
 62
     7
  6
CONTINUOUS
  0
LAYER
  2
CSLAYER16
 70
    64
 62
     7
  6
CONTINUOUS
  0
ENDTAB
  0
TABLE
  2
STYLE
 70
     1
  0
STYLE
  2
SX_FONT
 70
     0
 40
1.0
 41
1.0
 50
0.0
 71
     0
 42
1.0
  3
monotxt
  4
bigfont
  0
ENDTAB
  0
TABLE
  2
VIEW
 70
     0
  0
ENDTAB
  0
ENDSEC
  0
SECTION
  2
BLOCKS
  0
BLOCK
  8
CSLAYER1
  2
*D0000
 70
    65
 10
0.0
 20
0.0
 30
0.0
  0
LINE
  8
CSLAYER1
  6
CONTINUOUS
 62
     7
 10
97.837939
 20
159.310541
 11
102.947106
 21
159.310541
  0
LINE
  8
CSLAYER1
  6
CONTINUOUS
 62
     7
 10
97.837939
 20
177.310541
 11
102.947106
 21
177.310541
  0
LINE
  8
CSLAYER1
  6
CONTINUOUS
 62
     7
 10
101.947106
 20
159.310541
 11
101.947106
 21
177.310541
  0
LINE
  8
CSLAYER1
  6
CONTINUOUS
 62
     7
 10
101.947106
 20
159.310541
 11
100.911830
 21
163.174245
  0
LINE
  8
CSLAYER1
  6
CONTINUOUS
 62
     7
 10
101.947106
 20
159.310541
 11
102.982382
 21
163.174245
  0
LINE
  8
CSLAYER1
  6
CONTINUOUS
 62
     7
 10
101.947106
 20
177.310541
 11
100.911830
 21
173.446838
  0
LINE
  8
CSLAYER1
  6
CONTINUOUS
 62
     7
 10
101.947106
 20
177.310541
 11
102.982382
 21
173.446838
  0
TEXT
  8
CSLAYER1
 62
     7
 10
107.038124
 20
165.049988
 40
4.000000
 41
0.900000
  1
18
 50
90.000000
 51
0.000000
  7
SX_FONT
 72
     5
 11
107.038124
 21
171.049988
  0
ENDBLK
  8
0
  0
BLOCK
  8
CSLAYER1
  2
*D0001
 70
    65
 10
0.0
 20
0.0
 30
0.0
  0
LINE
  8
CSLAYER1
  6
CONTINUOUS
 62
     7
 10
73.837939
 20
183.310541
 11
73.837939
 21
188.353451
  0
LINE
  8
CSLAYER1
  6
CONTINUOUS
 62
     7
 10
91.837939
 20
183.310541
 11
91.837939
 21
188.353451
  0
LINE
  8
CSLAYER1
  6
CONTINUOUS
 62
     7
 10
73.837939
 20
187.353451
 11
91.837939
 21
187.353451
  0
LINE
  8
CSLAYER1
  6
CONTINUOUS
 62
     7
 10
73.837939
 20
187.353451
 11
77.701643
 21
188.388727
  0
LINE
  8
CSLAYER1
  6
CONTINUOUS
 62
     7
 10
73.837939
 20
187.353451
 11
77.701643
 21
186.318175
  0
LINE
  8
CSLAYER1
  6
CONTINUOUS
 62
     7
 10
91.837939
 20
187.353451
 11
87.974236
 21
188.388727
  0
LINE
  8
CSLAYER1
  6
CONTINUOUS
 62
     7
 10
91.837939
 20
187.353451
 11
87.974236
 21
186.318175
  0
TEXT
  8
CSLAYER1
 62
     7
 10
79.837936
 20
188.353455
 40
4.000000
 41
0.900000
  1
18
 50
0.000000
 51
0.000000
  7
SX_FONT
 72
     5
 11
85.837936
 21
188.353455
  0
ENDBLK
  8
0
  0
ENDSEC
  0
SECTION
  2
ENTITIES
  0
ARC
  8
CSLAYER2
  6
CONTINUOUS
 62
     7
 10
73.337939
 20
165.176567
 40
3.500000
 50
-60.000000
 51
0.000000
  0
ARC
  8
CSLAYER2
  6
CONTINUOUS
 62
     7
 10
73.837939
 20
164.310541
 40
2.500000
 50
270.000000
 51
300.000000
  0
LINE
  8
CSLAYER2
  6
CONTINUOUS
 62
     7
 10
78.904905
 20
165.310541
 11
76.837939
 21
165.310541
  0
LINE
  8
CSLAYER2
  6
CONTINUOUS
 62
     7
 10
76.837939
 20
165.310541
 11
76.837939
 21
165.176567
  0
ARC
  8
CSLAYER2
  6
CONTINUOUS
 62
     7
 10
78.904905
 20
165.810541
 40
0.500000
 50
270.000000
 51
352.337744
  0
ARC
  8
CSLAYER2
  6
CONTINUOUS
 62
     7
 10
86.337939
 20
164.810541
 40
7.000000
 50
135.000000
 51
172.337744
  0
ARC
  8
CSLAYER2
  6
CONTINUOUS
 62
     7
 10
85.971914
 20
177.810541
 40
3.500000
 50
270.000000
 51
330.000000
  0
ARC
  8
CSLAYER2
  6
CONTINUOUS
 62
     7
 10
86.837939
 20
177.310541
 40
2.500000
 50
330.000000
 51
360.000000
  0
LINE
  8
CSLAYER2
  6
CONTINUOUS
 62
     7
 10
85.837939
 20
172.243576
 11
85.837939
 21
174.310541
  0
LINE
  8
CSLAYER2
  6
CONTINUOUS
 62
     7
 10
85.837939
 20
174.310541
 11
85.971914
 21
174.310541
  0
ARC
  8
CSLAYER2
  6
CONTINUOUS
 62
     7
 10
85.337939
 20
172.243576
 40
0.500000
 50
-82.337744
 51
0.000000
  0
ARC
  8
CSLAYER2
  6
CONTINUOUS
 62
     7
 10
86.337939
 20
164.810541
 40
7.000000
 50
97.662256
 51
135.000000
  0
LINE
  8
CSLAYER2
  6
CONTINUOUS
 62
     7
 10
89.337939
 20
177.310541
 11
91.837939
 21
177.310541
  0
LINE
  8
CSLAYER2
  6
CONTINUOUS
 62
     7
 10
91.837939
 20
177.310541
 11
91.837939
 21
159.310541
  0
LINE
  8
CSLAYER2
  6
CONTINUOUS
 62
     7
 10
91.837939
 20
159.310541
 11
73.837939
 21
159.310541
  0
LINE
  8
CSLAYER2
  6
CONTINUOUS
 62
     7
 10
73.837939
 20
159.310541
 11
73.837939
 21
161.810541
  0
TEXT
  8
CSLAYER1
 62
     7
 10
73.951401
 20
97.024780
 40
12.000000
 41
0.700000
  1
FM-2029
 50
0.000000
 51
0.000000
  7
SX_FONT
 72
     5
 11
129.951401
 21
97.024780
  0
DIMENSION
  8
CSLAYER1
 62
     7
  2
*D0000
 10
101.947106
 20
177.310541
 11
107.038124
 21
168.049988
 13
96.837939
 23
159.310541
 14
96.837939
 24
177.310541
 50
90.000000
 70
1
  0
DIMENSION
  8
CSLAYER1
 62
     7
  2
*D0001
 10
91.837939
 20
187.353451
 11
82.837936
 21
188.353455
 13
73.837939
 23
182.310541
 14
91.837939
 24
182.310541
 70
1
  0
TEXT
  8
CSLAYER1
 62
     7
 10
142.600800
 20
96.852783
 40
12.000000
 41
0.714286
  1
18x18
 50
0.000000
 51
0.000000
  7
SX_FONT
 72
     5
 11
182.600800
 21
96.852783
  0
TEXT
  8
CSLAYER1
 62
     7
 10
74.495108
 20
76.231482
 40
4.960742
 41
0.729057
  1
ホ%%dケットカタロク゛ Vol. 1 P18
 50
0.000000
 51
0.000000
  7
SX_FONT
 72
     5
 11
149.239465
 21
76.231482
  0
TEXT
  8
CSLAYER1
 62
     7
 10
75.004158
 20
84.327881
 40
5.000000
 41
0.612766
  1
カタログ Vol. 1  P45
 50
0.000000
 51
0.000000
  7
SX_FONT
 72
     5
 11
123.004158
 21
84.327881
  0
ENDSEC
  0
EOF
