  0
SECTION
  2
HEADER
  9
$ACADVER
  1
AC1006
  9
$INSBASE
 10
85.655558
 20
186.764567
 30
0.0
  9
$EXTMIN
 10
85.655558
 20
186.764567
  9
$EXTMAX
 10
295.655558
 20
483.764567
  9
$LIMMIN
 10
85.655558
 20
186.764567
  9
$LIMMAX
 10
295.655558
 20
483.764567
  9
$VIEWCTR
 10
190.655558
 20
335.264567
  9
$VIEWSIZE
 40
297.000000
  9
$SNAPMODE
 70
     0
  9
$SNAPUNIT
 10
1.0
 20
1.0
  9
$SNAPBASE
 10
0.0
 20
0.0
  9
$SNAPANG
 50
0.0
  9
$SNAPSTYLE
 70
     0
  9
$SNAPISOPAIR
 70
     0
  9
$GRIDMODE
 70
     0
  9
$GRIDUNIT
 10
0.0
 20
0.0
  9
$ORTHOMODE
 70
     0
  9
$REGENMODE
 70
     1
  9
$FILLMODE
 70
     1
  9
$QTEXTMODE
 70
     0
  9
$DRAGMODE
 70
     2
  9
$LTSCALE
 40
15.000000
  9
$OSMODE
 70
     0
  9
$ATTMODE
 70
     1
  9
$TEXTSIZE
 40
0.2
  9
$TRACEWID
 40
0.05
  9
$TEXTSTYLE
  7
STANDARD
  9
$CLAYER
  8
CSLAYER3
  9
$CELTYPE
  6
BYLAYER
  9
$CECOLOR
 62
   256
  9
$DIMSCALE
 40
1.0
  9
$DIMASZ
 40
0.18
  9
$DIMEXO
 40
0.0625
  9
$DIMDLI
 40
0.38
  9
$DIMRND
 40
0.0
  9
$DIMDLE
 40
0.0
  9
$DIMEXE
 40
0.18
  9
$DIMTP
 40
0.0
  9
$DIMTM
 40
0.0
  9
$DIMTXT
 40
0.18
  9
$DIMCEN
 40
0.09
  9
$DIMTSZ
 40
0.0
  9
$DIMTOL
 70
     0
  9
$DIMLIM
 70
     0
  9
$DIMTIH
 70
     1
  9
$DIMTOH
 70
     1
  9
$DIMSE1
 70
     0
  9
$DIMSE2
 70
     0
  9
$DIMTAD
 70
     0
  9
$DIMZIN
 70
     0
  9
$DIMBLK
  1

  9
$LUNITS
 70
     2
  9
$LUPREC
 70
     4
  9
$AXISMODE
 70
     0
  9
$AXISUNIT
 10
0.0
 20
0.0
  9
$SKETCHINC
 40
0.1
  9
$FILLETRAD
 40
0.0
  9
$AUNITS
 70
     0
  9
$AUPREC
 70
     0
  9
$MENU
  1
ACAD
  9
$ELEVATION
 40
0.0
  9
$THICKNESS
 40
0.0
  9
$VIEWDIR
 10
0.0
 20
0.0
 30
1.0
  9
$LIMCHECK
 70
     0
  9
$BLIPMODE
 70
     1
  9
$CHAMFERA
 40
0.0
  9
$CHAMFERB
 40
0.0
  9
$FASTZOOM
 70
     1
  9
$SKPOLY
 70
     0
  9
$TDCREATE
 40
0.000000
  9
$TDUPDATE
 40
0.000000
  9
$TDINDWG
 40
0.0
  9
$TDUSRTIMER
 40
0.0
  9
$USRTIMER
 70
     1
  9
$ANGBASE
 50
0.0
  9
$ANGDIR
 70
     0
  9
$PDMODE
 70
     0
  9
$PDSIZE
 40
0.0
  9
$PLINEWID
 40
0.0
  9
$COORDS
 70
     0
  9
$USERI1
 70
     0
  9
$USERI2
 70
     0
  9
$USERI3
 70
     0
  9
$USERI4
 70
     0
  9
$USERI5
 70
     0
  9
$USERR1
 40
0.0
  9
$USERR2
 40
0.0
  9
$USERR3
 40
0.0
  9
$USERR4
 40
0.0
  9
$USERR5
 40
0.0
  0
ENDSEC
  0
SECTION
  2
TABLES
  0
TABLE
  2
LTYPE
 70
     9
  0
LTYPE
  2
CONTINUOUS
 70
    64
  3
Solid line
 72
    65
 73
     0
 40
0.0
  0
LTYPE
  2
DASHED
 70
    64
  3
__ __ __ __ __ __ __ __ __ __ __ __ __ __ __
 72
    65
 73
     2
 40
0.75
 49
0.5
 49
-0.25
  0
LTYPE
  2
HIDDEN
 70
    64
  3
_ _ _ _ _ _ _ _ _ _ _ _ _ _ _ _ _ _ _ _ _ _ _
 72
    65
 73
     2
 40
0.375
 49
0.25
 49
-0.125
  0
LTYPE
  2
DOT
 70
    64
  3
...............................................
 72
    65
 73
     2
 40
0.25
 49
0.0
 49
-0.25
  0
LTYPE
  2
DASHDOT
 70
    64
  3
__ . __ . __ . __ . __ . __ . __ . __ . __ . __
 72
    65
 73
     4
 40
1.0
 49
0.5
 49
-0.25
 49
0.0
 49
-0.25
  0
LTYPE
  2
DIVIDE
 70
    64
  3
__ . . __ . . __ . . __ . . __ . . __ . . __
 72
    65
 73
     6
 40
1.25
 49
0.5
 49
-0.25
 49
0.0
 49
-0.25
 49
0.0
 49
-0.25
  0
LTYPE
  2
CENTER
 70
    64
  3
____ _ ____ _ ____ _ ____ _ ____ _ ____ _ ____ 
 72
    65
 73
     4
 40
2.0
 49
1.25
 49
-0.25
 49
0.25
 49
-0.25
  0
LTYPE
  2
PHANTOM
 70
    64
  3
______  __  __  ______  __  __  ______  __  __ 
 72
    65
 73
     6
 40
2.5
 49
1.25
 49
-0.25
 49
0.25
 49
-0.25
 49
0.25
 49
-0.25
  0
LTYPE
  2
BORDER
 70
    64
  3
__ __ . __ __ . __ __ . __ __ . __ __ . __ __ .
 72
    65
 73
     6
 40
1.75
 49
0.5
 49
-0.25
 49
0.5
 49
-0.25
 49
0.0
 49
-0.25
  0
ENDTAB
  0
TABLE
  2
LAYER
 70
    16
  0
LAYER
  2
CSLAYER1
 70
    64
 62
     7
  6
CONTINUOUS
  0
LAYER
  2
CSLAYER2
 70
    64
 62
     7
  6
CONTINUOUS
  0
LAYER
  2
CSLAYER3
 70
    64
 62
     7
  6
CONTINUOUS
  0
LAYER
  2
CSLAYER4
 70
    64
 62
     7
  6
CONTINUOUS
  0
LAYER
  2
CSLAYER5
 70
    64
 62
     7
  6
CONTINUOUS
  0
LAYER
  2
CSLAYER6
 70
    64
 62
     7
  6
CONTINUOUS
  0
LAYER
  2
CSLAYER7
 70
    64
 62
     7
  6
CONTINUOUS
  0
LAYER
  2
CSLAYER8
 70
    64
 62
     7
  6
CONTINUOUS
  0
LAYER
  2
CSLAYER9
 70
    64
 62
     7
  6
CONTINUOUS
  0
LAYER
  2
CSLAYER10
 70
    64
 62
     7
  6
CONTINUOUS
  0
LAYER
  2
CSLAYER11
 70
    64
 62
     7
  6
CONTINUOUS
  0
LAYER
  2
CSLAYER12
 70
    64
 62
     7
  6
CONTINUOUS
  0
LAYER
  2
CSLAYER13
 70
    64
 62
     7
  6
CONTINUOUS
  0
LAYER
  2
CSLAYER14
 70
    64
 62
     7
  6
CONTINUOUS
  0
LAYER
  2
CSLAYER15
 70
    64
 62
     7
  6
CONTINUOUS
  0
LAYER
  2
CSLAYER16
 70
    64
 62
     7
  6
CONTINUOUS
  0
ENDTAB
  0
TABLE
  2
STYLE
 70
     1
  0
STYLE
  2
SX_FONT
 70
     0
 40
1.0
 41
1.0
 50
0.0
 71
     0
 42
1.0
  3
monotxt
  4
bigfont
  0
ENDTAB
  0
TABLE
  2
VIEW
 70
     0
  0
ENDTAB
  0
ENDSEC
  0
SECTION
  2
BLOCKS
  0
BLOCK
  8
CSLAYER1
  2
*D0000
 70
    65
 10
0.0
 20
0.0
 30
0.0
  0
LINE
  8
CSLAYER1
  6
CONTINUOUS
 62
     7
 10
103.491862
 20
147.582367
 11
108.528312
 21
147.582367
  0
LINE
  8
CSLAYER1
  6
CONTINUOUS
 62
     7
 10
103.491862
 20
177.582367
 11
108.528312
 21
177.582367
  0
LINE
  8
CSLAYER1
  6
CONTINUOUS
 62
     7
 10
107.528312
 20
147.582367
 11
107.528312
 21
177.582367
  0
LINE
  8
CSLAYER1
  6
CONTINUOUS
 62
     7
 10
107.528312
 20
147.582367
 11
106.493036
 21
151.446070
  0
LINE
  8
CSLAYER1
  6
CONTINUOUS
 62
     7
 10
107.528312
 20
147.582367
 11
108.563588
 21
151.446070
  0
LINE
  8
CSLAYER1
  6
CONTINUOUS
 62
     7
 10
107.528312
 20
177.582367
 11
106.493036
 21
173.718664
  0
LINE
  8
CSLAYER1
  6
CONTINUOUS
 62
     7
 10
107.528312
 20
177.582367
 11
108.563588
 21
173.718664
  0
TEXT
  8
CSLAYER1
 62
     7
 10
112.860130
 20
159.120499
 40
4.000000
 41
0.900000
  1
30
 50
90.000000
 51
0.000000
  7
SX_FONT
 72
     5
 11
112.860130
 21
165.120499
  0
ENDBLK
  8
0
  0
BLOCK
  8
CSLAYER1
  2
*D0001
 70
    65
 10
0.0
 20
0.0
 30
0.0
  0
LINE
  8
CSLAYER1
  6
CONTINUOUS
 62
     7
 10
67.491862
 20
183.582367
 11
67.491862
 21
188.446614
  0
LINE
  8
CSLAYER1
  6
CONTINUOUS
 62
     7
 10
97.491862
 20
183.582367
 11
97.491862
 21
188.446614
  0
LINE
  8
CSLAYER1
  6
CONTINUOUS
 62
     7
 10
67.491862
 20
187.446614
 11
97.491862
 21
187.446614
  0
LINE
  8
CSLAYER1
  6
CONTINUOUS
 62
     7
 10
67.491862
 20
187.446614
 11
71.355565
 21
188.481890
  0
LINE
  8
CSLAYER1
  6
CONTINUOUS
 62
     7
 10
67.491862
 20
187.446614
 11
71.355565
 21
186.411338
  0
LINE
  8
CSLAYER1
  6
CONTINUOUS
 62
     7
 10
97.491862
 20
187.446614
 11
93.628158
 21
188.481890
  0
LINE
  8
CSLAYER1
  6
CONTINUOUS
 62
     7
 10
97.491862
 20
187.446614
 11
93.628158
 21
186.411338
  0
TEXT
  8
CSLAYER1
 62
     7
 10
79.491859
 20
188.446609
 40
4.000000
 41
0.900000
  1
30
 50
0.000000
 51
0.000000
  7
SX_FONT
 72
     5
 11
85.491859
 21
188.446609
  0
ENDBLK
  8
0
  0
ENDSEC
  0
SECTION
  2
ENTITIES
  0
LINE
  8
CSLAYER2
  6
CONTINUOUS
 62
     7
 10
69.491862
 20
151.582367
 11
70.128357
 21
154.385864
  0
LINE
  8
CSLAYER2
  6
CONTINUOUS
 62
     7
 10
79.883196
 20
159.699603
 11
74.371519
 21
158.552839
  0
ARC
  8
CSLAYER2
  6
CONTINUOUS
 62
     7
 10
75.491862
 20
153.168154
 40
5.500000
 50
101.753329
 51
167.208618
  0
ARC
  8
CSLAYER2
  6
CONTINUOUS
 62
     7
 10
79.577648
 20
161.168154
 40
1.500000
 50
270.000000
 51
360.000000
  0
ARC
  8
CSLAYER2
  6
CONTINUOUS
 62
     7
 10
82.491862
 20
162.582367
 40
2.000000
 50
-135.000000
 51
45.000000
  0
LINE
  8
CSLAYER2
  6
CONTINUOUS
 62
     7
 10
93.491862
 20
175.582367
 11
90.688365
 21
174.945872
  0
ARC
  8
CSLAYER2
  6
CONTINUOUS
 62
     7
 10
91.906075
 20
169.582367
 40
5.500000
 50
102.791382
 51
168.246671
  0
LINE
  8
CSLAYER2
  6
CONTINUOUS
 62
     7
 10
85.374626
 20
165.191033
 11
86.521390
 21
170.702710
  0
ARC
  8
CSLAYER2
  6
CONTINUOUS
 62
     7
 10
83.906075
 20
165.496581
 40
1.500000
 50
-90.000000
 51
0.000000
  0
LINE
  8
CSLAYER2
  6
CONTINUOUS
 62
     7
 10
93.491862
 20
175.582367
 11
93.491862
 21
177.582367
  0
LINE
  8
CSLAYER2
  6
CONTINUOUS
 62
     7
 10
93.491862
 20
177.582367
 11
97.491862
 21
177.582367
  0
LINE
  8
CSLAYER2
  6
CONTINUOUS
 62
     7
 10
97.491862
 20
177.582367
 11
97.491862
 21
147.582367
  0
LINE
  8
CSLAYER2
  6
CONTINUOUS
 62
     7
 10
97.491862
 20
147.582367
 11
67.491862
 21
147.582367
  0
LINE
  8
CSLAYER2
  6
CONTINUOUS
 62
     7
 10
67.491862
 20
147.582367
 11
67.491862
 21
151.582367
  0
LINE
  8
CSLAYER2
  6
CONTINUOUS
 62
     7
 10
67.491862
 20
151.582367
 11
69.491862
 21
151.582367
  0
TEXT
  8
CSLAYER1
 62
     7
 10
67.435699
 20
85.121361
 40
12.000000
 41
0.700000
  1
FM-2028
 50
0.000000
 51
0.000000
  7
SX_FONT
 72
     5
 11
123.435699
 21
85.121361
  0
DIMENSION
  8
CSLAYER1
 62
     7
  2
*D0000
 10
107.528312
 20
177.582367
 11
112.860130
 21
162.120499
 13
102.491862
 23
147.582367
 14
102.491862
 24
177.582367
 50
90.000000
 70
1
  0
DIMENSION
  8
CSLAYER1
 62
     7
  2
*D0001
 10
97.491862
 20
187.446614
 11
82.491859
 21
188.446609
 13
67.491862
 23
182.582367
 14
97.491862
 24
182.582367
 70
1
  0
TEXT
  8
CSLAYER1
 62
     7
 10
138.444992
 20
84.629242
 40
12.000000
 41
0.714286
  1
30x30
 50
0.000000
 51
0.000000
  7
SX_FONT
 72
     5
 11
178.444992
 21
84.629242
  0
TEXT
  8
CSLAYER1
 62
     7
 10
67.825789
 20
63.364318
 40
4.960742
 41
0.729057
  1
ホ%%dケットカタロク゛ Vol. 1 P18
 50
0.000000
 51
0.000000
  7
SX_FONT
 72
     5
 11
142.570146
 21
63.364318
  0
TEXT
  8
CSLAYER1
 62
     7
 10
67.739426
 20
72.378502
 40
5.000000
 41
0.612766
  1
カタログ Vol. 1  P45
 50
0.000000
 51
0.000000
  7
SX_FONT
 72
     5
 11
115.739426
 21
72.378502
  0
ENDSEC
  0
EOF
