  0
SECTION
  2
HEADER
  9
$ACADVER
  1
AC1006
  9
$INSBASE
 10
88.039429
 20
145.559326
 30
0.0
  9
$EXTMIN
 10
88.039429
 20
145.559326
  9
$EXTMAX
 10
298.039429
 20
442.559326
  9
$LIMMIN
 10
88.039429
 20
145.559326
  9
$LIMMAX
 10
298.039429
 20
442.559326
  9
$VIEWCTR
 10
193.039429
 20
294.059326
  9
$VIEWSIZE
 40
297.000000
  9
$SNAPMODE
 70
     0
  9
$SNAPUNIT
 10
1.0
 20
1.0
  9
$SNAPBASE
 10
0.0
 20
0.0
  9
$SNAPANG
 50
0.0
  9
$SNAPSTYLE
 70
     0
  9
$SNAPISOPAIR
 70
     0
  9
$GRIDMODE
 70
     0
  9
$GRIDUNIT
 10
0.0
 20
0.0
  9
$ORTHOMODE
 70
     0
  9
$REGENMODE
 70
     1
  9
$FILLMODE
 70
     1
  9
$QTEXTMODE
 70
     0
  9
$DRAGMODE
 70
     2
  9
$LTSCALE
 40
15.000000
  9
$OSMODE
 70
     0
  9
$ATTMODE
 70
     1
  9
$TEXTSIZE
 40
0.2
  9
$TRACEWID
 40
0.05
  9
$TEXTSTYLE
  7
STANDARD
  9
$CLAYER
  8
CSLAYER3
  9
$CELTYPE
  6
BYLAYER
  9
$CECOLOR
 62
   256
  9
$DIMSCALE
 40
1.0
  9
$DIMASZ
 40
0.18
  9
$DIMEXO
 40
0.0625
  9
$DIMDLI
 40
0.38
  9
$DIMRND
 40
0.0
  9
$DIMDLE
 40
0.0
  9
$DIMEXE
 40
0.18
  9
$DIMTP
 40
0.0
  9
$DIMTM
 40
0.0
  9
$DIMTXT
 40
0.18
  9
$DIMCEN
 40
0.09
  9
$DIMTSZ
 40
0.0
  9
$DIMTOL
 70
     0
  9
$DIMLIM
 70
     0
  9
$DIMTIH
 70
     1
  9
$DIMTOH
 70
     1
  9
$DIMSE1
 70
     0
  9
$DIMSE2
 70
     0
  9
$DIMTAD
 70
     0
  9
$DIMZIN
 70
     0
  9
$DIMBLK
  1

  9
$LUNITS
 70
     2
  9
$LUPREC
 70
     4
  9
$AXISMODE
 70
     0
  9
$AXISUNIT
 10
0.0
 20
0.0
  9
$SKETCHINC
 40
0.1
  9
$FILLETRAD
 40
0.0
  9
$AUNITS
 70
     0
  9
$AUPREC
 70
     0
  9
$MENU
  1
ACAD
  9
$ELEVATION
 40
0.0
  9
$THICKNESS
 40
0.0
  9
$VIEWDIR
 10
0.0
 20
0.0
 30
1.0
  9
$LIMCHECK
 70
     0
  9
$BLIPMODE
 70
     1
  9
$CHAMFERA
 40
0.0
  9
$CHAMFERB
 40
0.0
  9
$FASTZOOM
 70
     1
  9
$SKPOLY
 70
     0
  9
$TDCREATE
 40
0.000000
  9
$TDUPDATE
 40
0.000000
  9
$TDINDWG
 40
0.0
  9
$TDUSRTIMER
 40
0.0
  9
$USRTIMER
 70
     1
  9
$ANGBASE
 50
0.0
  9
$ANGDIR
 70
     0
  9
$PDMODE
 70
     0
  9
$PDSIZE
 40
0.0
  9
$PLINEWID
 40
0.0
  9
$COORDS
 70
     0
  9
$USERI1
 70
     0
  9
$USERI2
 70
     0
  9
$USERI3
 70
     0
  9
$USERI4
 70
     0
  9
$USERI5
 70
     0
  9
$USERR1
 40
0.0
  9
$USERR2
 40
0.0
  9
$USERR3
 40
0.0
  9
$USERR4
 40
0.0
  9
$USERR5
 40
0.0
  0
ENDSEC
  0
SECTION
  2
TABLES
  0
TABLE
  2
LTYPE
 70
     9
  0
LTYPE
  2
CONTINUOUS
 70
    64
  3
Solid line
 72
    65
 73
     0
 40
0.0
  0
LTYPE
  2
DASHED
 70
    64
  3
__ __ __ __ __ __ __ __ __ __ __ __ __ __ __
 72
    65
 73
     2
 40
0.75
 49
0.5
 49
-0.25
  0
LTYPE
  2
HIDDEN
 70
    64
  3
_ _ _ _ _ _ _ _ _ _ _ _ _ _ _ _ _ _ _ _ _ _ _
 72
    65
 73
     2
 40
0.375
 49
0.25
 49
-0.125
  0
LTYPE
  2
DOT
 70
    64
  3
...............................................
 72
    65
 73
     2
 40
0.25
 49
0.0
 49
-0.25
  0
LTYPE
  2
DASHDOT
 70
    64
  3
__ . __ . __ . __ . __ . __ . __ . __ . __ . __
 72
    65
 73
     4
 40
1.0
 49
0.5
 49
-0.25
 49
0.0
 49
-0.25
  0
LTYPE
  2
DIVIDE
 70
    64
  3
__ . . __ . . __ . . __ . . __ . . __ . . __
 72
    65
 73
     6
 40
1.25
 49
0.5
 49
-0.25
 49
0.0
 49
-0.25
 49
0.0
 49
-0.25
  0
LTYPE
  2
CENTER
 70
    64
  3
____ _ ____ _ ____ _ ____ _ ____ _ ____ _ ____ 
 72
    65
 73
     4
 40
2.0
 49
1.25
 49
-0.25
 49
0.25
 49
-0.25
  0
LTYPE
  2
PHANTOM
 70
    64
  3
______  __  __  ______  __  __  ______  __  __ 
 72
    65
 73
     6
 40
2.5
 49
1.25
 49
-0.25
 49
0.25
 49
-0.25
 49
0.25
 49
-0.25
  0
LTYPE
  2
BORDER
 70
    64
  3
__ __ . __ __ . __ __ . __ __ . __ __ . __ __ .
 72
    65
 73
     6
 40
1.75
 49
0.5
 49
-0.25
 49
0.5
 49
-0.25
 49
0.0
 49
-0.25
  0
ENDTAB
  0
TABLE
  2
LAYER
 70
    16
  0
LAYER
  2
CSLAYER1
 70
    64
 62
     7
  6
CONTINUOUS
  0
LAYER
  2
CSLAYER2
 70
    64
 62
     7
  6
CONTINUOUS
  0
LAYER
  2
CSLAYER3
 70
    64
 62
     7
  6
CONTINUOUS
  0
LAYER
  2
CSLAYER4
 70
    64
 62
     7
  6
CONTINUOUS
  0
LAYER
  2
CSLAYER5
 70
    64
 62
     7
  6
CONTINUOUS
  0
LAYER
  2
CSLAYER6
 70
    64
 62
     7
  6
CONTINUOUS
  0
LAYER
  2
CSLAYER7
 70
    64
 62
     7
  6
CONTINUOUS
  0
LAYER
  2
CSLAYER8
 70
    64
 62
     7
  6
CONTINUOUS
  0
LAYER
  2
CSLAYER9
 70
    64
 62
     7
  6
CONTINUOUS
  0
LAYER
  2
CSLAYER10
 70
    64
 62
     7
  6
CONTINUOUS
  0
LAYER
  2
CSLAYER11
 70
    64
 62
     7
  6
CONTINUOUS
  0
LAYER
  2
CSLAYER12
 70
    64
 62
     7
  6
CONTINUOUS
  0
LAYER
  2
CSLAYER13
 70
    64
 62
     7
  6
CONTINUOUS
  0
LAYER
  2
CSLAYER14
 70
    64
 62
     7
  6
CONTINUOUS
  0
LAYER
  2
CSLAYER15
 70
    64
 62
     7
  6
CONTINUOUS
  0
LAYER
  2
CSLAYER16
 70
    64
 62
     7
  6
CONTINUOUS
  0
ENDTAB
  0
TABLE
  2
STYLE
 70
     1
  0
STYLE
  2
SX_FONT
 70
     0
 40
1.0
 41
1.0
 50
0.0
 71
     0
 42
1.0
  3
monotxt
  4
bigfont
  0
ENDTAB
  0
TABLE
  2
VIEW
 70
     0
  0
ENDTAB
  0
ENDSEC
  0
SECTION
  2
BLOCKS
  0
BLOCK
  8
CSLAYER1
  2
*D0000
 70
    65
 10
0.0
 20
0.0
 30
0.0
  0
LINE
  8
CSLAYER1
  6
CONTINUOUS
 62
     7
 10
75.589844
 20
172.410701
 11
75.589844
 21
177.479128
  0
LINE
  8
CSLAYER1
  6
CONTINUOUS
 62
     7
 10
96.589844
 20
172.410701
 11
96.589844
 21
177.479128
  0
LINE
  8
CSLAYER1
  6
CONTINUOUS
 62
     7
 10
75.589844
 20
176.479128
 11
96.589844
 21
176.479128
  0
LINE
  8
CSLAYER1
  6
CONTINUOUS
 62
     7
 10
75.589844
 20
176.479128
 11
79.453547
 21
177.514405
  0
LINE
  8
CSLAYER1
  6
CONTINUOUS
 62
     7
 10
75.589844
 20
176.479128
 11
79.453547
 21
175.443852
  0
LINE
  8
CSLAYER1
  6
CONTINUOUS
 62
     7
 10
96.589844
 20
176.479128
 11
92.726140
 21
177.514405
  0
LINE
  8
CSLAYER1
  6
CONTINUOUS
 62
     7
 10
96.589844
 20
176.479128
 11
92.726140
 21
175.443852
  0
TEXT
  8
CSLAYER1
 62
     7
 10
83.089844
 20
177.479126
 40
4.000000
 41
0.900000
  1
21
 50
0.000000
 51
0.000000
  7
SX_FONT
 72
     5
 11
89.089844
 21
177.479126
  0
ENDBLK
  8
0
  0
BLOCK
  8
CSLAYER1
  2
*D0001
 70
    65
 10
0.0
 20
0.0
 30
0.0
  0
LINE
  8
CSLAYER1
  6
CONTINUOUS
 62
     7
 10
102.589844
 20
145.410701
 11
107.895518
 21
145.410701
  0
LINE
  8
CSLAYER1
  6
CONTINUOUS
 62
     7
 10
102.589844
 20
166.410701
 11
107.895518
 21
166.410701
  0
LINE
  8
CSLAYER1
  6
CONTINUOUS
 62
     7
 10
106.895518
 20
145.410701
 11
106.895518
 21
166.410701
  0
LINE
  8
CSLAYER1
  6
CONTINUOUS
 62
     7
 10
106.895518
 20
145.410701
 11
105.860241
 21
149.274404
  0
LINE
  8
CSLAYER1
  6
CONTINUOUS
 62
     7
 10
106.895518
 20
145.410701
 11
107.930794
 21
149.274404
  0
LINE
  8
CSLAYER1
  6
CONTINUOUS
 62
     7
 10
106.895518
 20
166.410701
 11
105.860241
 21
162.546997
  0
LINE
  8
CSLAYER1
  6
CONTINUOUS
 62
     7
 10
106.895518
 20
166.410701
 11
107.930794
 21
162.546997
  0
TEXT
  8
CSLAYER1
 62
     7
 10
111.801643
 20
152.219223
 40
4.000000
 41
0.900000
  1
21
 50
90.000000
 51
0.000000
  7
SX_FONT
 72
     5
 11
111.801643
 21
158.219223
  0
ENDBLK
  8
0
  0
ENDSEC
  0
SECTION
  2
ENTITIES
  0
LINE
  8
CSLAYER2
  6
CONTINUOUS
 62
     7
 10
84.368965
 20
154.040192
 11
80.937825
 21
153.473318
  0
LINE
  8
CSLAYER2
  6
CONTINUOUS
 62
     7
 10
77.089844
 20
148.410701
 11
77.753450
 21
150.659110
  0
ARC
  8
CSLAYER2
  6
CONTINUOUS
 62
     7
 10
84.205960
 20
155.026817
 40
1.000000
 50
279.381340
 51
360.000000
  0
ARC
  8
CSLAYER2
  6
CONTINUOUS
 62
     7
 10
81.589844
 20
149.526817
 40
4.000000
 50
99.381340
 51
163.556298
  0
LINE
  8
CSLAYER2
  6
CONTINUOUS
 62
     7
 10
87.960353
 20
157.631580
 11
88.527226
 21
161.062719
  0
LINE
  8
CSLAYER2
  6
CONTINUOUS
 62
     7
 10
93.589844
 20
164.910701
 11
91.341435
 21
164.247094
  0
ARC
  8
CSLAYER2
  6
CONTINUOUS
 62
     7
 10
86.973727
 20
157.794584
 40
1.000000
 50
270.000000
 51
350.618660
  0
ARC
  8
CSLAYER2
  6
CONTINUOUS
 62
     7
 10
92.473727
 20
160.410701
 40
4.000000
 50
106.443702
 51
170.618660
  0
ARC
  8
CSLAYER2
  6
CONTINUOUS
 62
     7
 10
86.089844
 20
155.910701
 40
1.250000
 50
-135.000000
 51
45.000000
  0
LINE
  8
CSLAYER2
  6
CONTINUOUS
 62
     7
 10
93.589844
 20
164.910701
 11
93.589844
 21
166.410701
  0
LINE
  8
CSLAYER2
  6
CONTINUOUS
 62
     7
 10
93.589844
 20
166.410701
 11
96.589844
 21
166.410701
  0
LINE
  8
CSLAYER2
  6
CONTINUOUS
 62
     7
 10
96.589844
 20
166.410701
 11
96.589844
 21
145.410701
  0
LINE
  8
CSLAYER2
  6
CONTINUOUS
 62
     7
 10
96.589844
 20
145.410701
 11
75.589844
 21
145.410701
  0
LINE
  8
CSLAYER2
  6
CONTINUOUS
 62
     7
 10
75.589844
 20
145.410701
 11
75.589844
 21
145.451789
  0
LINE
  8
CSLAYER2
  6
CONTINUOUS
 62
     7
 10
75.589844
 20
148.410701
 11
77.089844
 21
148.410701
  0
LINE
  8
CSLAYER2
  6
CONTINUOUS
 62
     7
 10
75.589844
 20
145.451789
 11
75.589844
 21
148.410701
  0
TEXT
  8
CSLAYER1
 62
     7
 10
75.383255
 20
83.445854
 40
12.000000
 41
0.700000
  1
FM-2027
 50
0.000000
 51
0.000000
  7
SX_FONT
 72
     5
 11
131.383255
 21
83.445854
  0
DIMENSION
  8
CSLAYER1
 62
     7
  2
*D0000
 10
96.589844
 20
176.479128
 11
86.089844
 21
177.479126
 13
75.589844
 23
171.410701
 14
96.589844
 24
171.410701
 70
1
  0
DIMENSION
  8
CSLAYER1
 62
     7
  2
*D0001
 10
106.895518
 20
166.410701
 11
111.801643
 21
155.219223
 13
101.589844
 23
145.410701
 14
101.589844
 24
166.410701
 50
90.000000
 70
1
  0
TEXT
  8
CSLAYER1
 62
     7
 10
75.203959
 20
68.352726
 40
4.273858
 41
0.779236
  1
カタログ Vol. 1  P45
 50
0.000000
 51
0.000000
  7
SX_FONT
 72
     5
 11
127.379324
 21
68.352726
  0
TEXT
  8
CSLAYER1
 62
     7
 10
146.771652
 20
82.955666
 40
12.000000
 41
0.714286
  1
21x21
 50
0.000000
 51
0.000000
  7
SX_FONT
 72
     5
 11
186.771652
 21
82.955666
  0
TEXT
  8
CSLAYER1
 62
     7
 10
75.195288
 20
58.801070
 40
4.960742
 41
0.729057
  1
ホ%%dケットカタロク゛ Vol. 1 P18
 50
0.000000
 51
0.000000
  7
SX_FONT
 72
     5
 11
149.939646
 21
58.801070
  0
ENDSEC
  0
EOF
