  0
SECTION
  2
HEADER
  9
$ACADVER
  1
AC1006
  9
$INSBASE
 10
90.606244
 20
151.312669
 30
0.0
  9
$EXTMIN
 10
90.606244
 20
151.312669
  9
$EXTMAX
 10
300.606244
 20
448.312669
  9
$LIMMIN
 10
90.606244
 20
151.312669
  9
$LIMMAX
 10
300.606244
 20
448.312669
  9
$VIEWCTR
 10
195.606244
 20
299.812669
  9
$VIEWSIZE
 40
297.000000
  9
$SNAPMODE
 70
     0
  9
$SNAPUNIT
 10
1.0
 20
1.0
  9
$SNAPBASE
 10
0.0
 20
0.0
  9
$SNAPANG
 50
0.0
  9
$SNAPSTYLE
 70
     0
  9
$SNAPISOPAIR
 70
     0
  9
$GRIDMODE
 70
     0
  9
$GRIDUNIT
 10
0.0
 20
0.0
  9
$ORTHOMODE
 70
     0
  9
$REGENMODE
 70
     1
  9
$FILLMODE
 70
     1
  9
$QTEXTMODE
 70
     0
  9
$DRAGMODE
 70
     2
  9
$LTSCALE
 40
15.000000
  9
$OSMODE
 70
     0
  9
$ATTMODE
 70
     1
  9
$TEXTSIZE
 40
0.2
  9
$TRACEWID
 40
0.05
  9
$TEXTSTYLE
  7
STANDARD
  9
$CLAYER
  8
CSLAYER3
  9
$CELTYPE
  6
BYLAYER
  9
$CECOLOR
 62
   256
  9
$DIMSCALE
 40
1.0
  9
$DIMASZ
 40
0.18
  9
$DIMEXO
 40
0.0625
  9
$DIMDLI
 40
0.38
  9
$DIMRND
 40
0.0
  9
$DIMDLE
 40
0.0
  9
$DIMEXE
 40
0.18
  9
$DIMTP
 40
0.0
  9
$DIMTM
 40
0.0
  9
$DIMTXT
 40
0.18
  9
$DIMCEN
 40
0.09
  9
$DIMTSZ
 40
0.0
  9
$DIMTOL
 70
     0
  9
$DIMLIM
 70
     0
  9
$DIMTIH
 70
     1
  9
$DIMTOH
 70
     1
  9
$DIMSE1
 70
     0
  9
$DIMSE2
 70
     0
  9
$DIMTAD
 70
     0
  9
$DIMZIN
 70
     0
  9
$DIMBLK
  1

  9
$LUNITS
 70
     2
  9
$LUPREC
 70
     4
  9
$AXISMODE
 70
     0
  9
$AXISUNIT
 10
0.0
 20
0.0
  9
$SKETCHINC
 40
0.1
  9
$FILLETRAD
 40
0.0
  9
$AUNITS
 70
     0
  9
$AUPREC
 70
     0
  9
$MENU
  1
ACAD
  9
$ELEVATION
 40
0.0
  9
$THICKNESS
 40
0.0
  9
$VIEWDIR
 10
0.0
 20
0.0
 30
1.0
  9
$LIMCHECK
 70
     0
  9
$BLIPMODE
 70
     1
  9
$CHAMFERA
 40
0.0
  9
$CHAMFERB
 40
0.0
  9
$FASTZOOM
 70
     1
  9
$SKPOLY
 70
     0
  9
$TDCREATE
 40
0.000000
  9
$TDUPDATE
 40
0.000000
  9
$TDINDWG
 40
0.0
  9
$TDUSRTIMER
 40
0.0
  9
$USRTIMER
 70
     1
  9
$ANGBASE
 50
0.0
  9
$ANGDIR
 70
     0
  9
$PDMODE
 70
     0
  9
$PDSIZE
 40
0.0
  9
$PLINEWID
 40
0.0
  9
$COORDS
 70
     0
  9
$USERI1
 70
     0
  9
$USERI2
 70
     0
  9
$USERI3
 70
     0
  9
$USERI4
 70
     0
  9
$USERI5
 70
     0
  9
$USERR1
 40
0.0
  9
$USERR2
 40
0.0
  9
$USERR3
 40
0.0
  9
$USERR4
 40
0.0
  9
$USERR5
 40
0.0
  0
ENDSEC
  0
SECTION
  2
TABLES
  0
TABLE
  2
LTYPE
 70
     9
  0
LTYPE
  2
CONTINUOUS
 70
    64
  3
Solid line
 72
    65
 73
     0
 40
0.0
  0
LTYPE
  2
DASHED
 70
    64
  3
__ __ __ __ __ __ __ __ __ __ __ __ __ __ __
 72
    65
 73
     2
 40
0.75
 49
0.5
 49
-0.25
  0
LTYPE
  2
HIDDEN
 70
    64
  3
_ _ _ _ _ _ _ _ _ _ _ _ _ _ _ _ _ _ _ _ _ _ _
 72
    65
 73
     2
 40
0.375
 49
0.25
 49
-0.125
  0
LTYPE
  2
DOT
 70
    64
  3
...............................................
 72
    65
 73
     2
 40
0.25
 49
0.0
 49
-0.25
  0
LTYPE
  2
DASHDOT
 70
    64
  3
__ . __ . __ . __ . __ . __ . __ . __ . __ . __
 72
    65
 73
     4
 40
1.0
 49
0.5
 49
-0.25
 49
0.0
 49
-0.25
  0
LTYPE
  2
DIVIDE
 70
    64
  3
__ . . __ . . __ . . __ . . __ . . __ . . __
 72
    65
 73
     6
 40
1.25
 49
0.5
 49
-0.25
 49
0.0
 49
-0.25
 49
0.0
 49
-0.25
  0
LTYPE
  2
CENTER
 70
    64
  3
____ _ ____ _ ____ _ ____ _ ____ _ ____ _ ____ 
 72
    65
 73
     4
 40
2.0
 49
1.25
 49
-0.25
 49
0.25
 49
-0.25
  0
LTYPE
  2
PHANTOM
 70
    64
  3
______  __  __  ______  __  __  ______  __  __ 
 72
    65
 73
     6
 40
2.5
 49
1.25
 49
-0.25
 49
0.25
 49
-0.25
 49
0.25
 49
-0.25
  0
LTYPE
  2
BORDER
 70
    64
  3
__ __ . __ __ . __ __ . __ __ . __ __ . __ __ .
 72
    65
 73
     6
 40
1.75
 49
0.5
 49
-0.25
 49
0.5
 49
-0.25
 49
0.0
 49
-0.25
  0
ENDTAB
  0
TABLE
  2
LAYER
 70
    16
  0
LAYER
  2
CSLAYER1
 70
    64
 62
     7
  6
CONTINUOUS
  0
LAYER
  2
CSLAYER2
 70
    64
 62
     7
  6
CONTINUOUS
  0
LAYER
  2
CSLAYER3
 70
    64
 62
     7
  6
CONTINUOUS
  0
LAYER
  2
CSLAYER4
 70
    64
 62
     7
  6
CONTINUOUS
  0
LAYER
  2
CSLAYER5
 70
    64
 62
     7
  6
CONTINUOUS
  0
LAYER
  2
CSLAYER6
 70
    64
 62
     7
  6
CONTINUOUS
  0
LAYER
  2
CSLAYER7
 70
    64
 62
     7
  6
CONTINUOUS
  0
LAYER
  2
CSLAYER8
 70
    64
 62
     7
  6
CONTINUOUS
  0
LAYER
  2
CSLAYER9
 70
    64
 62
     7
  6
CONTINUOUS
  0
LAYER
  2
CSLAYER10
 70
    64
 62
     7
  6
CONTINUOUS
  0
LAYER
  2
CSLAYER11
 70
    64
 62
     7
  6
CONTINUOUS
  0
LAYER
  2
CSLAYER12
 70
    64
 62
     7
  6
CONTINUOUS
  0
LAYER
  2
CSLAYER13
 70
    64
 62
     7
  6
CONTINUOUS
  0
LAYER
  2
CSLAYER14
 70
    64
 62
     7
  6
CONTINUOUS
  0
LAYER
  2
CSLAYER15
 70
    64
 62
     7
  6
CONTINUOUS
  0
LAYER
  2
CSLAYER16
 70
    64
 62
     7
  6
CONTINUOUS
  0
ENDTAB
  0
TABLE
  2
STYLE
 70
     1
  0
STYLE
  2
SX_FONT
 70
     0
 40
1.0
 41
1.0
 50
0.0
 71
     0
 42
1.0
  3
monotxt
  4
bigfont
  0
ENDTAB
  0
TABLE
  2
VIEW
 70
     0
  0
ENDTAB
  0
ENDSEC
  0
SECTION
  2
BLOCKS
  0
BLOCK
  8
CSLAYER1
  2
*D0000
 70
    65
 10
0.0
 20
0.0
 30
0.0
  0
LINE
  8
CSLAYER1
  6
CONTINUOUS
 62
     7
 10
97.020835
 20
151.814149
 11
102.035538
 21
151.814149
  0
LINE
  8
CSLAYER1
  6
CONTINUOUS
 62
     7
 10
97.020835
 20
166.814149
 11
102.035538
 21
166.814149
  0
LINE
  8
CSLAYER1
  6
CONTINUOUS
 62
     7
 10
101.035538
 20
151.814149
 11
101.035538
 21
166.814149
  0
LINE
  8
CSLAYER1
  6
CONTINUOUS
 62
     7
 10
101.035538
 20
151.814149
 11
100.000261
 21
155.677853
  0
LINE
  8
CSLAYER1
  6
CONTINUOUS
 62
     7
 10
101.035538
 20
151.814149
 11
102.070814
 21
155.677853
  0
LINE
  8
CSLAYER1
  6
CONTINUOUS
 62
     7
 10
101.035538
 20
166.814149
 11
100.000261
 21
162.950446
  0
LINE
  8
CSLAYER1
  6
CONTINUOUS
 62
     7
 10
101.035538
 20
166.814149
 11
102.070814
 21
162.950446
  0
TEXT
  8
CSLAYER1
 62
     7
 10
107.072525
 20
155.960098
 40
4.000000
 41
0.900000
  1
15
 50
90.000000
 51
0.000000
  7
SX_FONT
 72
     5
 11
107.072525
 21
161.960098
  0
ENDBLK
  8
0
  0
BLOCK
  8
CSLAYER1
  2
*D0001
 70
    65
 10
0.0
 20
0.0
 30
0.0
  0
LINE
  8
CSLAYER1
  6
CONTINUOUS
 62
     7
 10
76.020835
 20
172.814149
 11
76.020835
 21
177.847482
  0
LINE
  8
CSLAYER1
  6
CONTINUOUS
 62
     7
 10
91.020835
 20
172.814149
 11
91.020835
 21
177.847482
  0
LINE
  8
CSLAYER1
  6
CONTINUOUS
 62
     7
 10
76.020835
 20
176.847482
 11
91.020835
 21
176.847482
  0
LINE
  8
CSLAYER1
  6
CONTINUOUS
 62
     7
 10
76.020835
 20
176.847482
 11
79.884538
 21
177.882758
  0
LINE
  8
CSLAYER1
  6
CONTINUOUS
 62
     7
 10
76.020835
 20
176.847482
 11
79.884538
 21
175.812206
  0
LINE
  8
CSLAYER1
  6
CONTINUOUS
 62
     7
 10
91.020835
 20
176.847482
 11
87.157132
 21
177.882758
  0
LINE
  8
CSLAYER1
  6
CONTINUOUS
 62
     7
 10
91.020835
 20
176.847482
 11
87.157132
 21
175.812206
  0
TEXT
  8
CSLAYER1
 62
     7
 10
80.520836
 20
177.847488
 40
4.000000
 41
0.900000
  1
15
 50
0.000000
 51
0.000000
  7
SX_FONT
 72
     5
 11
86.520836
 21
177.847488
  0
ENDBLK
  8
0
  0
ENDSEC
  0
SECTION
  2
ENTITIES
  0
ARC
  8
CSLAYER2
  6
CONTINUOUS
 62
     7
 10
83.520835
 20
159.314149
 40
0.750000
 50
-135.000000
 51
45.000000
  0
LINE
  8
CSLAYER2
  6
CONTINUOUS
 62
     7
 10
77.020835
 20
154.314149
 11
77.392925
 21
155.829848
  0
LINE
  8
CSLAYER2
  6
CONTINUOUS
 62
     7
 10
79.534938
 20
157.717418
 11
82.326274
 21
158.038740
  0
ARC
  8
CSLAYER2
  6
CONTINUOUS
 62
     7
 10
82.240505
 20
158.783819
 40
0.750000
 50
276.566637
 51
360.000000
  0
ARC
  8
CSLAYER2
  6
CONTINUOUS
 62
     7
 10
79.820835
 20
155.233819
 40
2.500000
 50
96.566637
 51
166.207197
  0
LINE
  8
CSLAYER2
  6
CONTINUOUS
 62
     7
 10
88.520835
 20
165.814149
 11
87.005137
 21
165.442060
  0
LINE
  8
CSLAYER2
  6
CONTINUOUS
 62
     7
 10
85.117566
 20
163.300046
 11
84.796245
 21
160.508710
  0
ARC
  8
CSLAYER2
  6
CONTINUOUS
 62
     7
 10
84.051165
 20
160.594479
 40
0.750000
 50
270.000000
 51
353.433363
  0
ARC
  8
CSLAYER2
  6
CONTINUOUS
 62
     7
 10
87.601165
 20
163.014149
 40
2.500000
 50
103.792803
 51
173.433363
  0
LINE
  8
CSLAYER2
  6
CONTINUOUS
 62
     7
 10
88.520835
 20
165.814149
 11
88.520835
 21
166.814149
  0
LINE
  8
CSLAYER2
  6
CONTINUOUS
 62
     7
 10
88.520835
 20
166.814149
 11
91.020835
 21
166.814149
  0
LINE
  8
CSLAYER2
  6
CONTINUOUS
 62
     7
 10
91.020835
 20
166.814149
 11
91.020835
 21
151.814149
  0
LINE
  8
CSLAYER2
  6
CONTINUOUS
 62
     7
 10
91.020835
 20
151.814149
 11
76.020835
 21
151.814149
  0
LINE
  8
CSLAYER2
  6
CONTINUOUS
 62
     7
 10
76.020835
 20
151.814149
 11
76.020835
 21
154.314149
  0
LINE
  8
CSLAYER2
  6
CONTINUOUS
 62
     7
 10
76.020835
 20
154.314149
 11
77.020835
 21
154.314149
  0
TEXT
  8
CSLAYER1
 62
     7
 10
75.786011
 20
89.396843
 40
12.000000
 41
0.700000
  1
FM-2026
 50
0.000000
 51
0.000000
  7
SX_FONT
 72
     5
 11
131.786011
 21
89.396843
  0
DIMENSION
  8
CSLAYER1
 62
     7
  2
*D0000
 10
101.035538
 20
166.814149
 11
107.072525
 21
158.960098
 13
96.020835
 23
151.814149
 14
96.020835
 24
166.814149
 50
90.000000
 70
1
  0
DIMENSION
  8
CSLAYER1
 62
     7
  2
*D0001
 10
91.020835
 20
176.847482
 11
83.520836
 21
177.847488
 13
76.020835
 23
171.814149
 14
91.020835
 24
171.814149
 70
1
  0
TEXT
  8
CSLAYER1
 62
     7
 10
150.594940
 20
89.164650
 40
12.000000
 41
0.714286
  1
15x15
 50
0.000000
 51
0.000000
  7
SX_FONT
 72
     5
 11
190.594940
 21
89.164650
  0
TEXT
  8
CSLAYER1
 62
     7
 10
76.372618
 20
67.563658
 40
4.960742
 41
0.729057
  1
ホ%%dケットカタロク゛ Vol. 1 P18
 50
0.000000
 51
0.000000
  7
SX_FONT
 72
     5
 11
151.116976
 21
67.563658
  0
TEXT
  8
CSLAYER1
 62
     7
 10
76.547050
 20
76.151253
 40
5.000000
 41
0.612766
  1
カタログ Vol. 1  P45
 50
0.000000
 51
0.000000
  7
SX_FONT
 72
     5
 11
124.547050
 21
76.151253
  0
ENDSEC
  0
EOF
