  0
SECTION
  2
HEADER
  9
$ACADVER
  1
AC1006
  9
$INSBASE
 10
22.517684
 20
153.012184
 30
0.0
  9
$EXTMIN
 10
22.517684
 20
153.012184
  9
$EXTMAX
 10
232.517684
 20
450.012184
  9
$LIMMIN
 10
22.517684
 20
153.012184
  9
$LIMMAX
 10
232.517684
 20
450.012184
  9
$VIEWCTR
 10
127.517684
 20
301.512184
  9
$VIEWSIZE
 40
297.000000
  9
$SNAPMODE
 70
     0
  9
$SNAPUNIT
 10
1.0
 20
1.0
  9
$SNAPBASE
 10
0.0
 20
0.0
  9
$SNAPANG
 50
0.0
  9
$SNAPSTYLE
 70
     0
  9
$SNAPISOPAIR
 70
     0
  9
$GRIDMODE
 70
     0
  9
$GRIDUNIT
 10
0.0
 20
0.0
  9
$ORTHOMODE
 70
     0
  9
$REGENMODE
 70
     1
  9
$FILLMODE
 70
     1
  9
$QTEXTMODE
 70
     0
  9
$DRAGMODE
 70
     2
  9
$LTSCALE
 40
15.000000
  9
$OSMODE
 70
     0
  9
$ATTMODE
 70
     1
  9
$TEXTSIZE
 40
0.2
  9
$TRACEWID
 40
0.05
  9
$TEXTSTYLE
  7
STANDARD
  9
$CLAYER
  8
CSLAYER3
  9
$CELTYPE
  6
BYLAYER
  9
$CECOLOR
 62
   256
  9
$DIMSCALE
 40
1.0
  9
$DIMASZ
 40
0.18
  9
$DIMEXO
 40
0.0625
  9
$DIMDLI
 40
0.38
  9
$DIMRND
 40
0.0
  9
$DIMDLE
 40
0.0
  9
$DIMEXE
 40
0.18
  9
$DIMTP
 40
0.0
  9
$DIMTM
 40
0.0
  9
$DIMTXT
 40
0.18
  9
$DIMCEN
 40
0.09
  9
$DIMTSZ
 40
0.0
  9
$DIMTOL
 70
     0
  9
$DIMLIM
 70
     0
  9
$DIMTIH
 70
     1
  9
$DIMTOH
 70
     1
  9
$DIMSE1
 70
     0
  9
$DIMSE2
 70
     0
  9
$DIMTAD
 70
     0
  9
$DIMZIN
 70
     0
  9
$DIMBLK
  1

  9
$LUNITS
 70
     2
  9
$LUPREC
 70
     4
  9
$AXISMODE
 70
     0
  9
$AXISUNIT
 10
0.0
 20
0.0
  9
$SKETCHINC
 40
0.1
  9
$FILLETRAD
 40
0.0
  9
$AUNITS
 70
     0
  9
$AUPREC
 70
     0
  9
$MENU
  1
ACAD
  9
$ELEVATION
 40
0.0
  9
$THICKNESS
 40
0.0
  9
$VIEWDIR
 10
0.0
 20
0.0
 30
1.0
  9
$LIMCHECK
 70
     0
  9
$BLIPMODE
 70
     1
  9
$CHAMFERA
 40
0.0
  9
$CHAMFERB
 40
0.0
  9
$FASTZOOM
 70
     1
  9
$SKPOLY
 70
     0
  9
$TDCREATE
 40
0.000000
  9
$TDUPDATE
 40
0.000000
  9
$TDINDWG
 40
0.0
  9
$TDUSRTIMER
 40
0.0
  9
$USRTIMER
 70
     1
  9
$ANGBASE
 50
0.0
  9
$ANGDIR
 70
     0
  9
$PDMODE
 70
     0
  9
$PDSIZE
 40
0.0
  9
$PLINEWID
 40
0.0
  9
$COORDS
 70
     0
  9
$USERI1
 70
     0
  9
$USERI2
 70
     0
  9
$USERI3
 70
     0
  9
$USERI4
 70
     0
  9
$USERI5
 70
     0
  9
$USERR1
 40
0.0
  9
$USERR2
 40
0.0
  9
$USERR3
 40
0.0
  9
$USERR4
 40
0.0
  9
$USERR5
 40
0.0
  0
ENDSEC
  0
SECTION
  2
TABLES
  0
TABLE
  2
LTYPE
 70
     9
  0
LTYPE
  2
CONTINUOUS
 70
    64
  3
Solid line
 72
    65
 73
     0
 40
0.0
  0
LTYPE
  2
DASHED
 70
    64
  3
__ __ __ __ __ __ __ __ __ __ __ __ __ __ __
 72
    65
 73
     2
 40
0.75
 49
0.5
 49
-0.25
  0
LTYPE
  2
HIDDEN
 70
    64
  3
_ _ _ _ _ _ _ _ _ _ _ _ _ _ _ _ _ _ _ _ _ _ _
 72
    65
 73
     2
 40
0.375
 49
0.25
 49
-0.125
  0
LTYPE
  2
DOT
 70
    64
  3
...............................................
 72
    65
 73
     2
 40
0.25
 49
0.0
 49
-0.25
  0
LTYPE
  2
DASHDOT
 70
    64
  3
__ . __ . __ . __ . __ . __ . __ . __ . __ . __
 72
    65
 73
     4
 40
1.0
 49
0.5
 49
-0.25
 49
0.0
 49
-0.25
  0
LTYPE
  2
DIVIDE
 70
    64
  3
__ . . __ . . __ . . __ . . __ . . __ . . __
 72
    65
 73
     6
 40
1.25
 49
0.5
 49
-0.25
 49
0.0
 49
-0.25
 49
0.0
 49
-0.25
  0
LTYPE
  2
CENTER
 70
    64
  3
____ _ ____ _ ____ _ ____ _ ____ _ ____ _ ____ 
 72
    65
 73
     4
 40
2.0
 49
1.25
 49
-0.25
 49
0.25
 49
-0.25
  0
LTYPE
  2
PHANTOM
 70
    64
  3
______  __  __  ______  __  __  ______  __  __ 
 72
    65
 73
     6
 40
2.5
 49
1.25
 49
-0.25
 49
0.25
 49
-0.25
 49
0.25
 49
-0.25
  0
LTYPE
  2
BORDER
 70
    64
  3
__ __ . __ __ . __ __ . __ __ . __ __ . __ __ .
 72
    65
 73
     6
 40
1.75
 49
0.5
 49
-0.25
 49
0.5
 49
-0.25
 49
0.0
 49
-0.25
  0
ENDTAB
  0
TABLE
  2
LAYER
 70
    16
  0
LAYER
  2
CSLAYER1
 70
    64
 62
     7
  6
CONTINUOUS
  0
LAYER
  2
CSLAYER2
 70
    64
 62
     7
  6
CONTINUOUS
  0
LAYER
  2
CSLAYER3
 70
    64
 62
     7
  6
CONTINUOUS
  0
LAYER
  2
CSLAYER4
 70
    64
 62
     7
  6
CONTINUOUS
  0
LAYER
  2
CSLAYER5
 70
    64
 62
     7
  6
CONTINUOUS
  0
LAYER
  2
CSLAYER6
 70
    64
 62
     7
  6
CONTINUOUS
  0
LAYER
  2
CSLAYER7
 70
    64
 62
     7
  6
CONTINUOUS
  0
LAYER
  2
CSLAYER8
 70
    64
 62
     7
  6
CONTINUOUS
  0
LAYER
  2
CSLAYER9
 70
    64
 62
     7
  6
CONTINUOUS
  0
LAYER
  2
CSLAYER10
 70
    64
 62
     7
  6
CONTINUOUS
  0
LAYER
  2
CSLAYER11
 70
    64
 62
     7
  6
CONTINUOUS
  0
LAYER
  2
CSLAYER12
 70
    64
 62
     7
  6
CONTINUOUS
  0
LAYER
  2
CSLAYER13
 70
    64
 62
     7
  6
CONTINUOUS
  0
LAYER
  2
CSLAYER14
 70
    64
 62
     7
  6
CONTINUOUS
  0
LAYER
  2
CSLAYER15
 70
    64
 62
     7
  6
CONTINUOUS
  0
LAYER
  2
CSLAYER16
 70
    64
 62
     7
  6
CONTINUOUS
  0
ENDTAB
  0
TABLE
  2
STYLE
 70
     1
  0
STYLE
  2
SX_FONT
 70
     0
 40
1.0
 41
1.0
 50
0.0
 71
     0
 42
1.0
  3
monotxt
  4
bigfont
  0
ENDTAB
  0
TABLE
  2
VIEW
 70
     0
  0
ENDTAB
  0
ENDSEC
  0
SECTION
  2
BLOCKS
  0
BLOCK
  8
CSLAYER1
  2
*D0000
 70
    65
 10
0.0
 20
0.0
 30
0.0
  0
LINE
  8
CSLAYER1
  6
CONTINUOUS
 62
     7
 10
23.466340
 20
188.655010
 11
23.466340
 21
193.937523
  0
LINE
  8
CSLAYER1
  6
CONTINUOUS
 62
     7
 10
173.466340
 20
188.655010
 11
173.466340
 21
193.937523
  0
LINE
  8
CSLAYER1
  6
CONTINUOUS
 62
     7
 10
23.466340
 20
192.937523
 11
173.466340
 21
192.937523
  0
LINE
  8
CSLAYER1
  6
CONTINUOUS
 62
     7
 10
23.466340
 20
192.937523
 11
27.330044
 21
193.972800
  0
LINE
  8
CSLAYER1
  6
CONTINUOUS
 62
     7
 10
23.466340
 20
192.937523
 11
27.330044
 21
191.902247
  0
LINE
  8
CSLAYER1
  6
CONTINUOUS
 62
     7
 10
173.466340
 20
192.937523
 11
169.602637
 21
193.972800
  0
LINE
  8
CSLAYER1
  6
CONTINUOUS
 62
     7
 10
173.466340
 20
192.937523
 11
169.602637
 21
191.902247
  0
TEXT
  8
CSLAYER1
 62
     7
 10
93.966339
 20
193.937531
 40
4.000000
 41
0.843750
  1
150
 50
0.000000
 51
0.000000
  7
SX_FONT
 72
     5
 11
102.966339
 21
193.937531
  0
ENDBLK
  8
0
  0
BLOCK
  8
CSLAYER1
  2
*D0001
 70
    65
 10
0.0
 20
0.0
 30
0.0
  0
LINE
  8
CSLAYER1
  6
CONTINUOUS
 62
     7
 10
179.466340
 20
152.655010
 11
184.741732
 21
152.655010
  0
LINE
  8
CSLAYER1
  6
CONTINUOUS
 62
     7
 10
179.466340
 20
182.655010
 11
184.741732
 21
182.655010
  0
LINE
  8
CSLAYER1
  6
CONTINUOUS
 62
     7
 10
183.741732
 20
152.655010
 11
183.741732
 21
182.655010
  0
LINE
  8
CSLAYER1
  6
CONTINUOUS
 62
     7
 10
183.741732
 20
152.655010
 11
182.706456
 21
156.518713
  0
LINE
  8
CSLAYER1
  6
CONTINUOUS
 62
     7
 10
183.741732
 20
152.655010
 11
184.777008
 21
156.518713
  0
LINE
  8
CSLAYER1
  6
CONTINUOUS
 62
     7
 10
183.741732
 20
182.655010
 11
182.706456
 21
178.791306
  0
LINE
  8
CSLAYER1
  6
CONTINUOUS
 62
     7
 10
183.741732
 20
182.655010
 11
184.777008
 21
178.791306
  0
TEXT
  8
CSLAYER1
 62
     7
 10
188.918747
 20
164.298950
 40
4.000000
 41
0.900000
  1
30
 50
90.000000
 51
0.000000
  7
SX_FONT
 72
     5
 11
188.918747
 21
170.298950
  0
ENDBLK
  8
0
  0
ENDSEC
  0
SECTION
  2
ENTITIES
  0
LINE
  8
CSLAYER2
  6
CONTINUOUS
 62
     7
 10
41.000587
 20
179.230352
 11
44.945792
 21
174.709804
  0
ARC
  8
CSLAYER2
  6
CONTINUOUS
 62
     7
 10
33.466340
 20
172.655010
 40
10.000000
 50
41.112090
 51
90.000000
  0
ARC
  8
CSLAYER2
  6
CONTINUOUS
 62
     7
 10
33.466340
 20
172.655010
 40
10.000000
 50
90.000000
 51
180.000000
  0
ARC
  8
CSLAYER2
  6
CONTINUOUS
 62
     7
 10
49.466340
 20
178.655010
 40
6.000000
 50
221.112090
 51
270.000000
  0
LINE
  8
CSLAYER2
  6
CONTINUOUS
 62
     7
 10
59.085708
 20
179.338938
 11
53.523099
 21
174.234296
  0
ARC
  8
CSLAYER2
  6
CONTINUOUS
 62
     7
 10
49.466340
 20
178.655010
 40
6.000000
 50
270.000000
 51
312.541682
  0
ARC
  8
CSLAYER2
  6
CONTINUOUS
 62
     7
 10
62.466340
 20
175.655010
 40
5.000000
 50
90.000000
 51
132.541682
  0
ARC
  8
CSLAYER2
  6
CONTINUOUS
 62
     7
 10
70.466340
 20
177.655010
 40
5.000000
 50
90.000000
 51
159.586341
  0
ARC
  8
CSLAYER2
  6
CONTINUOUS
 62
     7
 10
62.466340
 20
175.655010
 40
5.000000
 50
48.486145
 51
90.000000
  0
LINE
  8
CSLAYER2
  6
CONTINUOUS
 62
     7
 10
155.932094
 20
179.230352
 11
151.986888
 21
174.709804
  0
ARC
  8
CSLAYER2
  6
CONTINUOUS
 62
     7
 10
163.466340
 20
172.655010
 40
10.000000
 50
90.000000
 51
138.887910
  0
ARC
  8
CSLAYER2
  6
CONTINUOUS
 62
     7
 10
163.466340
 20
172.655010
 40
10.000000
 50
0.000000
 51
90.000000
  0
ARC
  8
CSLAYER2
  6
CONTINUOUS
 62
     7
 10
147.466340
 20
178.655010
 40
6.000000
 50
270.000000
 51
318.887910
  0
LINE
  8
CSLAYER2
  6
CONTINUOUS
 62
     7
 10
137.846972
 20
179.338938
 11
143.409582
 21
174.234296
  0
ARC
  8
CSLAYER2
  6
CONTINUOUS
 62
     7
 10
147.466340
 20
178.655010
 40
6.000000
 50
227.458318
 51
270.000000
  0
ARC
  8
CSLAYER2
  6
CONTINUOUS
 62
     7
 10
134.466340
 20
175.655010
 40
5.000000
 50
47.458318
 51
90.000000
  0
ARC
  8
CSLAYER2
  6
CONTINUOUS
 62
     7
 10
126.466340
 20
177.655010
 40
5.000000
 50
20.413659
 51
90.000000
  0
ARC
  8
CSLAYER2
  6
CONTINUOUS
 62
     7
 10
134.466340
 20
175.655010
 40
5.000000
 50
90.000000
 51
131.513855
  0
ARC
  8
CSLAYER2
  6
CONTINUOUS
 62
     7
 10
70.466340
 20
177.655010
 40
5.000000
 50
50.692352
 51
90.000000
  0
ARC
  8
CSLAYER2
  6
CONTINUOUS
 62
     7
 10
126.466340
 20
177.655010
 40
5.000000
 50
90.000000
 51
129.307648
  0
ARC
  8
CSLAYER2
  6
CONTINUOUS
 62
     7
 10
98.466340
 20
211.855010
 40
39.200000
 50
230.692352
 51
270.000000
  0
ARC
  8
CSLAYER2
  6
CONTINUOUS
 62
     7
 10
98.466340
 20
211.855010
 40
39.200000
 50
270.000000
 51
309.307648
  0
LINE
  8
CSLAYER2
  6
CONTINUOUS
 62
     7
 10
23.466340
 20
172.655010
 11
23.466340
 21
152.655010
  0
LINE
  8
CSLAYER2
  6
CONTINUOUS
 62
     7
 10
23.466340
 20
152.655010
 11
173.466340
 21
152.655010
  0
LINE
  8
CSLAYER2
  6
CONTINUOUS
 62
     7
 10
173.466340
 20
152.655010
 11
173.466340
 21
172.655010
  0
TEXT
  8
CSLAYER1
 62
     7
 10
24.212639
 20
107.047310
 40
10.000000
 41
0.630000
  1
FM-2025
 50
0.000000
 51
0.000000
  7
SX_FONT
 72
     5
 11
66.212639
 21
107.047310
  0
DIMENSION
  8
CSLAYER1
 62
     7
  2
*D0000
 10
173.466340
 20
192.937523
 11
98.466339
 21
193.937531
 13
23.466340
 23
187.655010
 14
173.466340
 24
187.655010
 70
1
  0
DIMENSION
  8
CSLAYER1
 62
     7
  2
*D0001
 10
183.741732
 20
182.655010
 11
188.918747
 21
167.298950
 13
178.466340
 23
152.655010
 14
178.466340
 24
182.655010
 50
90.000000
 70
1
  0
TEXT
  8
CSLAYER1
 62
     7
 10
81.650360
 20
107.869461
 40
10.000000
 41
0.635294
  1
150x30
 50
0.000000
 51
0.000000
  7
SX_FONT
 72
     5
 11
117.650360
 21
107.869461
  0
TEXT
  8
CSLAYER1
 62
     7
 10
25.037340
 20
83.950537
 40
4.960742
 41
0.729057
  1
ホ%%dケットカタロク゛ Vol. 1 P18
 50
0.000000
 51
0.000000
  7
SX_FONT
 72
     5
 11
99.781698
 21
83.950537
  0
TEXT
  8
CSLAYER1
 62
     7
 10
24.783615
 20
94.907326
 40
5.000000
 41
0.612766
  1
カタログ Vol. 1  P45
 50
0.000000
 51
0.000000
  7
SX_FONT
 72
     5
 11
72.783615
 21
94.907326
  0
ENDSEC
  0
EOF
