  0
SECTION
  2
HEADER
  9
$ACADVER
  1
AC1006
  9
$INSBASE
 10
40.461558
 20
155.545634
 30
0.0
  9
$EXTMIN
 10
40.461558
 20
155.545634
  9
$EXTMAX
 10
250.461558
 20
452.545634
  9
$LIMMIN
 10
40.461558
 20
155.545634
  9
$LIMMAX
 10
250.461558
 20
452.545634
  9
$VIEWCTR
 10
145.461558
 20
304.045634
  9
$VIEWSIZE
 40
297.000000
  9
$SNAPMODE
 70
     0
  9
$SNAPUNIT
 10
1.0
 20
1.0
  9
$SNAPBASE
 10
0.0
 20
0.0
  9
$SNAPANG
 50
0.0
  9
$SNAPSTYLE
 70
     0
  9
$SNAPISOPAIR
 70
     0
  9
$GRIDMODE
 70
     0
  9
$GRIDUNIT
 10
0.0
 20
0.0
  9
$ORTHOMODE
 70
     0
  9
$REGENMODE
 70
     1
  9
$FILLMODE
 70
     1
  9
$QTEXTMODE
 70
     0
  9
$DRAGMODE
 70
     2
  9
$LTSCALE
 40
15.000000
  9
$OSMODE
 70
     0
  9
$ATTMODE
 70
     1
  9
$TEXTSIZE
 40
0.2
  9
$TRACEWID
 40
0.05
  9
$TEXTSTYLE
  7
STANDARD
  9
$CLAYER
  8
CSLAYER3
  9
$CELTYPE
  6
BYLAYER
  9
$CECOLOR
 62
   256
  9
$DIMSCALE
 40
1.0
  9
$DIMASZ
 40
0.18
  9
$DIMEXO
 40
0.0625
  9
$DIMDLI
 40
0.38
  9
$DIMRND
 40
0.0
  9
$DIMDLE
 40
0.0
  9
$DIMEXE
 40
0.18
  9
$DIMTP
 40
0.0
  9
$DIMTM
 40
0.0
  9
$DIMTXT
 40
0.18
  9
$DIMCEN
 40
0.09
  9
$DIMTSZ
 40
0.0
  9
$DIMTOL
 70
     0
  9
$DIMLIM
 70
     0
  9
$DIMTIH
 70
     1
  9
$DIMTOH
 70
     1
  9
$DIMSE1
 70
     0
  9
$DIMSE2
 70
     0
  9
$DIMTAD
 70
     0
  9
$DIMZIN
 70
     0
  9
$DIMBLK
  1

  9
$LUNITS
 70
     2
  9
$LUPREC
 70
     4
  9
$AXISMODE
 70
     0
  9
$AXISUNIT
 10
0.0
 20
0.0
  9
$SKETCHINC
 40
0.1
  9
$FILLETRAD
 40
0.0
  9
$AUNITS
 70
     0
  9
$AUPREC
 70
     0
  9
$MENU
  1
ACAD
  9
$ELEVATION
 40
0.0
  9
$THICKNESS
 40
0.0
  9
$VIEWDIR
 10
0.0
 20
0.0
 30
1.0
  9
$LIMCHECK
 70
     0
  9
$BLIPMODE
 70
     1
  9
$CHAMFERA
 40
0.0
  9
$CHAMFERB
 40
0.0
  9
$FASTZOOM
 70
     1
  9
$SKPOLY
 70
     0
  9
$TDCREATE
 40
0.000000
  9
$TDUPDATE
 40
0.000000
  9
$TDINDWG
 40
0.0
  9
$TDUSRTIMER
 40
0.0
  9
$USRTIMER
 70
     1
  9
$ANGBASE
 50
0.0
  9
$ANGDIR
 70
     0
  9
$PDMODE
 70
     0
  9
$PDSIZE
 40
0.0
  9
$PLINEWID
 40
0.0
  9
$COORDS
 70
     0
  9
$USERI1
 70
     0
  9
$USERI2
 70
     0
  9
$USERI3
 70
     0
  9
$USERI4
 70
     0
  9
$USERI5
 70
     0
  9
$USERR1
 40
0.0
  9
$USERR2
 40
0.0
  9
$USERR3
 40
0.0
  9
$USERR4
 40
0.0
  9
$USERR5
 40
0.0
  0
ENDSEC
  0
SECTION
  2
TABLES
  0
TABLE
  2
LTYPE
 70
     9
  0
LTYPE
  2
CONTINUOUS
 70
    64
  3
Solid line
 72
    65
 73
     0
 40
0.0
  0
LTYPE
  2
DASHED
 70
    64
  3
__ __ __ __ __ __ __ __ __ __ __ __ __ __ __
 72
    65
 73
     2
 40
0.75
 49
0.5
 49
-0.25
  0
LTYPE
  2
HIDDEN
 70
    64
  3
_ _ _ _ _ _ _ _ _ _ _ _ _ _ _ _ _ _ _ _ _ _ _
 72
    65
 73
     2
 40
0.375
 49
0.25
 49
-0.125
  0
LTYPE
  2
DOT
 70
    64
  3
...............................................
 72
    65
 73
     2
 40
0.25
 49
0.0
 49
-0.25
  0
LTYPE
  2
DASHDOT
 70
    64
  3
__ . __ . __ . __ . __ . __ . __ . __ . __ . __
 72
    65
 73
     4
 40
1.0
 49
0.5
 49
-0.25
 49
0.0
 49
-0.25
  0
LTYPE
  2
DIVIDE
 70
    64
  3
__ . . __ . . __ . . __ . . __ . . __ . . __
 72
    65
 73
     6
 40
1.25
 49
0.5
 49
-0.25
 49
0.0
 49
-0.25
 49
0.0
 49
-0.25
  0
LTYPE
  2
CENTER
 70
    64
  3
____ _ ____ _ ____ _ ____ _ ____ _ ____ _ ____ 
 72
    65
 73
     4
 40
2.0
 49
1.25
 49
-0.25
 49
0.25
 49
-0.25
  0
LTYPE
  2
PHANTOM
 70
    64
  3
______  __  __  ______  __  __  ______  __  __ 
 72
    65
 73
     6
 40
2.5
 49
1.25
 49
-0.25
 49
0.25
 49
-0.25
 49
0.25
 49
-0.25
  0
LTYPE
  2
BORDER
 70
    64
  3
__ __ . __ __ . __ __ . __ __ . __ __ . __ __ .
 72
    65
 73
     6
 40
1.75
 49
0.5
 49
-0.25
 49
0.5
 49
-0.25
 49
0.0
 49
-0.25
  0
ENDTAB
  0
TABLE
  2
LAYER
 70
    16
  0
LAYER
  2
CSLAYER1
 70
    64
 62
     7
  6
CONTINUOUS
  0
LAYER
  2
CSLAYER2
 70
    64
 62
     7
  6
CONTINUOUS
  0
LAYER
  2
CSLAYER3
 70
    64
 62
     7
  6
CONTINUOUS
  0
LAYER
  2
CSLAYER4
 70
    64
 62
     7
  6
CONTINUOUS
  0
LAYER
  2
CSLAYER5
 70
    64
 62
     7
  6
CONTINUOUS
  0
LAYER
  2
CSLAYER6
 70
    64
 62
     7
  6
CONTINUOUS
  0
LAYER
  2
CSLAYER7
 70
    64
 62
     7
  6
CONTINUOUS
  0
LAYER
  2
CSLAYER8
 70
    64
 62
     7
  6
CONTINUOUS
  0
LAYER
  2
CSLAYER9
 70
    64
 62
     7
  6
CONTINUOUS
  0
LAYER
  2
CSLAYER10
 70
    64
 62
     7
  6
CONTINUOUS
  0
LAYER
  2
CSLAYER11
 70
    64
 62
     7
  6
CONTINUOUS
  0
LAYER
  2
CSLAYER12
 70
    64
 62
     7
  6
CONTINUOUS
  0
LAYER
  2
CSLAYER13
 70
    64
 62
     7
  6
CONTINUOUS
  0
LAYER
  2
CSLAYER14
 70
    64
 62
     7
  6
CONTINUOUS
  0
LAYER
  2
CSLAYER15
 70
    64
 62
     7
  6
CONTINUOUS
  0
LAYER
  2
CSLAYER16
 70
    64
 62
     7
  6
CONTINUOUS
  0
ENDTAB
  0
TABLE
  2
STYLE
 70
     1
  0
STYLE
  2
SX_FONT
 70
     0
 40
1.0
 41
1.0
 50
0.0
 71
     0
 42
1.0
  3
monotxt
  4
bigfont
  0
ENDTAB
  0
TABLE
  2
VIEW
 70
     0
  0
ENDTAB
  0
ENDSEC
  0
SECTION
  2
BLOCKS
  0
BLOCK
  8
CSLAYER1
  2
*D0000
 70
    65
 10
0.0
 20
0.0
 30
0.0
  0
LINE
  8
CSLAYER1
  6
CONTINUOUS
 62
     7
 10
167.513215
 20
155.780606
 11
172.714333
 21
155.780606
  0
LINE
  8
CSLAYER1
  6
CONTINUOUS
 62
     7
 10
167.513215
 20
170.780606
 11
172.714333
 21
170.780606
  0
LINE
  8
CSLAYER1
  6
CONTINUOUS
 62
     7
 10
171.714333
 20
155.780606
 11
171.714333
 21
170.780606
  0
LINE
  8
CSLAYER1
  6
CONTINUOUS
 62
     7
 10
171.714333
 20
155.780606
 11
170.679057
 21
159.644309
  0
LINE
  8
CSLAYER1
  6
CONTINUOUS
 62
     7
 10
171.714333
 20
155.780606
 11
172.749609
 21
159.644309
  0
LINE
  8
CSLAYER1
  6
CONTINUOUS
 62
     7
 10
171.714333
 20
170.780606
 11
170.679057
 21
166.916902
  0
LINE
  8
CSLAYER1
  6
CONTINUOUS
 62
     7
 10
171.714333
 20
170.780606
 11
172.749609
 21
166.916902
  0
TEXT
  8
CSLAYER1
 62
     7
 10
177.812958
 20
160.310120
 40
4.000000
 41
0.900000
  1
15
 50
90.000000
 51
0.000000
  7
SX_FONT
 72
     5
 11
177.812958
 21
166.310120
  0
ENDBLK
  8
0
  0
BLOCK
  8
CSLAYER1
  2
*D0001
 70
    65
 10
0.0
 20
0.0
 30
0.0
  0
LINE
  8
CSLAYER1
  6
CONTINUOUS
 62
     7
 10
41.513215
 20
176.780606
 11
41.513215
 21
182.075669
  0
LINE
  8
CSLAYER1
  6
CONTINUOUS
 62
     7
 10
161.513215
 20
176.780606
 11
161.513215
 21
182.075669
  0
LINE
  8
CSLAYER1
  6
CONTINUOUS
 62
     7
 10
41.513215
 20
181.075669
 11
161.513215
 21
181.075669
  0
LINE
  8
CSLAYER1
  6
CONTINUOUS
 62
     7
 10
41.513215
 20
181.075669
 11
45.376919
 21
182.110945
  0
LINE
  8
CSLAYER1
  6
CONTINUOUS
 62
     7
 10
41.513215
 20
181.075669
 11
45.376919
 21
180.040393
  0
LINE
  8
CSLAYER1
  6
CONTINUOUS
 62
     7
 10
161.513215
 20
181.075669
 11
157.649512
 21
182.110945
  0
LINE
  8
CSLAYER1
  6
CONTINUOUS
 62
     7
 10
161.513215
 20
181.075669
 11
157.649512
 21
180.040393
  0
TEXT
  8
CSLAYER1
 62
     7
 10
97.013214
 20
182.075668
 40
4.000000
 41
0.843750
  1
120
 50
0.000000
 51
0.000000
  7
SX_FONT
 72
     5
 11
106.013214
 21
182.075668
  0
ENDBLK
  8
0
  0
ENDSEC
  0
SECTION
  2
ENTITIES
  0
LINE
  8
CSLAYER2
  6
CONTINUOUS
 62
     7
 10
161.513215
 20
155.780606
 11
41.513215
 21
155.780606
  0
ARC
  8
CSLAYER2
  6
CONTINUOUS
 62
     7
 10
110.734701
 20
160.780606
 40
10.000000
 50
56.610351
 51
124.448801
  0
ARC
  8
CSLAYER2
  6
CONTINUOUS
 62
     7
 10
50.513215
 20
161.780606
 40
9.000000
 50
0.000000
 51
180.000000
  0
LINE
  8
CSLAYER2
  6
CONTINUOUS
 62
     7
 10
41.513215
 20
155.780606
 11
41.513215
 21
161.780606
  0
ARC
  8
CSLAYER2
  6
CONTINUOUS
 62
     7
 10
69.513215
 20
165.780606
 40
5.000000
 50
44.998995
 51
180.000000
  0
ARC
  8
CSLAYER2
  6
CONTINUOUS
 62
     7
 10
81.674474
 20
177.723532
 40
10.000000
 50
223.970879
 51
300.756839
  0
LINE
  8
CSLAYER2
  6
CONTINUOUS
 62
     7
 10
64.513215
 20
160.780606
 11
64.513215
 21
165.780606
  0
LINE
  8
CSLAYER2
  6
CONTINUOUS
 62
     7
 10
59.513215
 20
160.780606
 11
59.513215
 21
161.780606
  0
LINE
  8
CSLAYER2
  6
CONTINUOUS
 62
     7
 10
64.513215
 20
160.780606
 11
59.513215
 21
160.780606
  0
LINE
  8
CSLAYER2
  6
CONTINUOUS
 62
     7
 10
73.048811
 20
169.316078
 11
74.495144
 21
170.762410
  0
ARC
  8
CSLAYER2
  6
CONTINUOUS
 62
     7
 10
101.513215
 20
166.280606
 40
4.500000
 50
37.610715
 51
142.389285
  0
ARC
  8
CSLAYER2
  6
CONTINUOUS
 62
     7
 10
92.291729
 20
160.780606
 40
10.000000
 50
55.551199
 51
123.389649
  0
ARC
  8
CSLAYER2
  6
CONTINUOUS
 62
     7
 10
133.513215
 20
165.780606
 40
5.000000
 50
0.000000
 51
135.001005
  0
ARC
  8
CSLAYER2
  6
CONTINUOUS
 62
     7
 10
152.513215
 20
161.780606
 40
9.000000
 50
0.000000
 51
180.000000
  0
LINE
  8
CSLAYER2
  6
CONTINUOUS
 62
     7
 10
129.977619
 20
169.316078
 11
128.513091
 21
170.780606
  0
ARC
  8
CSLAYER2
  6
CONTINUOUS
 62
     7
 10
121.351957
 20
177.723532
 40
10.000000
 50
239.243161
 51
316.029121
  0
LINE
  8
CSLAYER2
  6
CONTINUOUS
 62
     7
 10
143.513215
 20
160.780606
 11
143.513215
 21
161.780606
  0
LINE
  8
CSLAYER2
  6
CONTINUOUS
 62
     7
 10
138.513215
 20
160.780606
 11
138.513215
 21
165.780606
  0
LINE
  8
CSLAYER2
  6
CONTINUOUS
 62
     7
 10
138.513215
 20
160.780606
 11
143.513215
 21
160.780606
  0
LINE
  8
CSLAYER2
  6
CONTINUOUS
 62
     7
 10
161.513215
 20
155.780606
 11
161.513215
 21
161.780606
  0
TEXT
  8
CSLAYER1
 62
     7
 10
41.676571
 20
95.371773
 40
10.000000
 41
0.630000
  1
FM-2024
 50
0.000000
 51
0.000000
  7
SX_FONT
 72
     5
 11
83.676571
 21
95.371773
  0
DIMENSION
  8
CSLAYER1
 62
     7
  2
*D0000
 10
171.714333
 20
170.780606
 11
177.812958
 21
163.310120
 13
166.513215
 23
155.780606
 14
166.513215
 24
170.780606
 50
90.000000
 70
1
  0
DIMENSION
  8
CSLAYER1
 62
     7
  2
*D0001
 10
161.513215
 20
181.075669
 11
101.513214
 21
182.075668
 13
41.513215
 23
175.780606
 14
161.513215
 24
175.780606
 70
1
  0
TEXT
  8
CSLAYER1
 62
     7
 10
99.296860
 20
95.689957
 40
10.000000
 41
0.635294
  1
120x15
 50
0.000000
 51
0.000000
  7
SX_FONT
 72
     5
 11
135.296860
 21
95.689957
  0
TEXT
  8
CSLAYER1
 62
     7
 10
42.032362
 20
74.691893
 40
4.960742
 41
0.729057
  1
ホ%%dケットカタロク゛ Vol. 1 P18
 50
0.000000
 51
0.000000
  7
SX_FONT
 72
     5
 11
116.776720
 21
74.691893
  0
TEXT
  8
CSLAYER1
 62
     7
 10
42.470512
 20
82.756035
 40
5.000000
 41
0.612766
  1
カタログ Vol. 1  P45
 50
0.000000
 51
0.000000
  7
SX_FONT
 72
     5
 11
90.470512
 21
82.756035
  0
ENDSEC
  0
EOF
