  0
SECTION
  2
HEADER
  9
$ACADVER
  1
AC1006
  9
$INSBASE
 10
49.423257
 20
143.529896
 30
0.0
  9
$EXTMIN
 10
49.423257
 20
143.529896
  9
$EXTMAX
 10
259.423257
 20
440.529896
  9
$LIMMIN
 10
49.423257
 20
143.529896
  9
$LIMMAX
 10
259.423257
 20
440.529896
  9
$VIEWCTR
 10
154.423257
 20
292.029896
  9
$VIEWSIZE
 40
297.000000
  9
$SNAPMODE
 70
     0
  9
$SNAPUNIT
 10
1.0
 20
1.0
  9
$SNAPBASE
 10
0.0
 20
0.0
  9
$SNAPANG
 50
0.0
  9
$SNAPSTYLE
 70
     0
  9
$SNAPISOPAIR
 70
     0
  9
$GRIDMODE
 70
     0
  9
$GRIDUNIT
 10
0.0
 20
0.0
  9
$ORTHOMODE
 70
     0
  9
$REGENMODE
 70
     1
  9
$FILLMODE
 70
     1
  9
$QTEXTMODE
 70
     0
  9
$DRAGMODE
 70
     2
  9
$LTSCALE
 40
15.000000
  9
$OSMODE
 70
     0
  9
$ATTMODE
 70
     1
  9
$TEXTSIZE
 40
0.2
  9
$TRACEWID
 40
0.05
  9
$TEXTSTYLE
  7
STANDARD
  9
$CLAYER
  8
CSLAYER3
  9
$CELTYPE
  6
BYLAYER
  9
$CECOLOR
 62
   256
  9
$DIMSCALE
 40
1.0
  9
$DIMASZ
 40
0.18
  9
$DIMEXO
 40
0.0625
  9
$DIMDLI
 40
0.38
  9
$DIMRND
 40
0.0
  9
$DIMDLE
 40
0.0
  9
$DIMEXE
 40
0.18
  9
$DIMTP
 40
0.0
  9
$DIMTM
 40
0.0
  9
$DIMTXT
 40
0.18
  9
$DIMCEN
 40
0.09
  9
$DIMTSZ
 40
0.0
  9
$DIMTOL
 70
     0
  9
$DIMLIM
 70
     0
  9
$DIMTIH
 70
     1
  9
$DIMTOH
 70
     1
  9
$DIMSE1
 70
     0
  9
$DIMSE2
 70
     0
  9
$DIMTAD
 70
     0
  9
$DIMZIN
 70
     0
  9
$DIMBLK
  1

  9
$LUNITS
 70
     2
  9
$LUPREC
 70
     4
  9
$AXISMODE
 70
     0
  9
$AXISUNIT
 10
0.0
 20
0.0
  9
$SKETCHINC
 40
0.1
  9
$FILLETRAD
 40
0.0
  9
$AUNITS
 70
     0
  9
$AUPREC
 70
     0
  9
$MENU
  1
ACAD
  9
$ELEVATION
 40
0.0
  9
$THICKNESS
 40
0.0
  9
$VIEWDIR
 10
0.0
 20
0.0
 30
1.0
  9
$LIMCHECK
 70
     0
  9
$BLIPMODE
 70
     1
  9
$CHAMFERA
 40
0.0
  9
$CHAMFERB
 40
0.0
  9
$FASTZOOM
 70
     1
  9
$SKPOLY
 70
     0
  9
$TDCREATE
 40
0.000000
  9
$TDUPDATE
 40
0.000000
  9
$TDINDWG
 40
0.0
  9
$TDUSRTIMER
 40
0.0
  9
$USRTIMER
 70
     1
  9
$ANGBASE
 50
0.0
  9
$ANGDIR
 70
     0
  9
$PDMODE
 70
     0
  9
$PDSIZE
 40
0.0
  9
$PLINEWID
 40
0.0
  9
$COORDS
 70
     0
  9
$USERI1
 70
     0
  9
$USERI2
 70
     0
  9
$USERI3
 70
     0
  9
$USERI4
 70
     0
  9
$USERI5
 70
     0
  9
$USERR1
 40
0.0
  9
$USERR2
 40
0.0
  9
$USERR3
 40
0.0
  9
$USERR4
 40
0.0
  9
$USERR5
 40
0.0
  0
ENDSEC
  0
SECTION
  2
TABLES
  0
TABLE
  2
LTYPE
 70
     9
  0
LTYPE
  2
CONTINUOUS
 70
    64
  3
Solid line
 72
    65
 73
     0
 40
0.0
  0
LTYPE
  2
DASHED
 70
    64
  3
__ __ __ __ __ __ __ __ __ __ __ __ __ __ __
 72
    65
 73
     2
 40
0.75
 49
0.5
 49
-0.25
  0
LTYPE
  2
HIDDEN
 70
    64
  3
_ _ _ _ _ _ _ _ _ _ _ _ _ _ _ _ _ _ _ _ _ _ _
 72
    65
 73
     2
 40
0.375
 49
0.25
 49
-0.125
  0
LTYPE
  2
DOT
 70
    64
  3
...............................................
 72
    65
 73
     2
 40
0.25
 49
0.0
 49
-0.25
  0
LTYPE
  2
DASHDOT
 70
    64
  3
__ . __ . __ . __ . __ . __ . __ . __ . __ . __
 72
    65
 73
     4
 40
1.0
 49
0.5
 49
-0.25
 49
0.0
 49
-0.25
  0
LTYPE
  2
DIVIDE
 70
    64
  3
__ . . __ . . __ . . __ . . __ . . __ . . __
 72
    65
 73
     6
 40
1.25
 49
0.5
 49
-0.25
 49
0.0
 49
-0.25
 49
0.0
 49
-0.25
  0
LTYPE
  2
CENTER
 70
    64
  3
____ _ ____ _ ____ _ ____ _ ____ _ ____ _ ____ 
 72
    65
 73
     4
 40
2.0
 49
1.25
 49
-0.25
 49
0.25
 49
-0.25
  0
LTYPE
  2
PHANTOM
 70
    64
  3
______  __  __  ______  __  __  ______  __  __ 
 72
    65
 73
     6
 40
2.5
 49
1.25
 49
-0.25
 49
0.25
 49
-0.25
 49
0.25
 49
-0.25
  0
LTYPE
  2
BORDER
 70
    64
  3
__ __ . __ __ . __ __ . __ __ . __ __ . __ __ .
 72
    65
 73
     6
 40
1.75
 49
0.5
 49
-0.25
 49
0.5
 49
-0.25
 49
0.0
 49
-0.25
  0
ENDTAB
  0
TABLE
  2
LAYER
 70
    16
  0
LAYER
  2
CSLAYER1
 70
    64
 62
     7
  6
CONTINUOUS
  0
LAYER
  2
CSLAYER2
 70
    64
 62
     7
  6
CONTINUOUS
  0
LAYER
  2
CSLAYER3
 70
    64
 62
     7
  6
CONTINUOUS
  0
LAYER
  2
CSLAYER4
 70
    64
 62
     7
  6
CONTINUOUS
  0
LAYER
  2
CSLAYER5
 70
    64
 62
     7
  6
CONTINUOUS
  0
LAYER
  2
CSLAYER6
 70
    64
 62
     7
  6
CONTINUOUS
  0
LAYER
  2
CSLAYER7
 70
    64
 62
     7
  6
CONTINUOUS
  0
LAYER
  2
CSLAYER8
 70
    64
 62
     7
  6
CONTINUOUS
  0
LAYER
  2
CSLAYER9
 70
    64
 62
     7
  6
CONTINUOUS
  0
LAYER
  2
CSLAYER10
 70
    64
 62
     7
  6
CONTINUOUS
  0
LAYER
  2
CSLAYER11
 70
    64
 62
     7
  6
CONTINUOUS
  0
LAYER
  2
CSLAYER12
 70
    64
 62
     7
  6
CONTINUOUS
  0
LAYER
  2
CSLAYER13
 70
    64
 62
     7
  6
CONTINUOUS
  0
LAYER
  2
CSLAYER14
 70
    64
 62
     7
  6
CONTINUOUS
  0
LAYER
  2
CSLAYER15
 70
    64
 62
     7
  6
CONTINUOUS
  0
LAYER
  2
CSLAYER16
 70
    64
 62
     7
  6
CONTINUOUS
  0
ENDTAB
  0
TABLE
  2
STYLE
 70
     1
  0
STYLE
  2
SX_FONT
 70
     0
 40
1.0
 41
1.0
 50
0.0
 71
     0
 42
1.0
  3
monotxt
  4
bigfont
  0
ENDTAB
  0
TABLE
  2
VIEW
 70
     0
  0
ENDTAB
  0
ENDSEC
  0
SECTION
  2
BLOCKS
  0
BLOCK
  8
CSLAYER1
  2
*D0000
 70
    65
 10
0.0
 20
0.0
 30
0.0
  0
LINE
  8
CSLAYER1
  6
CONTINUOUS
 62
     7
 10
145.763215
 20
143.639385
 11
150.704114
 21
143.639385
  0
LINE
  8
CSLAYER1
  6
CONTINUOUS
 62
     7
 10
145.763215
 20
158.639385
 11
150.704114
 21
158.639385
  0
LINE
  8
CSLAYER1
  6
CONTINUOUS
 62
     7
 10
149.704114
 20
143.639385
 11
149.704114
 21
158.639385
  0
LINE
  8
CSLAYER1
  6
CONTINUOUS
 62
     7
 10
149.704114
 20
143.639385
 11
148.668838
 21
147.503088
  0
LINE
  8
CSLAYER1
  6
CONTINUOUS
 62
     7
 10
149.704114
 20
143.639385
 11
150.739390
 21
147.503088
  0
LINE
  8
CSLAYER1
  6
CONTINUOUS
 62
     7
 10
149.704114
 20
158.639385
 11
148.668838
 21
154.775681
  0
LINE
  8
CSLAYER1
  6
CONTINUOUS
 62
     7
 10
149.704114
 20
158.639385
 11
150.739390
 21
154.775681
  0
TEXT
  8
CSLAYER1
 62
     7
 10
155.374191
 20
148.366562
 40
4.000000
 41
0.900000
  1
15
 50
90.000000
 51
0.000000
  7
SX_FONT
 72
     5
 11
155.374191
 21
154.366562
  0
ENDBLK
  8
0
  0
BLOCK
  8
CSLAYER1
  2
*D0001
 70
    65
 10
0.0
 20
0.0
 30
0.0
  0
LINE
  8
CSLAYER1
  6
CONTINUOUS
 62
     7
 10
49.763215
 20
164.639385
 11
49.763215
 21
169.623301
  0
LINE
  8
CSLAYER1
  6
CONTINUOUS
 62
     7
 10
139.763215
 20
164.639385
 11
139.763215
 21
169.623301
  0
LINE
  8
CSLAYER1
  6
CONTINUOUS
 62
     7
 10
49.763215
 20
168.623301
 11
139.763215
 21
168.623301
  0
LINE
  8
CSLAYER1
  6
CONTINUOUS
 62
     7
 10
49.763215
 20
168.623301
 11
53.626919
 21
169.658577
  0
LINE
  8
CSLAYER1
  6
CONTINUOUS
 62
     7
 10
49.763215
 20
168.623301
 11
53.626919
 21
167.588025
  0
LINE
  8
CSLAYER1
  6
CONTINUOUS
 62
     7
 10
139.763215
 20
168.623301
 11
135.899512
 21
169.658577
  0
LINE
  8
CSLAYER1
  6
CONTINUOUS
 62
     7
 10
139.763215
 20
168.623301
 11
135.899512
 21
167.588025
  0
TEXT
  8
CSLAYER1
 62
     7
 10
91.763214
 20
169.623306
 40
4.000000
 41
0.900000
  1
90
 50
0.000000
 51
0.000000
  7
SX_FONT
 72
     5
 11
97.763214
 21
169.623306
  0
ENDBLK
  8
0
  0
ENDSEC
  0
SECTION
  2
ENTITIES
  0
ARC
  8
CSLAYER2
  6
CONTINUOUS
 62
     7
 10
111.792004
 20
150.668313
 40
8.000000
 50
-0.207182
 51
135.292292
  0
LINE
  8
CSLAYER2
  6
CONTINUOUS
 62
     7
 10
49.763215
 20
143.639385
 11
139.763215
 21
143.639385
  0
ARC
  8
CSLAYER2
  6
CONTINUOUS
 62
     7
 10
54.734479
 20
153.639385
 40
5.000000
 50
0.000000
 51
173.854188
  0
ARC
  8
CSLAYER2
  6
CONTINUOUS
 62
     7
 10
77.734426
 20
150.668313
 40
8.000000
 50
44.707708
 51
180.207182
  0
LINE
  8
CSLAYER2
  6
CONTINUOUS
 62
     7
 10
59.691847
 20
152.639385
 11
63.734479
 21
152.639385
  0
LINE
  8
CSLAYER2
  6
CONTINUOUS
 62
     7
 10
59.734479
 20
153.639385
 11
59.734479
 21
152.639385
  0
LINE
  8
CSLAYER2
  6
CONTINUOUS
 62
     7
 10
49.763215
 20
150.639385
 11
49.763215
 21
143.639385
  0
LINE
  8
CSLAYER2
  6
CONTINUOUS
 62
     7
 10
63.734479
 20
150.639385
 11
69.734479
 21
150.639385
  0
LINE
  8
CSLAYER2
  6
CONTINUOUS
 62
     7
 10
63.734479
 20
152.639385
 11
63.734479
 21
150.639385
  0
LINE
  8
CSLAYER2
  6
CONTINUOUS
 62
     7
 10
49.763215
 20
150.639385
 11
49.763215
 21
154.174680
  0
ARC
  8
CSLAYER2
  6
CONTINUOUS
 62
     7
 10
94.763215
 20
174.227843
 40
18.000000
 50
240.000000
 51
300.000000
  0
LINE
  8
CSLAYER2
  6
CONTINUOUS
 62
     7
 10
85.763215
 20
158.639385
 11
83.420065
 21
156.296235
  0
LINE
  8
CSLAYER2
  6
CONTINUOUS
 62
     7
 10
103.763215
 20
158.639385
 11
106.106365
 21
156.296235
  0
ARC
  8
CSLAYER2
  6
CONTINUOUS
 62
     7
 10
134.763215
 20
153.639385
 40
5.000000
 50
0.000000
 51
180.000000
  0
LINE
  8
CSLAYER2
  6
CONTINUOUS
 62
     7
 10
125.763215
 20
150.639385
 11
119.763215
 21
150.639385
  0
LINE
  8
CSLAYER2
  6
CONTINUOUS
 62
     7
 10
139.763215
 20
150.639385
 11
139.763215
 21
153.639385
  0
LINE
  8
CSLAYER2
  6
CONTINUOUS
 62
     7
 10
129.763215
 20
152.639385
 11
125.763215
 21
152.639385
  0
LINE
  8
CSLAYER2
  6
CONTINUOUS
 62
     7
 10
129.763215
 20
153.639385
 11
129.763215
 21
152.639385
  0
LINE
  8
CSLAYER2
  6
CONTINUOUS
 62
     7
 10
125.763215
 20
152.639385
 11
125.763215
 21
150.639385
  0
LINE
  8
CSLAYER2
  6
CONTINUOUS
 62
     7
 10
139.763215
 20
150.639385
 11
139.763215
 21
143.639385
  0
TEXT
  8
CSLAYER1
 62
     7
 10
49.764648
 20
83.021484
 40
10.000000
 41
0.630000
  1
FM-2023
 50
0.000000
 51
0.000000
  7
SX_FONT
 72
     5
 11
91.764648
 21
83.021484
  0
DIMENSION
  8
CSLAYER1
 62
     7
  2
*D0000
 10
149.704114
 20
158.639385
 11
155.374191
 21
151.366562
 13
144.763215
 23
143.639385
 14
144.763215
 24
158.639385
 50
90.000000
 70
1
  0
DIMENSION
  8
CSLAYER1
 62
     7
  2
*D0001
 10
139.763215
 20
168.623301
 11
94.763214
 21
169.623306
 13
49.763215
 23
163.639385
 14
139.763215
 24
163.639385
 70
1
  0
TEXT
  8
CSLAYER1
 62
     7
 10
109.441055
 20
83.542885
 40
10.000000
 41
0.642857
  1
90x15
 50
0.000000
 51
0.000000
  7
SX_FONT
 72
     5
 11
139.441055
 21
83.542885
  0
TEXT
  8
CSLAYER1
 62
     7
 10
50.284315
 20
61.277785
 40
4.960742
 41
0.729057
  1
ホ%%dケットカタロク゛ Vol. 1 P18
 50
0.000000
 51
0.000000
  7
SX_FONT
 72
     5
 11
125.028673
 21
61.277785
  0
TEXT
  8
CSLAYER1
 62
     7
 10
50.446167
 20
69.806015
 40
5.000000
 41
0.612766
  1
カタログ Vol. 1  P45
 50
0.000000
 51
0.000000
  7
SX_FONT
 72
     5
 11
98.446167
 21
69.806015
  0
ENDSEC
  0
EOF
