  0
SECTION
  2
HEADER
  9
$ACADVER
  1
AC1006
  9
$INSBASE
 10
58.355220
 20
240.963989
 30
0.0
  9
$EXTMIN
 10
58.355220
 20
240.963989
  9
$EXTMAX
 10
268.355220
 20
537.963989
  9
$LIMMIN
 10
58.355220
 20
240.963989
  9
$LIMMAX
 10
268.355220
 20
537.963989
  9
$VIEWCTR
 10
163.355220
 20
389.463989
  9
$VIEWSIZE
 40
297.000000
  9
$SNAPMODE
 70
     0
  9
$SNAPUNIT
 10
1.0
 20
1.0
  9
$SNAPBASE
 10
0.0
 20
0.0
  9
$SNAPANG
 50
0.0
  9
$SNAPSTYLE
 70
     0
  9
$SNAPISOPAIR
 70
     0
  9
$GRIDMODE
 70
     0
  9
$GRIDUNIT
 10
0.0
 20
0.0
  9
$ORTHOMODE
 70
     0
  9
$REGENMODE
 70
     1
  9
$FILLMODE
 70
     1
  9
$QTEXTMODE
 70
     0
  9
$DRAGMODE
 70
     2
  9
$LTSCALE
 40
15.000000
  9
$OSMODE
 70
     0
  9
$ATTMODE
 70
     1
  9
$TEXTSIZE
 40
0.2
  9
$TRACEWID
 40
0.05
  9
$TEXTSTYLE
  7
STANDARD
  9
$CLAYER
  8
CSLAYER3
  9
$CELTYPE
  6
BYLAYER
  9
$CECOLOR
 62
   256
  9
$DIMSCALE
 40
1.0
  9
$DIMASZ
 40
0.18
  9
$DIMEXO
 40
0.0625
  9
$DIMDLI
 40
0.38
  9
$DIMRND
 40
0.0
  9
$DIMDLE
 40
0.0
  9
$DIMEXE
 40
0.18
  9
$DIMTP
 40
0.0
  9
$DIMTM
 40
0.0
  9
$DIMTXT
 40
0.18
  9
$DIMCEN
 40
0.09
  9
$DIMTSZ
 40
0.0
  9
$DIMTOL
 70
     0
  9
$DIMLIM
 70
     0
  9
$DIMTIH
 70
     1
  9
$DIMTOH
 70
     1
  9
$DIMSE1
 70
     0
  9
$DIMSE2
 70
     0
  9
$DIMTAD
 70
     0
  9
$DIMZIN
 70
     0
  9
$DIMBLK
  1

  9
$LUNITS
 70
     2
  9
$LUPREC
 70
     4
  9
$AXISMODE
 70
     0
  9
$AXISUNIT
 10
0.0
 20
0.0
  9
$SKETCHINC
 40
0.1
  9
$FILLETRAD
 40
0.0
  9
$AUNITS
 70
     0
  9
$AUPREC
 70
     0
  9
$MENU
  1
ACAD
  9
$ELEVATION
 40
0.0
  9
$THICKNESS
 40
0.0
  9
$VIEWDIR
 10
0.0
 20
0.0
 30
1.0
  9
$LIMCHECK
 70
     0
  9
$BLIPMODE
 70
     1
  9
$CHAMFERA
 40
0.0
  9
$CHAMFERB
 40
0.0
  9
$FASTZOOM
 70
     1
  9
$SKPOLY
 70
     0
  9
$TDCREATE
 40
0.000000
  9
$TDUPDATE
 40
0.000000
  9
$TDINDWG
 40
0.0
  9
$TDUSRTIMER
 40
0.0
  9
$USRTIMER
 70
     1
  9
$ANGBASE
 50
0.0
  9
$ANGDIR
 70
     0
  9
$PDMODE
 70
     0
  9
$PDSIZE
 40
0.0
  9
$PLINEWID
 40
0.0
  9
$COORDS
 70
     0
  9
$USERI1
 70
     0
  9
$USERI2
 70
     0
  9
$USERI3
 70
     0
  9
$USERI4
 70
     0
  9
$USERI5
 70
     0
  9
$USERR1
 40
0.0
  9
$USERR2
 40
0.0
  9
$USERR3
 40
0.0
  9
$USERR4
 40
0.0
  9
$USERR5
 40
0.0
  0
ENDSEC
  0
SECTION
  2
TABLES
  0
TABLE
  2
LTYPE
 70
     9
  0
LTYPE
  2
CONTINUOUS
 70
    64
  3
Solid line
 72
    65
 73
     0
 40
0.0
  0
LTYPE
  2
DASHED
 70
    64
  3
__ __ __ __ __ __ __ __ __ __ __ __ __ __ __
 72
    65
 73
     2
 40
0.75
 49
0.5
 49
-0.25
  0
LTYPE
  2
HIDDEN
 70
    64
  3
_ _ _ _ _ _ _ _ _ _ _ _ _ _ _ _ _ _ _ _ _ _ _
 72
    65
 73
     2
 40
0.375
 49
0.25
 49
-0.125
  0
LTYPE
  2
DOT
 70
    64
  3
...............................................
 72
    65
 73
     2
 40
0.25
 49
0.0
 49
-0.25
  0
LTYPE
  2
DASHDOT
 70
    64
  3
__ . __ . __ . __ . __ . __ . __ . __ . __ . __
 72
    65
 73
     4
 40
1.0
 49
0.5
 49
-0.25
 49
0.0
 49
-0.25
  0
LTYPE
  2
DIVIDE
 70
    64
  3
__ . . __ . . __ . . __ . . __ . . __ . . __
 72
    65
 73
     6
 40
1.25
 49
0.5
 49
-0.25
 49
0.0
 49
-0.25
 49
0.0
 49
-0.25
  0
LTYPE
  2
CENTER
 70
    64
  3
____ _ ____ _ ____ _ ____ _ ____ _ ____ _ ____ 
 72
    65
 73
     4
 40
2.0
 49
1.25
 49
-0.25
 49
0.25
 49
-0.25
  0
LTYPE
  2
PHANTOM
 70
    64
  3
______  __  __  ______  __  __  ______  __  __ 
 72
    65
 73
     6
 40
2.5
 49
1.25
 49
-0.25
 49
0.25
 49
-0.25
 49
0.25
 49
-0.25
  0
LTYPE
  2
BORDER
 70
    64
  3
__ __ . __ __ . __ __ . __ __ . __ __ . __ __ .
 72
    65
 73
     6
 40
1.75
 49
0.5
 49
-0.25
 49
0.5
 49
-0.25
 49
0.0
 49
-0.25
  0
ENDTAB
  0
TABLE
  2
LAYER
 70
    16
  0
LAYER
  2
CSLAYER1
 70
    64
 62
     7
  6
CONTINUOUS
  0
LAYER
  2
CSLAYER2
 70
    64
 62
     7
  6
CONTINUOUS
  0
LAYER
  2
CSLAYER3
 70
    64
 62
     7
  6
CONTINUOUS
  0
LAYER
  2
CSLAYER4
 70
    64
 62
     7
  6
CONTINUOUS
  0
LAYER
  2
CSLAYER5
 70
    64
 62
     7
  6
CONTINUOUS
  0
LAYER
  2
CSLAYER6
 70
    64
 62
     7
  6
CONTINUOUS
  0
LAYER
  2
CSLAYER7
 70
    64
 62
     7
  6
CONTINUOUS
  0
LAYER
  2
CSLAYER8
 70
    64
 62
     7
  6
CONTINUOUS
  0
LAYER
  2
CSLAYER9
 70
    64
 62
     7
  6
CONTINUOUS
  0
LAYER
  2
CSLAYER10
 70
    64
 62
     7
  6
CONTINUOUS
  0
LAYER
  2
CSLAYER11
 70
    64
 62
     7
  6
CONTINUOUS
  0
LAYER
  2
CSLAYER12
 70
    64
 62
     7
  6
CONTINUOUS
  0
LAYER
  2
CSLAYER13
 70
    64
 62
     7
  6
CONTINUOUS
  0
LAYER
  2
CSLAYER14
 70
    64
 62
     7
  6
CONTINUOUS
  0
LAYER
  2
CSLAYER15
 70
    64
 62
     7
  6
CONTINUOUS
  0
LAYER
  2
CSLAYER16
 70
    64
 62
     7
  6
CONTINUOUS
  0
ENDTAB
  0
TABLE
  2
STYLE
 70
     1
  0
STYLE
  2
SX_FONT
 70
     0
 40
1.0
 41
1.0
 50
0.0
 71
     0
 42
1.0
  3
monotxt
  4
bigfont
  0
ENDTAB
  0
TABLE
  2
VIEW
 70
     0
  0
ENDTAB
  0
ENDSEC
  0
SECTION
  2
BLOCKS
  0
BLOCK
  8
CSLAYER1
  2
*D0000
 70
    65
 10
0.0
 20
0.0
 30
0.0
  0
LINE
  8
CSLAYER1
  6
CONTINUOUS
 62
     7
 10
151.435090
 20
140.420635
 11
156.576994
 21
140.420635
  0
LINE
  8
CSLAYER1
  6
CONTINUOUS
 62
     7
 10
151.435090
 20
155.420635
 11
156.576994
 21
155.420635
  0
LINE
  8
CSLAYER1
  6
CONTINUOUS
 62
     7
 10
155.576994
 20
140.420635
 11
155.576994
 21
155.420635
  0
LINE
  8
CSLAYER1
  6
CONTINUOUS
 62
     7
 10
155.576994
 20
140.420635
 11
154.541717
 21
144.284338
  0
LINE
  8
CSLAYER1
  6
CONTINUOUS
 62
     7
 10
155.576994
 20
140.420635
 11
156.612270
 21
144.284338
  0
LINE
  8
CSLAYER1
  6
CONTINUOUS
 62
     7
 10
155.576994
 20
155.420635
 11
154.541717
 21
151.556931
  0
LINE
  8
CSLAYER1
  6
CONTINUOUS
 62
     7
 10
155.576994
 20
155.420635
 11
156.612270
 21
151.556931
  0
TEXT
  8
CSLAYER1
 62
     7
 10
161.502182
 20
144.700226
 40
4.000000
 41
0.900000
  1
15
 50
90.000000
 51
0.000000
  7
SX_FONT
 72
     5
 11
161.502182
 21
150.700226
  0
ENDBLK
  8
0
  0
BLOCK
  8
CSLAYER1
  2
*D0001
 70
    65
 10
0.0
 20
0.0
 30
0.0
  0
LINE
  8
CSLAYER1
  6
CONTINUOUS
 62
     7
 10
55.435090
 20
161.420635
 11
55.435090
 21
166.247918
  0
LINE
  8
CSLAYER1
  6
CONTINUOUS
 62
     7
 10
145.435090
 20
161.420635
 11
145.435090
 21
166.247918
  0
LINE
  8
CSLAYER1
  6
CONTINUOUS
 62
     7
 10
55.435090
 20
165.247918
 11
145.435090
 21
165.247918
  0
LINE
  8
CSLAYER1
  6
CONTINUOUS
 62
     7
 10
55.435090
 20
165.247918
 11
59.298794
 21
166.283195
  0
LINE
  8
CSLAYER1
  6
CONTINUOUS
 62
     7
 10
55.435090
 20
165.247918
 11
59.298794
 21
164.212642
  0
LINE
  8
CSLAYER1
  6
CONTINUOUS
 62
     7
 10
145.435090
 20
165.247918
 11
141.571387
 21
166.283195
  0
LINE
  8
CSLAYER1
  6
CONTINUOUS
 62
     7
 10
145.435090
 20
165.247918
 11
141.571387
 21
164.212642
  0
TEXT
  8
CSLAYER1
 62
     7
 10
97.435089
 20
166.247925
 40
4.000000
 41
0.900000
  1
90
 50
0.000000
 51
0.000000
  7
SX_FONT
 72
     5
 11
103.435089
 21
166.247925
  0
ENDBLK
  8
0
  0
BLOCK
  8
CSLAYER2
  2
BLKF0000
 70
   64
 10
0.0
 20
0.0
 30
0.0
  0
LINE
  8
CSLAYER2
  6
CONTINUOUS
 62
     7
 10
61.769238
 20
150.176329
 11
61.769238
 21
151.420635
  0
ENDBLK
  8
0
  0
BLOCK
  8
CSLAYER2
  2
BLKF0001
 70
   64
 10
0.0
 20
0.0
 30
0.0
  0
LINE
  8
CSLAYER2
  6
CONTINUOUS
 62
     7
 10
139.100943
 20
150.176329
 11
139.100943
 21
151.420635
  0
ENDBLK
  8
0
  0
ENDSEC
  0
SECTION
  2
ENTITIES
  0
LINE
  8
CSLAYER3
  6
CONTINUOUS
 62
     7
 10
101.056038
 20
154.928733
 11
103.539481
 21
152.961413
  0
LINE
  8
CSLAYER2
  6
CONTINUOUS
 62
     7
 10
145.435090
 20
140.420635
 11
55.435090
 21
140.420635
  0
LINE
  8
CSLAYER2
  6
CONTINUOUS
 62
     7
 10
55.435090
 20
145.842182
 11
57.435090
 21
145.842182
  0
ARC
  8
CSLAYER2
  6
CONTINUOUS
 62
     7
 10
61.769238
 20
145.842182
 40
4.334147
 50
90.000000
 51
180.000000
  0
LINE
  8
CSLAYER2
  6
CONTINUOUS
 62
     7
 10
55.435090
 20
140.420635
 11
55.435090
 21
145.842182
  0
LINE
  8
CSLAYER2
  6
CONTINUOUS
 62
     7
 10
55.435090
 20
140.420635
 11
55.435090
 21
144.420635
  0
LINE
  8
CSLAYER2
  6
CONTINUOUS
 62
     7
 10
55.435090
 20
144.420635
 11
55.435090
 21
140.420635
  0
ARC
  8
CSLAYER2
  6
CONTINUOUS
 62
     7
 10
85.435090
 20
125.420635
 40
30.000000
 50
66.639174
 51
113.019708
  0
LINE
  8
CSLAYER2
  6
CONTINUOUS
 62
     7
 10
64.435090
 20
151.420635
 11
61.769238
 21
151.420635
  0
INSERT
  8
CSLAYER2
  2
BLKF0000
 10
0.0
 20
0.0
 30
0.0
  0
ARC
  8
CSLAYER2
  6
CONTINUOUS
 62
     7
 10
69.396306
 20
150.345385
 40
5.076399
 50
31.950506
 51
167.771352
  0
ARC
  8
CSLAYER3
  6
CONTINUOUS
 62
     7
 10
100.435090
 20
154.144881
 40
1.000000
 50
51.614638
 51
128.385362
  0
LINE
  8
CSLAYER3
  6
CONTINUOUS
 62
     7
 10
99.814143
 20
154.928733
 11
97.330700
 21
152.961413
  0
LINE
  8
CSLAYER2
  6
CONTINUOUS
 62
     7
 10
145.435090
 20
140.420635
 11
145.435090
 21
144.420635
  0
LINE
  8
CSLAYER2
  6
CONTINUOUS
 62
     7
 10
145.435090
 20
144.420635
 11
145.435090
 21
140.420635
  0
LINE
  8
CSLAYER2
  6
CONTINUOUS
 62
     7
 10
145.435090
 20
140.420635
 11
145.435090
 21
145.842182
  0
ARC
  8
CSLAYER2
  6
CONTINUOUS
 62
     7
 10
115.435090
 20
125.420635
 40
30.000000
 50
66.980292
 51
113.360826
  0
LINE
  8
CSLAYER2
  6
CONTINUOUS
 62
     7
 10
136.435090
 20
151.420635
 11
139.100943
 21
151.420635
  0
INSERT
  8
CSLAYER2
  2
BLKF0001
 10
0.0
 20
0.0
 30
0.0
  0
ARC
  8
CSLAYER2
  6
CONTINUOUS
 62
     7
 10
139.100943
 20
145.842182
 40
4.334147
 50
0.000000
 51
90.000000
  0
LINE
  8
CSLAYER2
  6
CONTINUOUS
 62
     7
 10
145.435090
 20
145.842182
 11
143.435090
 21
145.842182
  0
ARC
  8
CSLAYER2
  6
CONTINUOUS
 62
     7
 10
131.473875
 20
150.345385
 40
5.076399
 50
12.228648
 51
148.049494
  0
TEXT
  8
CSLAYER1
 62
     7
 10
55.440392
 20
79.982605
 40
10.000000
 41
0.630000
  1
FM-2022
 50
0.000000
 51
0.000000
  7
SX_FONT
 72
     5
 11
97.440392
 21
79.982605
  0
DIMENSION
  8
CSLAYER1
 62
     7
  2
*D0000
 10
155.576994
 20
155.420635
 11
161.502182
 21
147.700226
 13
150.435090
 23
140.420635
 14
150.435090
 24
155.420635
 50
90.000000
 70
1
  0
DIMENSION
  8
CSLAYER1
 62
     7
  2
*D0001
 10
145.435090
 20
165.247918
 11
100.435089
 21
166.247925
 13
55.435090
 23
160.420635
 14
145.435090
 24
160.420635
 70
1
  0
TEXT
  8
CSLAYER1
 62
     7
 10
114.092056
 20
79.965408
 40
10.000000
 41
0.642857
  1
90x15
 50
0.000000
 51
0.000000
  7
SX_FONT
 72
     5
 11
144.092056
 21
79.965408
  0
TEXT
  8
CSLAYER1
 62
     7
 10
55.959723
 20
59.137141
 40
4.960742
 41
0.729057
  1
ホ%%dケットカタロク゛ Vol. 1 P17
 50
0.000000
 51
0.000000
  7
SX_FONT
 72
     5
 11
130.704080
 21
59.137141
  0
TEXT
  8
CSLAYER1
 62
     7
 10
55.977882
 20
68.072563
 40
5.000000
 41
0.612766
  1
カタログ Vol. 1  P44
 50
0.000000
 51
0.000000
  7
SX_FONT
 72
     5
 11
103.977882
 21
68.072563
  0
ENDSEC
  0
EOF
