  0
SECTION
  2
HEADER
  9
$ACADVER
  1
AC1006
  9
$INSBASE
 10
70.910734
 20
157.446187
 30
0.0
  9
$EXTMIN
 10
70.910734
 20
157.446187
  9
$EXTMAX
 10
280.910734
 20
454.446187
  9
$LIMMIN
 10
70.910734
 20
157.446187
  9
$LIMMAX
 10
280.910734
 20
454.446187
  9
$VIEWCTR
 10
175.910734
 20
305.946187
  9
$VIEWSIZE
 40
297.000000
  9
$SNAPMODE
 70
     0
  9
$SNAPUNIT
 10
1.0
 20
1.0
  9
$SNAPBASE
 10
0.0
 20
0.0
  9
$SNAPANG
 50
0.0
  9
$SNAPSTYLE
 70
     0
  9
$SNAPISOPAIR
 70
     0
  9
$GRIDMODE
 70
     0
  9
$GRIDUNIT
 10
0.0
 20
0.0
  9
$ORTHOMODE
 70
     0
  9
$REGENMODE
 70
     1
  9
$FILLMODE
 70
     1
  9
$QTEXTMODE
 70
     0
  9
$DRAGMODE
 70
     2
  9
$LTSCALE
 40
15.000000
  9
$OSMODE
 70
     0
  9
$ATTMODE
 70
     1
  9
$TEXTSIZE
 40
0.2
  9
$TRACEWID
 40
0.05
  9
$TEXTSTYLE
  7
STANDARD
  9
$CLAYER
  8
CSLAYER3
  9
$CELTYPE
  6
BYLAYER
  9
$CECOLOR
 62
   256
  9
$DIMSCALE
 40
1.0
  9
$DIMASZ
 40
0.18
  9
$DIMEXO
 40
0.0625
  9
$DIMDLI
 40
0.38
  9
$DIMRND
 40
0.0
  9
$DIMDLE
 40
0.0
  9
$DIMEXE
 40
0.18
  9
$DIMTP
 40
0.0
  9
$DIMTM
 40
0.0
  9
$DIMTXT
 40
0.18
  9
$DIMCEN
 40
0.09
  9
$DIMTSZ
 40
0.0
  9
$DIMTOL
 70
     0
  9
$DIMLIM
 70
     0
  9
$DIMTIH
 70
     1
  9
$DIMTOH
 70
     1
  9
$DIMSE1
 70
     0
  9
$DIMSE2
 70
     0
  9
$DIMTAD
 70
     0
  9
$DIMZIN
 70
     0
  9
$DIMBLK
  1

  9
$LUNITS
 70
     2
  9
$LUPREC
 70
     4
  9
$AXISMODE
 70
     0
  9
$AXISUNIT
 10
0.0
 20
0.0
  9
$SKETCHINC
 40
0.1
  9
$FILLETRAD
 40
0.0
  9
$AUNITS
 70
     0
  9
$AUPREC
 70
     0
  9
$MENU
  1
ACAD
  9
$ELEVATION
 40
0.0
  9
$THICKNESS
 40
0.0
  9
$VIEWDIR
 10
0.0
 20
0.0
 30
1.0
  9
$LIMCHECK
 70
     0
  9
$BLIPMODE
 70
     1
  9
$CHAMFERA
 40
0.0
  9
$CHAMFERB
 40
0.0
  9
$FASTZOOM
 70
     1
  9
$SKPOLY
 70
     0
  9
$TDCREATE
 40
0.000000
  9
$TDUPDATE
 40
0.000000
  9
$TDINDWG
 40
0.0
  9
$TDUSRTIMER
 40
0.0
  9
$USRTIMER
 70
     1
  9
$ANGBASE
 50
0.0
  9
$ANGDIR
 70
     0
  9
$PDMODE
 70
     0
  9
$PDSIZE
 40
0.0
  9
$PLINEWID
 40
0.0
  9
$COORDS
 70
     0
  9
$USERI1
 70
     0
  9
$USERI2
 70
     0
  9
$USERI3
 70
     0
  9
$USERI4
 70
     0
  9
$USERI5
 70
     0
  9
$USERR1
 40
0.0
  9
$USERR2
 40
0.0
  9
$USERR3
 40
0.0
  9
$USERR4
 40
0.0
  9
$USERR5
 40
0.0
  0
ENDSEC
  0
SECTION
  2
TABLES
  0
TABLE
  2
LTYPE
 70
     9
  0
LTYPE
  2
CONTINUOUS
 70
    64
  3
Solid line
 72
    65
 73
     0
 40
0.0
  0
LTYPE
  2
DASHED
 70
    64
  3
__ __ __ __ __ __ __ __ __ __ __ __ __ __ __
 72
    65
 73
     2
 40
0.75
 49
0.5
 49
-0.25
  0
LTYPE
  2
HIDDEN
 70
    64
  3
_ _ _ _ _ _ _ _ _ _ _ _ _ _ _ _ _ _ _ _ _ _ _
 72
    65
 73
     2
 40
0.375
 49
0.25
 49
-0.125
  0
LTYPE
  2
DOT
 70
    64
  3
...............................................
 72
    65
 73
     2
 40
0.25
 49
0.0
 49
-0.25
  0
LTYPE
  2
DASHDOT
 70
    64
  3
__ . __ . __ . __ . __ . __ . __ . __ . __ . __
 72
    65
 73
     4
 40
1.0
 49
0.5
 49
-0.25
 49
0.0
 49
-0.25
  0
LTYPE
  2
DIVIDE
 70
    64
  3
__ . . __ . . __ . . __ . . __ . . __ . . __
 72
    65
 73
     6
 40
1.25
 49
0.5
 49
-0.25
 49
0.0
 49
-0.25
 49
0.0
 49
-0.25
  0
LTYPE
  2
CENTER
 70
    64
  3
____ _ ____ _ ____ _ ____ _ ____ _ ____ _ ____ 
 72
    65
 73
     4
 40
2.0
 49
1.25
 49
-0.25
 49
0.25
 49
-0.25
  0
LTYPE
  2
PHANTOM
 70
    64
  3
______  __  __  ______  __  __  ______  __  __ 
 72
    65
 73
     6
 40
2.5
 49
1.25
 49
-0.25
 49
0.25
 49
-0.25
 49
0.25
 49
-0.25
  0
LTYPE
  2
BORDER
 70
    64
  3
__ __ . __ __ . __ __ . __ __ . __ __ . __ __ .
 72
    65
 73
     6
 40
1.75
 49
0.5
 49
-0.25
 49
0.5
 49
-0.25
 49
0.0
 49
-0.25
  0
ENDTAB
  0
TABLE
  2
LAYER
 70
    16
  0
LAYER
  2
CSLAYER1
 70
    64
 62
     7
  6
CONTINUOUS
  0
LAYER
  2
CSLAYER2
 70
    64
 62
     7
  6
CONTINUOUS
  0
LAYER
  2
CSLAYER3
 70
    64
 62
     7
  6
CONTINUOUS
  0
LAYER
  2
CSLAYER4
 70
    64
 62
     7
  6
CONTINUOUS
  0
LAYER
  2
CSLAYER5
 70
    64
 62
     7
  6
CONTINUOUS
  0
LAYER
  2
CSLAYER6
 70
    64
 62
     7
  6
CONTINUOUS
  0
LAYER
  2
CSLAYER7
 70
    64
 62
     7
  6
CONTINUOUS
  0
LAYER
  2
CSLAYER8
 70
    64
 62
     7
  6
CONTINUOUS
  0
LAYER
  2
CSLAYER9
 70
    64
 62
     7
  6
CONTINUOUS
  0
LAYER
  2
CSLAYER10
 70
    64
 62
     7
  6
CONTINUOUS
  0
LAYER
  2
CSLAYER11
 70
    64
 62
     7
  6
CONTINUOUS
  0
LAYER
  2
CSLAYER12
 70
    64
 62
     7
  6
CONTINUOUS
  0
LAYER
  2
CSLAYER13
 70
    64
 62
     7
  6
CONTINUOUS
  0
LAYER
  2
CSLAYER14
 70
    64
 62
     7
  6
CONTINUOUS
  0
LAYER
  2
CSLAYER15
 70
    64
 62
     7
  6
CONTINUOUS
  0
LAYER
  2
CSLAYER16
 70
    64
 62
     7
  6
CONTINUOUS
  0
ENDTAB
  0
TABLE
  2
STYLE
 70
     1
  0
STYLE
  2
SX_FONT
 70
     0
 40
1.0
 41
1.0
 50
0.0
 71
     0
 42
1.0
  3
monotxt
  4
bigfont
  0
ENDTAB
  0
TABLE
  2
VIEW
 70
     0
  0
ENDTAB
  0
ENDSEC
  0
SECTION
  2
BLOCKS
  0
BLOCK
  8
CSLAYER1
  2
*D0000
 70
    65
 10
0.0
 20
0.0
 30
0.0
  0
LINE
  8
CSLAYER1
  6
CONTINUOUS
 62
     7
 10
137.078827
 20
157.202212
 11
142.183960
 21
157.202212
  0
LINE
  8
CSLAYER1
  6
CONTINUOUS
 62
     7
 10
137.078827
 20
172.202212
 11
142.183960
 21
172.202212
  0
LINE
  8
CSLAYER1
  6
CONTINUOUS
 62
     7
 10
141.183960
 20
157.202212
 11
141.183960
 21
172.202212
  0
LINE
  8
CSLAYER1
  6
CONTINUOUS
 62
     7
 10
141.183960
 20
157.202212
 11
140.148684
 21
161.065915
  0
LINE
  8
CSLAYER1
  6
CONTINUOUS
 62
     7
 10
141.183960
 20
157.202212
 11
142.219236
 21
161.065915
  0
LINE
  8
CSLAYER1
  6
CONTINUOUS
 62
     7
 10
141.183960
 20
172.202212
 11
140.148684
 21
168.338509
  0
LINE
  8
CSLAYER1
  6
CONTINUOUS
 62
     7
 10
141.183960
 20
172.202212
 11
142.219236
 21
168.338509
  0
TEXT
  8
CSLAYER1
 62
     7
 10
146.736496
 20
161.773499
 40
4.000000
 41
0.900000
  1
15
 50
90.000000
 51
0.000000
  7
SX_FONT
 72
     5
 11
146.736496
 21
167.773499
  0
ENDBLK
  8
0
  0
BLOCK
  8
CSLAYER1
  2
*D0001
 70
    65
 10
0.0
 20
0.0
 30
0.0
  0
LINE
  8
CSLAYER1
  6
CONTINUOUS
 62
     7
 10
71.078827
 20
178.202212
 11
71.078827
 21
183.071801
  0
LINE
  8
CSLAYER1
  6
CONTINUOUS
 62
     7
 10
131.078827
 20
178.202212
 11
131.078827
 21
183.071801
  0
LINE
  8
CSLAYER1
  6
CONTINUOUS
 62
     7
 10
71.078827
 20
182.071801
 11
131.078827
 21
182.071801
  0
LINE
  8
CSLAYER1
  6
CONTINUOUS
 62
     7
 10
71.078827
 20
182.071801
 11
74.942530
 21
183.107077
  0
LINE
  8
CSLAYER1
  6
CONTINUOUS
 62
     7
 10
71.078827
 20
182.071801
 11
74.942530
 21
181.036525
  0
LINE
  8
CSLAYER1
  6
CONTINUOUS
 62
     7
 10
131.078827
 20
182.071801
 11
127.215123
 21
183.107077
  0
LINE
  8
CSLAYER1
  6
CONTINUOUS
 62
     7
 10
131.078827
 20
182.071801
 11
127.215123
 21
181.036525
  0
TEXT
  8
CSLAYER1
 62
     7
 10
98.078827
 20
183.071808
 40
4.000000
 41
0.900000
  1
60
 50
0.000000
 51
0.000000
  7
SX_FONT
 72
     5
 11
104.078827
 21
183.071808
  0
ENDBLK
  8
0
  0
BLOCK
  8
CSLAYER2
  2
BLKF0000
 70
   64
 10
0.0
 20
0.0
 30
0.0
  0
LINE
  8
CSLAYER2
  6
CONTINUOUS
 62
     7
 10
77.412974
 20
166.957906
 11
77.412974
 21
168.202212
  0
ENDBLK
  8
0
  0
BLOCK
  8
CSLAYER2
  2
BLKF0001
 70
   64
 10
0.0
 20
0.0
 30
0.0
  0
LINE
  8
CSLAYER2
  6
CONTINUOUS
 62
     7
 10
124.744679
 20
166.957906
 11
124.744679
 21
168.202212
  0
ENDBLK
  8
0
  0
ENDSEC
  0
SECTION
  2
ENTITIES
  0
ARC
  8
CSLAYER2
  6
CONTINUOUS
 62
     7
 10
101.078827
 20
142.202212
 40
30.000000
 50
90.000000
 51
113.019708
  0
LINE
  8
CSLAYER2
  6
CONTINUOUS
 62
     7
 10
131.078827
 20
157.202212
 11
71.078827
 21
157.202212
  0
LINE
  8
CSLAYER2
  6
CONTINUOUS
 62
     7
 10
71.078827
 20
162.623759
 11
73.078827
 21
162.623759
  0
LINE
  8
CSLAYER2
  6
CONTINUOUS
 62
     7
 10
71.078827
 20
157.202212
 11
71.078827
 21
162.623759
  0
ARC
  8
CSLAYER2
  6
CONTINUOUS
 62
     7
 10
85.040042
 20
167.126962
 40
5.076399
 50
31.950506
 51
167.771352
  0
INSERT
  8
CSLAYER2
  2
BLKF0000
 10
0.0
 20
0.0
 30
0.0
  0
ARC
  8
CSLAYER2
  6
CONTINUOUS
 62
     7
 10
77.412974
 20
162.623759
 40
4.334147
 50
90.000000
 51
180.000000
  0
LINE
  8
CSLAYER2
  6
CONTINUOUS
 62
     7
 10
80.078827
 20
168.202212
 11
77.412974
 21
168.202212
  0
ARC
  8
CSLAYER2
  6
CONTINUOUS
 62
     7
 10
117.117611
 20
167.126962
 40
5.076399
 50
12.228648
 51
148.049494
  0
ARC
  8
CSLAYER2
  6
CONTINUOUS
 62
     7
 10
101.078827
 20
142.202212
 40
30.000000
 50
66.980292
 51
90.000000
  0
LINE
  8
CSLAYER2
  6
CONTINUOUS
 62
     7
 10
122.078827
 20
168.202212
 11
124.744679
 21
168.202212
  0
ARC
  8
CSLAYER2
  6
CONTINUOUS
 62
     7
 10
124.744679
 20
162.623759
 40
4.334147
 50
0.000000
 51
90.000000
  0
INSERT
  8
CSLAYER2
  2
BLKF0001
 10
0.0
 20
0.0
 30
0.0
  0
LINE
  8
CSLAYER2
  6
CONTINUOUS
 62
     7
 10
131.078827
 20
162.623759
 11
129.078827
 21
162.623759
  0
LINE
  8
CSLAYER2
  6
CONTINUOUS
 62
     7
 10
122.078827
 20
168.202212
 11
124.744679
 21
168.202212
  0
LINE
  8
CSLAYER2
  6
CONTINUOUS
 62
     7
 10
131.078827
 20
157.202212
 11
131.078827
 21
162.623759
  0
TEXT
  8
CSLAYER1
 62
     7
 10
71.041687
 20
99.140877
 40
8.000000
 41
0.787500
  1
FM-2021
 50
0.000000
 51
0.000000
  7
SX_FONT
 72
     5
 11
113.041687
 21
99.140877
  0
DIMENSION
  8
CSLAYER1
 62
     7
  2
*D0000
 10
141.183960
 20
172.202212
 11
146.736496
 21
164.773499
 13
136.078827
 23
157.202212
 14
136.078827
 24
172.202212
 50
90.000000
 70
1
  0
DIMENSION
  8
CSLAYER1
 62
     7
  2
*D0001
 10
131.078827
 20
182.071801
 11
101.078827
 21
183.071808
 13
71.078827
 23
177.202212
 14
131.078827
 24
177.202212
 70
1
  0
TEXT
  8
CSLAYER1
 62
     7
 10
127.895752
 20
98.525230
 40
8.000000
 41
0.803571
  1
60x15
 50
0.000000
 51
0.000000
  7
SX_FONT
 72
     5
 11
157.895752
 21
98.525230
  0
TEXT
  8
CSLAYER1
 62
     7
 10
71.200888
 20
78.508582
 40
4.960742
 41
0.729057
  1
ホ%%dケットカタロク゛ Vol. 1 P17
 50
0.000000
 51
0.000000
  7
SX_FONT
 72
     5
 11
145.945246
 21
78.508582
  0
TEXT
  8
CSLAYER1
 62
     7
 10
71.461975
 20
87.229683
 40
5.000000
 41
0.612766
  1
カタログ Vol. 1  P44
 50
0.000000
 51
0.000000
  7
SX_FONT
 72
     5
 11
119.461975
 21
87.229683
  0
ENDSEC
  0
EOF
