  0
SECTION
  2
HEADER
  9
$ACADVER
  1
AC1006
  9
$INSBASE
 10
76.096147
 20
153.465450
 30
0.0
  9
$EXTMIN
 10
76.096147
 20
153.465450
  9
$EXTMAX
 10
286.096147
 20
450.465450
  9
$LIMMIN
 10
76.096147
 20
153.465450
  9
$LIMMAX
 10
286.096147
 20
450.465450
  9
$VIEWCTR
 10
181.096147
 20
301.965450
  9
$VIEWSIZE
 40
297.000000
  9
$SNAPMODE
 70
     0
  9
$SNAPUNIT
 10
1.0
 20
1.0
  9
$SNAPBASE
 10
0.0
 20
0.0
  9
$SNAPANG
 50
0.0
  9
$SNAPSTYLE
 70
     0
  9
$SNAPISOPAIR
 70
     0
  9
$GRIDMODE
 70
     0
  9
$GRIDUNIT
 10
0.0
 20
0.0
  9
$ORTHOMODE
 70
     0
  9
$REGENMODE
 70
     1
  9
$FILLMODE
 70
     1
  9
$QTEXTMODE
 70
     0
  9
$DRAGMODE
 70
     2
  9
$LTSCALE
 40
15.000000
  9
$OSMODE
 70
     0
  9
$ATTMODE
 70
     1
  9
$TEXTSIZE
 40
0.2
  9
$TRACEWID
 40
0.05
  9
$TEXTSTYLE
  7
STANDARD
  9
$CLAYER
  8
CSLAYER3
  9
$CELTYPE
  6
BYLAYER
  9
$CECOLOR
 62
   256
  9
$DIMSCALE
 40
1.0
  9
$DIMASZ
 40
0.18
  9
$DIMEXO
 40
0.0625
  9
$DIMDLI
 40
0.38
  9
$DIMRND
 40
0.0
  9
$DIMDLE
 40
0.0
  9
$DIMEXE
 40
0.18
  9
$DIMTP
 40
0.0
  9
$DIMTM
 40
0.0
  9
$DIMTXT
 40
0.18
  9
$DIMCEN
 40
0.09
  9
$DIMTSZ
 40
0.0
  9
$DIMTOL
 70
     0
  9
$DIMLIM
 70
     0
  9
$DIMTIH
 70
     1
  9
$DIMTOH
 70
     1
  9
$DIMSE1
 70
     0
  9
$DIMSE2
 70
     0
  9
$DIMTAD
 70
     0
  9
$DIMZIN
 70
     0
  9
$DIMBLK
  1

  9
$LUNITS
 70
     2
  9
$LUPREC
 70
     4
  9
$AXISMODE
 70
     0
  9
$AXISUNIT
 10
0.0
 20
0.0
  9
$SKETCHINC
 40
0.1
  9
$FILLETRAD
 40
0.0
  9
$AUNITS
 70
     0
  9
$AUPREC
 70
     0
  9
$MENU
  1
ACAD
  9
$ELEVATION
 40
0.0
  9
$THICKNESS
 40
0.0
  9
$VIEWDIR
 10
0.0
 20
0.0
 30
1.0
  9
$LIMCHECK
 70
     0
  9
$BLIPMODE
 70
     1
  9
$CHAMFERA
 40
0.0
  9
$CHAMFERB
 40
0.0
  9
$FASTZOOM
 70
     1
  9
$SKPOLY
 70
     0
  9
$TDCREATE
 40
0.000000
  9
$TDUPDATE
 40
0.000000
  9
$TDINDWG
 40
0.0
  9
$TDUSRTIMER
 40
0.0
  9
$USRTIMER
 70
     1
  9
$ANGBASE
 50
0.0
  9
$ANGDIR
 70
     0
  9
$PDMODE
 70
     0
  9
$PDSIZE
 40
0.0
  9
$PLINEWID
 40
0.0
  9
$COORDS
 70
     0
  9
$USERI1
 70
     0
  9
$USERI2
 70
     0
  9
$USERI3
 70
     0
  9
$USERI4
 70
     0
  9
$USERI5
 70
     0
  9
$USERR1
 40
0.0
  9
$USERR2
 40
0.0
  9
$USERR3
 40
0.0
  9
$USERR4
 40
0.0
  9
$USERR5
 40
0.0
  0
ENDSEC
  0
SECTION
  2
TABLES
  0
TABLE
  2
LTYPE
 70
     9
  0
LTYPE
  2
CONTINUOUS
 70
    64
  3
Solid line
 72
    65
 73
     0
 40
0.0
  0
LTYPE
  2
DASHED
 70
    64
  3
__ __ __ __ __ __ __ __ __ __ __ __ __ __ __
 72
    65
 73
     2
 40
0.75
 49
0.5
 49
-0.25
  0
LTYPE
  2
HIDDEN
 70
    64
  3
_ _ _ _ _ _ _ _ _ _ _ _ _ _ _ _ _ _ _ _ _ _ _
 72
    65
 73
     2
 40
0.375
 49
0.25
 49
-0.125
  0
LTYPE
  2
DOT
 70
    64
  3
...............................................
 72
    65
 73
     2
 40
0.25
 49
0.0
 49
-0.25
  0
LTYPE
  2
DASHDOT
 70
    64
  3
__ . __ . __ . __ . __ . __ . __ . __ . __ . __
 72
    65
 73
     4
 40
1.0
 49
0.5
 49
-0.25
 49
0.0
 49
-0.25
  0
LTYPE
  2
DIVIDE
 70
    64
  3
__ . . __ . . __ . . __ . . __ . . __ . . __
 72
    65
 73
     6
 40
1.25
 49
0.5
 49
-0.25
 49
0.0
 49
-0.25
 49
0.0
 49
-0.25
  0
LTYPE
  2
CENTER
 70
    64
  3
____ _ ____ _ ____ _ ____ _ ____ _ ____ _ ____ 
 72
    65
 73
     4
 40
2.0
 49
1.25
 49
-0.25
 49
0.25
 49
-0.25
  0
LTYPE
  2
PHANTOM
 70
    64
  3
______  __  __  ______  __  __  ______  __  __ 
 72
    65
 73
     6
 40
2.5
 49
1.25
 49
-0.25
 49
0.25
 49
-0.25
 49
0.25
 49
-0.25
  0
LTYPE
  2
BORDER
 70
    64
  3
__ __ . __ __ . __ __ . __ __ . __ __ . __ __ .
 72
    65
 73
     6
 40
1.75
 49
0.5
 49
-0.25
 49
0.5
 49
-0.25
 49
0.0
 49
-0.25
  0
ENDTAB
  0
TABLE
  2
LAYER
 70
    16
  0
LAYER
  2
CSLAYER1
 70
    64
 62
     7
  6
CONTINUOUS
  0
LAYER
  2
CSLAYER2
 70
    64
 62
     7
  6
CONTINUOUS
  0
LAYER
  2
CSLAYER3
 70
    64
 62
     7
  6
CONTINUOUS
  0
LAYER
  2
CSLAYER4
 70
    64
 62
     7
  6
CONTINUOUS
  0
LAYER
  2
CSLAYER5
 70
    64
 62
     7
  6
CONTINUOUS
  0
LAYER
  2
CSLAYER6
 70
    64
 62
     7
  6
CONTINUOUS
  0
LAYER
  2
CSLAYER7
 70
    64
 62
     7
  6
CONTINUOUS
  0
LAYER
  2
CSLAYER8
 70
    64
 62
     7
  6
CONTINUOUS
  0
LAYER
  2
CSLAYER9
 70
    64
 62
     7
  6
CONTINUOUS
  0
LAYER
  2
CSLAYER10
 70
    64
 62
     7
  6
CONTINUOUS
  0
LAYER
  2
CSLAYER11
 70
    64
 62
     7
  6
CONTINUOUS
  0
LAYER
  2
CSLAYER12
 70
    64
 62
     7
  6
CONTINUOUS
  0
LAYER
  2
CSLAYER13
 70
    64
 62
     7
  6
CONTINUOUS
  0
LAYER
  2
CSLAYER14
 70
    64
 62
     7
  6
CONTINUOUS
  0
LAYER
  2
CSLAYER15
 70
    64
 62
     7
  6
CONTINUOUS
  0
LAYER
  2
CSLAYER16
 70
    64
 62
     7
  6
CONTINUOUS
  0
ENDTAB
  0
TABLE
  2
STYLE
 70
     1
  0
STYLE
  2
SX_FONT
 70
     0
 40
1.0
 41
1.0
 50
0.0
 71
     0
 42
1.0
  3
monotxt
  4
bigfont
  0
ENDTAB
  0
TABLE
  2
VIEW
 70
     0
  0
ENDTAB
  0
ENDSEC
  0
SECTION
  2
BLOCKS
  0
BLOCK
  8
CSLAYER1
  2
*D0000
 70
    65
 10
0.0
 20
0.0
 30
0.0
  0
LINE
  8
CSLAYER1
  6
CONTINUOUS
 62
     7
 10
76.172577
 20
171.077213
 11
76.172577
 21
176.124675
  0
LINE
  8
CSLAYER1
  6
CONTINUOUS
 62
     7
 10
136.172577
 20
171.077213
 11
136.172577
 21
176.124675
  0
LINE
  8
CSLAYER1
  6
CONTINUOUS
 62
     7
 10
76.172577
 20
175.124675
 11
136.172577
 21
175.124675
  0
LINE
  8
CSLAYER1
  6
CONTINUOUS
 62
     7
 10
76.172577
 20
175.124675
 11
80.036280
 21
176.159952
  0
LINE
  8
CSLAYER1
  6
CONTINUOUS
 62
     7
 10
76.172577
 20
175.124675
 11
80.036280
 21
174.089399
  0
LINE
  8
CSLAYER1
  6
CONTINUOUS
 62
     7
 10
136.172577
 20
175.124675
 11
132.308873
 21
176.159952
  0
LINE
  8
CSLAYER1
  6
CONTINUOUS
 62
     7
 10
136.172577
 20
175.124675
 11
132.308873
 21
174.089399
  0
TEXT
  8
CSLAYER1
 62
     7
 10
103.172577
 20
176.124680
 40
4.000000
 41
0.900000
  1
60
 50
0.000000
 51
0.000000
  7
SX_FONT
 72
     5
 11
109.172577
 21
176.124680
  0
ENDBLK
  8
0
  0
BLOCK
  8
CSLAYER1
  2
*D0001
 70
    65
 10
0.0
 20
0.0
 30
0.0
  0
LINE
  8
CSLAYER1
  6
CONTINUOUS
 62
     7
 10
142.172577
 20
153.077212
 11
147.588156
 21
153.077212
  0
LINE
  8
CSLAYER1
  6
CONTINUOUS
 62
     7
 10
142.172577
 20
165.077213
 11
147.588156
 21
165.077213
  0
LINE
  8
CSLAYER1
  6
CONTINUOUS
 62
     7
 10
146.588156
 20
153.077212
 11
146.588156
 21
165.077213
  0
LINE
  8
CSLAYER1
  6
CONTINUOUS
 62
     7
 10
146.588156
 20
147.077212
 11
146.588156
 21
153.077212
  0
LINE
  8
CSLAYER1
  6
CONTINUOUS
 62
     7
 10
146.588156
 20
153.077212
 11
145.552880
 21
149.213509
  0
LINE
  8
CSLAYER1
  6
CONTINUOUS
 62
     7
 10
146.588156
 20
153.077212
 11
147.623432
 21
149.213509
  0
LINE
  8
CSLAYER1
  6
CONTINUOUS
 62
     7
 10
146.588156
 20
165.077213
 11
146.588156
 21
171.077213
  0
LINE
  8
CSLAYER1
  6
CONTINUOUS
 62
     7
 10
146.588156
 20
165.077213
 11
145.552880
 21
168.940916
  0
LINE
  8
CSLAYER1
  6
CONTINUOUS
 62
     7
 10
146.588156
 20
165.077213
 11
147.623432
 21
168.940916
  0
TEXT
  8
CSLAYER1
 62
     7
 10
151.588150
 20
156.077209
 40
4.000000
 41
0.900000
  1
12
 50
90.000000
 51
0.000000
  7
SX_FONT
 72
     5
 11
151.588150
 21
162.077209
  0
ENDBLK
  8
0
  0
ENDSEC
  0
SECTION
  2
ENTITIES
  0
LINE
  8
CSLAYER2
  6
CONTINUOUS
 62
     7
 10
76.172577
 20
153.077212
 11
136.172577
 21
153.077212
  0
LINE
  8
CSLAYER2
  6
CONTINUOUS
 62
     7
 10
129.172577
 20
161.077212
 11
127.172577
 21
161.077212
  0
LINE
  8
CSLAYER2
  6
CONTINUOUS
 62
     7
 10
127.172577
 20
161.077212
 11
129.172577
 21
161.077212
  0
ARC
  8
CSLAYER2
  6
CONTINUOUS
 62
     7
 10
132.172577
 20
161.077212
 40
3.000000
 50
180.000000
 51
270.000000
  0
ARC
  8
CSLAYER2
  6
CONTINUOUS
 62
     7
 10
89.172577
 20
161.077212
 40
4.000000
 50
47.982743
 51
180.000000
  0
ARC
  8
CSLAYER2
  6
CONTINUOUS
 62
     7
 10
80.172577
 20
154.077212
 40
4.000000
 50
90.000000
 51
180.000000
  0
LINE
  8
CSLAYER2
  6
CONTINUOUS
 62
     7
 10
76.172577
 20
153.077212
 11
76.172577
 21
154.077212
  0
LINE
  8
CSLAYER2
  6
CONTINUOUS
 62
     7
 10
85.172577
 20
161.077212
 11
83.172577
 21
161.077212
  0
ARC
  8
CSLAYER2
  6
CONTINUOUS
 62
     7
 10
80.172577
 20
161.077212
 40
3.000000
 50
270.000000
 51
360.000000
  0
ARC
  8
CSLAYER2
  6
CONTINUOUS
 62
     7
 10
106.172577
 20
135.077212
 40
30.000000
 50
69.970443
 51
110.029557
  0
ARC
  8
CSLAYER2
  6
CONTINUOUS
 62
     7
 10
94.527412
 20
167.020758
 40
4.000000
 50
227.982743
 51
290.029557
  0
ARC
  8
CSLAYER2
  6
CONTINUOUS
 62
     7
 10
123.172577
 20
161.077212
 40
4.000000
 50
0.000000
 51
132.017257
  0
ARC
  8
CSLAYER2
  6
CONTINUOUS
 62
     7
 10
117.817742
 20
167.020758
 40
4.000000
 50
249.970443
 51
312.017257
  0
ARC
  8
CSLAYER2
  6
CONTINUOUS
 62
     7
 10
132.172577
 20
154.077212
 40
4.000000
 50
0.000000
 51
90.000000
  0
LINE
  8
CSLAYER2
  6
CONTINUOUS
 62
     7
 10
136.172577
 20
153.077212
 11
136.172577
 21
154.077212
  0
LINE
  8
CSLAYER2
  6
CONTINUOUS
 62
     7
 10
136.172577
 20
154.077212
 11
136.172577
 21
153.077212
  0
TEXT
  8
CSLAYER1
 62
     7
 10
75.930611
 20
94.495605
 40
8.000000
 41
0.787500
  1
FM-2020
 50
0.000000
 51
0.000000
  7
SX_FONT
 72
     5
 11
117.930611
 21
94.495605
  0
DIMENSION
  8
CSLAYER1
 62
     7
  2
*D0000
 10
136.172577
 20
175.124675
 11
106.172577
 21
176.124680
 13
76.172577
 23
170.077213
 14
136.172577
 24
170.077213
 70
1
  0
DIMENSION
  8
CSLAYER1
 62
     7
  2
*D0001
 10
146.588156
 20
165.077213
 11
147.588150
 21
159.077209
 13
141.172577
 23
153.077212
 14
141.172577
 24
165.077213
 50
90.000000
 70
1
  0
TEXT
  8
CSLAYER1
 62
     7
 10
132.871735
 20
94.284599
 40
8.000000
 41
0.803571
  1
60x12
 50
0.000000
 51
0.000000
  7
SX_FONT
 72
     5
 11
162.871735
 21
94.284599
  0
TEXT
  8
CSLAYER1
 62
     7
 10
74.935744
 20
74.405631
 40
4.960742
 41
0.729057
  1
ホ%%dケットカタロク゛ Vol. 1 P17
 50
0.000000
 51
0.000000
  7
SX_FONT
 72
     5
 11
149.680101
 21
74.405631
  0
TEXT
  8
CSLAYER1
 62
     7
 10
75.234276
 20
83.269371
 40
5.000000
 41
0.612766
  1
カタログ Vol. 1  P44
 50
0.000000
 51
0.000000
  7
SX_FONT
 72
     5
 11
123.234276
 21
83.269371
  0
ENDSEC
  0
EOF
