  0
SECTION
  2
HEADER
  9
$ACADVER
  1
AC1006
  9
$INSBASE
 10
72.172185
 20
161.891979
 30
0.0
  9
$EXTMIN
 10
72.172185
 20
161.891979
  9
$EXTMAX
 10
282.172185
 20
458.891979
  9
$LIMMIN
 10
72.172185
 20
161.891979
  9
$LIMMAX
 10
282.172185
 20
458.891979
  9
$VIEWCTR
 10
177.172185
 20
310.391979
  9
$VIEWSIZE
 40
297.000000
  9
$SNAPMODE
 70
     0
  9
$SNAPUNIT
 10
1.0
 20
1.0
  9
$SNAPBASE
 10
0.0
 20
0.0
  9
$SNAPANG
 50
0.0
  9
$SNAPSTYLE
 70
     0
  9
$SNAPISOPAIR
 70
     0
  9
$GRIDMODE
 70
     0
  9
$GRIDUNIT
 10
0.0
 20
0.0
  9
$ORTHOMODE
 70
     0
  9
$REGENMODE
 70
     1
  9
$FILLMODE
 70
     1
  9
$QTEXTMODE
 70
     0
  9
$DRAGMODE
 70
     2
  9
$LTSCALE
 40
15.000000
  9
$OSMODE
 70
     0
  9
$ATTMODE
 70
     1
  9
$TEXTSIZE
 40
0.2
  9
$TRACEWID
 40
0.05
  9
$TEXTSTYLE
  7
STANDARD
  9
$CLAYER
  8
CSLAYER3
  9
$CELTYPE
  6
BYLAYER
  9
$CECOLOR
 62
   256
  9
$DIMSCALE
 40
1.0
  9
$DIMASZ
 40
0.18
  9
$DIMEXO
 40
0.0625
  9
$DIMDLI
 40
0.38
  9
$DIMRND
 40
0.0
  9
$DIMDLE
 40
0.0
  9
$DIMEXE
 40
0.18
  9
$DIMTP
 40
0.0
  9
$DIMTM
 40
0.0
  9
$DIMTXT
 40
0.18
  9
$DIMCEN
 40
0.09
  9
$DIMTSZ
 40
0.0
  9
$DIMTOL
 70
     0
  9
$DIMLIM
 70
     0
  9
$DIMTIH
 70
     1
  9
$DIMTOH
 70
     1
  9
$DIMSE1
 70
     0
  9
$DIMSE2
 70
     0
  9
$DIMTAD
 70
     0
  9
$DIMZIN
 70
     0
  9
$DIMBLK
  1

  9
$LUNITS
 70
     2
  9
$LUPREC
 70
     4
  9
$AXISMODE
 70
     0
  9
$AXISUNIT
 10
0.0
 20
0.0
  9
$SKETCHINC
 40
0.1
  9
$FILLETRAD
 40
0.0
  9
$AUNITS
 70
     0
  9
$AUPREC
 70
     0
  9
$MENU
  1
ACAD
  9
$ELEVATION
 40
0.0
  9
$THICKNESS
 40
0.0
  9
$VIEWDIR
 10
0.0
 20
0.0
 30
1.0
  9
$LIMCHECK
 70
     0
  9
$BLIPMODE
 70
     1
  9
$CHAMFERA
 40
0.0
  9
$CHAMFERB
 40
0.0
  9
$FASTZOOM
 70
     1
  9
$SKPOLY
 70
     0
  9
$TDCREATE
 40
0.000000
  9
$TDUPDATE
 40
0.000000
  9
$TDINDWG
 40
0.0
  9
$TDUSRTIMER
 40
0.0
  9
$USRTIMER
 70
     1
  9
$ANGBASE
 50
0.0
  9
$ANGDIR
 70
     0
  9
$PDMODE
 70
     0
  9
$PDSIZE
 40
0.0
  9
$PLINEWID
 40
0.0
  9
$COORDS
 70
     0
  9
$USERI1
 70
     0
  9
$USERI2
 70
     0
  9
$USERI3
 70
     0
  9
$USERI4
 70
     0
  9
$USERI5
 70
     0
  9
$USERR1
 40
0.0
  9
$USERR2
 40
0.0
  9
$USERR3
 40
0.0
  9
$USERR4
 40
0.0
  9
$USERR5
 40
0.0
  0
ENDSEC
  0
SECTION
  2
TABLES
  0
TABLE
  2
LTYPE
 70
     9
  0
LTYPE
  2
CONTINUOUS
 70
    64
  3
Solid line
 72
    65
 73
     0
 40
0.0
  0
LTYPE
  2
DASHED
 70
    64
  3
__ __ __ __ __ __ __ __ __ __ __ __ __ __ __
 72
    65
 73
     2
 40
0.75
 49
0.5
 49
-0.25
  0
LTYPE
  2
HIDDEN
 70
    64
  3
_ _ _ _ _ _ _ _ _ _ _ _ _ _ _ _ _ _ _ _ _ _ _
 72
    65
 73
     2
 40
0.375
 49
0.25
 49
-0.125
  0
LTYPE
  2
DOT
 70
    64
  3
...............................................
 72
    65
 73
     2
 40
0.25
 49
0.0
 49
-0.25
  0
LTYPE
  2
DASHDOT
 70
    64
  3
__ . __ . __ . __ . __ . __ . __ . __ . __ . __
 72
    65
 73
     4
 40
1.0
 49
0.5
 49
-0.25
 49
0.0
 49
-0.25
  0
LTYPE
  2
DIVIDE
 70
    64
  3
__ . . __ . . __ . . __ . . __ . . __ . . __
 72
    65
 73
     6
 40
1.25
 49
0.5
 49
-0.25
 49
0.0
 49
-0.25
 49
0.0
 49
-0.25
  0
LTYPE
  2
CENTER
 70
    64
  3
____ _ ____ _ ____ _ ____ _ ____ _ ____ _ ____ 
 72
    65
 73
     4
 40
2.0
 49
1.25
 49
-0.25
 49
0.25
 49
-0.25
  0
LTYPE
  2
PHANTOM
 70
    64
  3
______  __  __  ______  __  __  ______  __  __ 
 72
    65
 73
     6
 40
2.5
 49
1.25
 49
-0.25
 49
0.25
 49
-0.25
 49
0.25
 49
-0.25
  0
LTYPE
  2
BORDER
 70
    64
  3
__ __ . __ __ . __ __ . __ __ . __ __ . __ __ .
 72
    65
 73
     6
 40
1.75
 49
0.5
 49
-0.25
 49
0.5
 49
-0.25
 49
0.0
 49
-0.25
  0
ENDTAB
  0
TABLE
  2
LAYER
 70
    16
  0
LAYER
  2
CSLAYER1
 70
    64
 62
     7
  6
CONTINUOUS
  0
LAYER
  2
CSLAYER2
 70
    64
 62
     7
  6
CONTINUOUS
  0
LAYER
  2
CSLAYER3
 70
    64
 62
     7
  6
CONTINUOUS
  0
LAYER
  2
CSLAYER4
 70
    64
 62
     7
  6
CONTINUOUS
  0
LAYER
  2
CSLAYER5
 70
    64
 62
     7
  6
CONTINUOUS
  0
LAYER
  2
CSLAYER6
 70
    64
 62
     7
  6
CONTINUOUS
  0
LAYER
  2
CSLAYER7
 70
    64
 62
     7
  6
CONTINUOUS
  0
LAYER
  2
CSLAYER8
 70
    64
 62
     7
  6
CONTINUOUS
  0
LAYER
  2
CSLAYER9
 70
    64
 62
     7
  6
CONTINUOUS
  0
LAYER
  2
CSLAYER10
 70
    64
 62
     7
  6
CONTINUOUS
  0
LAYER
  2
CSLAYER11
 70
    64
 62
     7
  6
CONTINUOUS
  0
LAYER
  2
CSLAYER12
 70
    64
 62
     7
  6
CONTINUOUS
  0
LAYER
  2
CSLAYER13
 70
    64
 62
     7
  6
CONTINUOUS
  0
LAYER
  2
CSLAYER14
 70
    64
 62
     7
  6
CONTINUOUS
  0
LAYER
  2
CSLAYER15
 70
    64
 62
     7
  6
CONTINUOUS
  0
LAYER
  2
CSLAYER16
 70
    64
 62
     7
  6
CONTINUOUS
  0
ENDTAB
  0
TABLE
  2
STYLE
 70
     1
  0
STYLE
  2
SX_FONT
 70
     0
 40
1.0
 41
1.0
 50
0.0
 71
     0
 42
1.0
  3
monotxt
  4
bigfont
  0
ENDTAB
  0
TABLE
  2
VIEW
 70
     0
  0
ENDTAB
  0
ENDSEC
  0
SECTION
  2
BLOCKS
  0
BLOCK
  8
CSLAYER1
  2
*D0000
 70
    65
 10
0.0
 20
0.0
 30
0.0
  0
LINE
  8
CSLAYER1
  6
CONTINUOUS
 62
     7
 10
72.563202
 20
183.233462
 11
72.563202
 21
188.235921
  0
LINE
  8
CSLAYER1
  6
CONTINUOUS
 62
     7
 10
132.563202
 20
183.233462
 11
132.563202
 21
188.235921
  0
LINE
  8
CSLAYER1
  6
CONTINUOUS
 62
     7
 10
72.563202
 20
187.235921
 11
132.563202
 21
187.235921
  0
LINE
  8
CSLAYER1
  6
CONTINUOUS
 62
     7
 10
72.563202
 20
187.235921
 11
76.426905
 21
188.271198
  0
LINE
  8
CSLAYER1
  6
CONTINUOUS
 62
     7
 10
72.563202
 20
187.235921
 11
76.426905
 21
186.200645
  0
LINE
  8
CSLAYER1
  6
CONTINUOUS
 62
     7
 10
132.563202
 20
187.235921
 11
128.699498
 21
188.271198
  0
LINE
  8
CSLAYER1
  6
CONTINUOUS
 62
     7
 10
132.563202
 20
187.235921
 11
128.699498
 21
186.200645
  0
TEXT
  8
CSLAYER1
 62
     7
 10
99.563202
 20
188.235916
 40
4.000000
 41
0.900000
  1
60
 50
0.000000
 51
0.000000
  7
SX_FONT
 72
     5
 11
105.563202
 21
188.235916
  0
ENDBLK
  8
0
  0
BLOCK
  8
CSLAYER1
  2
*D0001
 70
    65
 10
0.0
 20
0.0
 30
0.0
  0
LINE
  8
CSLAYER1
  6
CONTINUOUS
 62
     7
 10
138.563202
 20
162.233462
 11
143.574245
 21
162.233462
  0
LINE
  8
CSLAYER1
  6
CONTINUOUS
 62
     7
 10
138.563202
 20
177.233462
 11
143.574245
 21
177.233462
  0
LINE
  8
CSLAYER1
  6
CONTINUOUS
 62
     7
 10
142.574245
 20
162.233462
 11
142.574245
 21
177.233462
  0
LINE
  8
CSLAYER1
  6
CONTINUOUS
 62
     7
 10
142.574245
 20
162.233462
 11
141.538969
 21
166.097165
  0
LINE
  8
CSLAYER1
  6
CONTINUOUS
 62
     7
 10
142.574245
 20
162.233462
 11
143.609521
 21
166.097165
  0
LINE
  8
CSLAYER1
  6
CONTINUOUS
 62
     7
 10
142.574245
 20
177.233462
 11
141.538969
 21
173.369759
  0
LINE
  8
CSLAYER1
  6
CONTINUOUS
 62
     7
 10
142.574245
 20
177.233462
 11
143.609521
 21
173.369759
  0
TEXT
  8
CSLAYER1
 62
     7
 10
147.768463
 20
166.705429
 40
4.000000
 41
0.900000
  1
15
 50
90.000000
 51
0.000000
  7
SX_FONT
 72
     5
 11
147.768463
 21
172.705429
  0
ENDBLK
  8
0
  0
ENDSEC
  0
SECTION
  2
ENTITIES
  0
ARC
  8
CSLAYER2
  6
CONTINUOUS
 62
     7
 10
89.896535
 20
157.762172
 40
19.554932
 50
59.244210
 51
120.755790
  0
LINE
  8
CSLAYER2
  6
CONTINUOUS
 62
     7
 10
72.563202
 20
162.233462
 11
132.563202
 21
162.233462
  0
LINE
  8
CSLAYER2
  6
CONTINUOUS
 62
     7
 10
76.896535
 20
174.566795
 11
72.563202
 21
174.566795
  0
LINE
  8
CSLAYER2
  6
CONTINUOUS
 62
     7
 10
76.896535
 20
171.566795
 11
79.896535
 21
171.566795
  0
LINE
  8
CSLAYER2
  6
CONTINUOUS
 62
     7
 10
76.896535
 20
174.566795
 11
76.896535
 21
171.566795
  0
LINE
  8
CSLAYER2
  6
CONTINUOUS
 62
     7
 10
79.896535
 20
171.566795
 11
79.896535
 21
174.566795
  0
LINE
  8
CSLAYER2
  6
CONTINUOUS
 62
     7
 10
72.563202
 20
162.233462
 11
72.563202
 21
174.566795
  0
ARC
  8
CSLAYER2
  6
CONTINUOUS
 62
     7
 10
115.229868
 20
157.762172
 40
19.554932
 50
59.244210
 51
120.755790
  0
LINE
  8
CSLAYER2
  6
CONTINUOUS
 62
     7
 10
99.896535
 20
171.900129
 11
105.229868
 21
171.900129
  0
LINE
  8
CSLAYER2
  6
CONTINUOUS
 62
     7
 10
105.229868
 20
171.900129
 11
105.229868
 21
174.566795
  0
LINE
  8
CSLAYER2
  6
CONTINUOUS
 62
     7
 10
99.896535
 20
171.900129
 11
99.896535
 21
174.566795
  0
LINE
  8
CSLAYER2
  6
CONTINUOUS
 62
     7
 10
128.229868
 20
174.566795
 11
132.563202
 21
174.566795
  0
LINE
  8
CSLAYER2
  6
CONTINUOUS
 62
     7
 10
128.229868
 20
171.566795
 11
125.229868
 21
171.566795
  0
LINE
  8
CSLAYER2
  6
CONTINUOUS
 62
     7
 10
125.229868
 20
171.566795
 11
125.229868
 21
174.566795
  0
LINE
  8
CSLAYER2
  6
CONTINUOUS
 62
     7
 10
128.229868
 20
174.566795
 11
128.229868
 21
171.566795
  0
LINE
  8
CSLAYER2
  6
CONTINUOUS
 62
     7
 10
132.563202
 20
174.566795
 11
132.563202
 21
162.233462
  0
TEXT
  8
CSLAYER1
 62
     7
 10
72.442001
 20
103.479424
 40
8.000000
 41
0.787500
  1
FM-2018
 50
0.000000
 51
0.000000
  7
SX_FONT
 72
     5
 11
114.442001
 21
103.479424
  0
DIMENSION
  8
CSLAYER1
 62
     7
  2
*D0000
 10
132.563202
 20
187.235921
 11
102.563202
 21
188.235916
 13
72.563202
 23
182.233462
 14
132.563202
 24
182.233462
 70
1
  0
DIMENSION
  8
CSLAYER1
 62
     7
  2
*D0001
 10
142.574245
 20
177.233462
 11
147.768463
 21
169.705429
 13
137.563202
 23
162.233462
 14
137.563202
 24
177.233462
 50
90.000000
 70
1
  0
TEXT
  8
CSLAYER1
 62
     7
 10
130.067444
 20
103.295967
 40
8.000000
 41
0.803571
  1
60x15
 50
0.000000
 51
0.000000
  7
SX_FONT
 72
     5
 11
160.067444
 21
103.295967
  0
TEXT
  8
CSLAYER1
 62
     7
 10
73.671263
 20
80.825293
 40
4.960742
 41
0.729057
  1
ホ%%dケットカタロク゛ Vol. 1 P17
 50
0.000000
 51
0.000000
  7
SX_FONT
 72
     5
 11
148.415621
 21
80.825293
  0
TEXT
  8
CSLAYER1
 62
     7
 10
73.292519
 20
90.678123
 40
5.000000
 41
0.612766
  1
カタログ Vol. 1  P44
 50
0.000000
 51
0.000000
  7
SX_FONT
 72
     5
 11
121.292519
 21
90.678123
  0
ENDSEC
  0
EOF
