  0
SECTION
  2
HEADER
  9
$ACADVER
  1
AC1006
  9
$INSBASE
 10
73.804688
 20
148.500000
 30
0.0
  9
$EXTMIN
 10
73.804688
 20
148.500000
  9
$EXTMAX
 10
283.804688
 20
445.500000
  9
$LIMMIN
 10
73.804688
 20
148.500000
  9
$LIMMAX
 10
283.804688
 20
445.500000
  9
$VIEWCTR
 10
178.804688
 20
297.000000
  9
$VIEWSIZE
 40
297.000000
  9
$SNAPMODE
 70
     0
  9
$SNAPUNIT
 10
1.0
 20
1.0
  9
$SNAPBASE
 10
0.0
 20
0.0
  9
$SNAPANG
 50
0.0
  9
$SNAPSTYLE
 70
     0
  9
$SNAPISOPAIR
 70
     0
  9
$GRIDMODE
 70
     0
  9
$GRIDUNIT
 10
0.0
 20
0.0
  9
$ORTHOMODE
 70
     0
  9
$REGENMODE
 70
     1
  9
$FILLMODE
 70
     1
  9
$QTEXTMODE
 70
     0
  9
$DRAGMODE
 70
     2
  9
$LTSCALE
 40
15.000000
  9
$OSMODE
 70
     0
  9
$ATTMODE
 70
     1
  9
$TEXTSIZE
 40
0.2
  9
$TRACEWID
 40
0.05
  9
$TEXTSTYLE
  7
STANDARD
  9
$CLAYER
  8
CSLAYER3
  9
$CELTYPE
  6
BYLAYER
  9
$CECOLOR
 62
   256
  9
$DIMSCALE
 40
1.0
  9
$DIMASZ
 40
0.18
  9
$DIMEXO
 40
0.0625
  9
$DIMDLI
 40
0.38
  9
$DIMRND
 40
0.0
  9
$DIMDLE
 40
0.0
  9
$DIMEXE
 40
0.18
  9
$DIMTP
 40
0.0
  9
$DIMTM
 40
0.0
  9
$DIMTXT
 40
0.18
  9
$DIMCEN
 40
0.09
  9
$DIMTSZ
 40
0.0
  9
$DIMTOL
 70
     0
  9
$DIMLIM
 70
     0
  9
$DIMTIH
 70
     1
  9
$DIMTOH
 70
     1
  9
$DIMSE1
 70
     0
  9
$DIMSE2
 70
     0
  9
$DIMTAD
 70
     0
  9
$DIMZIN
 70
     0
  9
$DIMBLK
  1

  9
$LUNITS
 70
     2
  9
$LUPREC
 70
     4
  9
$AXISMODE
 70
     0
  9
$AXISUNIT
 10
0.0
 20
0.0
  9
$SKETCHINC
 40
0.1
  9
$FILLETRAD
 40
0.0
  9
$AUNITS
 70
     0
  9
$AUPREC
 70
     0
  9
$MENU
  1
ACAD
  9
$ELEVATION
 40
0.0
  9
$THICKNESS
 40
0.0
  9
$VIEWDIR
 10
0.0
 20
0.0
 30
1.0
  9
$LIMCHECK
 70
     0
  9
$BLIPMODE
 70
     1
  9
$CHAMFERA
 40
0.0
  9
$CHAMFERB
 40
0.0
  9
$FASTZOOM
 70
     1
  9
$SKPOLY
 70
     0
  9
$TDCREATE
 40
0.000000
  9
$TDUPDATE
 40
0.000000
  9
$TDINDWG
 40
0.0
  9
$TDUSRTIMER
 40
0.0
  9
$USRTIMER
 70
     1
  9
$ANGBASE
 50
0.0
  9
$ANGDIR
 70
     0
  9
$PDMODE
 70
     0
  9
$PDSIZE
 40
0.0
  9
$PLINEWID
 40
0.0
  9
$COORDS
 70
     0
  9
$USERI1
 70
     0
  9
$USERI2
 70
     0
  9
$USERI3
 70
     0
  9
$USERI4
 70
     0
  9
$USERI5
 70
     0
  9
$USERR1
 40
0.0
  9
$USERR2
 40
0.0
  9
$USERR3
 40
0.0
  9
$USERR4
 40
0.0
  9
$USERR5
 40
0.0
  0
ENDSEC
  0
SECTION
  2
TABLES
  0
TABLE
  2
LTYPE
 70
     9
  0
LTYPE
  2
CONTINUOUS
 70
    64
  3
Solid line
 72
    65
 73
     0
 40
0.0
  0
LTYPE
  2
DASHED
 70
    64
  3
__ __ __ __ __ __ __ __ __ __ __ __ __ __ __
 72
    65
 73
     2
 40
0.75
 49
0.5
 49
-0.25
  0
LTYPE
  2
HIDDEN
 70
    64
  3
_ _ _ _ _ _ _ _ _ _ _ _ _ _ _ _ _ _ _ _ _ _ _
 72
    65
 73
     2
 40
0.375
 49
0.25
 49
-0.125
  0
LTYPE
  2
DOT
 70
    64
  3
...............................................
 72
    65
 73
     2
 40
0.25
 49
0.0
 49
-0.25
  0
LTYPE
  2
DASHDOT
 70
    64
  3
__ . __ . __ . __ . __ . __ . __ . __ . __ . __
 72
    65
 73
     4
 40
1.0
 49
0.5
 49
-0.25
 49
0.0
 49
-0.25
  0
LTYPE
  2
DIVIDE
 70
    64
  3
__ . . __ . . __ . . __ . . __ . . __ . . __
 72
    65
 73
     6
 40
1.25
 49
0.5
 49
-0.25
 49
0.0
 49
-0.25
 49
0.0
 49
-0.25
  0
LTYPE
  2
CENTER
 70
    64
  3
____ _ ____ _ ____ _ ____ _ ____ _ ____ _ ____ 
 72
    65
 73
     4
 40
2.0
 49
1.25
 49
-0.25
 49
0.25
 49
-0.25
  0
LTYPE
  2
PHANTOM
 70
    64
  3
______  __  __  ______  __  __  ______  __  __ 
 72
    65
 73
     6
 40
2.5
 49
1.25
 49
-0.25
 49
0.25
 49
-0.25
 49
0.25
 49
-0.25
  0
LTYPE
  2
BORDER
 70
    64
  3
__ __ . __ __ . __ __ . __ __ . __ __ . __ __ .
 72
    65
 73
     6
 40
1.75
 49
0.5
 49
-0.25
 49
0.5
 49
-0.25
 49
0.0
 49
-0.25
  0
ENDTAB
  0
TABLE
  2
LAYER
 70
    16
  0
LAYER
  2
CSLAYER1
 70
    64
 62
     7
  6
CONTINUOUS
  0
LAYER
  2
CSLAYER2
 70
    64
 62
     7
  6
CONTINUOUS
  0
LAYER
  2
CSLAYER3
 70
    64
 62
     7
  6
CONTINUOUS
  0
LAYER
  2
CSLAYER4
 70
    64
 62
     7
  6
CONTINUOUS
  0
LAYER
  2
CSLAYER5
 70
    64
 62
     7
  6
CONTINUOUS
  0
LAYER
  2
CSLAYER6
 70
    64
 62
     7
  6
CONTINUOUS
  0
LAYER
  2
CSLAYER7
 70
    64
 62
     7
  6
CONTINUOUS
  0
LAYER
  2
CSLAYER8
 70
    64
 62
     7
  6
CONTINUOUS
  0
LAYER
  2
CSLAYER9
 70
    64
 62
     7
  6
CONTINUOUS
  0
LAYER
  2
CSLAYER10
 70
    64
 62
     7
  6
CONTINUOUS
  0
LAYER
  2
CSLAYER11
 70
    64
 62
     7
  6
CONTINUOUS
  0
LAYER
  2
CSLAYER12
 70
    64
 62
     7
  6
CONTINUOUS
  0
LAYER
  2
CSLAYER13
 70
    64
 62
     7
  6
CONTINUOUS
  0
LAYER
  2
CSLAYER14
 70
    64
 62
     7
  6
CONTINUOUS
  0
LAYER
  2
CSLAYER15
 70
    64
 62
     7
  6
CONTINUOUS
  0
LAYER
  2
CSLAYER16
 70
    64
 62
     7
  6
CONTINUOUS
  0
ENDTAB
  0
TABLE
  2
STYLE
 70
     1
  0
STYLE
  2
SX_FONT
 70
     0
 40
1.0
 41
1.0
 50
0.0
 71
     0
 42
1.0
  3
monotxt
  4
bigfont
  0
ENDTAB
  0
TABLE
  2
VIEW
 70
     0
  0
ENDTAB
  0
ENDSEC
  0
SECTION
  2
BLOCKS
  0
BLOCK
  8
CSLAYER1
  2
*D0000
 70
    65
 10
0.0
 20
0.0
 30
0.0
  0
LINE
  8
CSLAYER1
  6
CONTINUOUS
 62
     7
 10
73.594452
 20
170.733462
 11
73.594452
 21
175.754888
  0
LINE
  8
CSLAYER1
  6
CONTINUOUS
 62
     7
 10
133.594452
 20
170.733462
 11
133.594452
 21
175.754888
  0
LINE
  8
CSLAYER1
  6
CONTINUOUS
 62
     7
 10
73.594452
 20
174.754888
 11
133.594452
 21
174.754888
  0
LINE
  8
CSLAYER1
  6
CONTINUOUS
 62
     7
 10
73.594452
 20
174.754888
 11
77.458155
 21
175.790164
  0
LINE
  8
CSLAYER1
  6
CONTINUOUS
 62
     7
 10
73.594452
 20
174.754888
 11
77.458155
 21
173.719612
  0
LINE
  8
CSLAYER1
  6
CONTINUOUS
 62
     7
 10
133.594452
 20
174.754888
 11
129.730748
 21
175.790164
  0
LINE
  8
CSLAYER1
  6
CONTINUOUS
 62
     7
 10
133.594452
 20
174.754888
 11
129.730748
 21
173.719612
  0
TEXT
  8
CSLAYER1
 62
     7
 10
100.594452
 20
175.754883
 40
4.000000
 41
0.900000
  1
60
 50
0.000000
 51
0.000000
  7
SX_FONT
 72
     5
 11
106.594452
 21
175.754883
  0
ENDBLK
  8
0
  0
BLOCK
  8
CSLAYER1
  2
*D0001
 70
    65
 10
0.0
 20
0.0
 30
0.0
  0
LINE
  8
CSLAYER1
  6
CONTINUOUS
 62
     7
 10
139.594452
 20
149.733462
 11
144.722305
 21
149.733462
  0
LINE
  8
CSLAYER1
  6
CONTINUOUS
 62
     7
 10
139.594452
 20
164.733462
 11
144.722305
 21
164.733462
  0
LINE
  8
CSLAYER1
  6
CONTINUOUS
 62
     7
 10
143.722305
 20
149.733462
 11
143.722305
 21
164.733462
  0
LINE
  8
CSLAYER1
  6
CONTINUOUS
 62
     7
 10
143.722305
 20
149.733462
 11
142.687029
 21
153.597165
  0
LINE
  8
CSLAYER1
  6
CONTINUOUS
 62
     7
 10
143.722305
 20
149.733462
 11
144.757581
 21
153.597165
  0
LINE
  8
CSLAYER1
  6
CONTINUOUS
 62
     7
 10
143.722305
 20
164.733462
 11
142.687029
 21
160.869759
  0
LINE
  8
CSLAYER1
  6
CONTINUOUS
 62
     7
 10
143.722305
 20
164.733462
 11
144.757581
 21
160.869759
  0
TEXT
  8
CSLAYER1
 62
     7
 10
148.877823
 20
154.257370
 40
4.000000
 41
0.900000
  1
15
 50
90.000000
 51
0.000000
  7
SX_FONT
 72
     5
 11
148.877823
 21
160.257370
  0
ENDBLK
  8
0
  0
ENDSEC
  0
SECTION
  2
ENTITIES
  0
LINE
  8
CSLAYER2
  6
CONTINUOUS
 62
     7
 10
99.665200
 20
162.267884
 11
96.713953
 21
159.710514
  0
ARC
  8
CSLAYER2
  6
CONTINUOUS
 62
     7
 10
103.594452
 20
157.733462
 40
6.000000
 50
90.000000
 51
130.910194
  0
ARC
  8
CSLAYER2
  6
CONTINUOUS
 62
     7
 10
94.094452
 20
162.733462
 40
4.000000
 50
270.000000
 51
310.910194
  0
LINE
  8
CSLAYER2
  6
CONTINUOUS
 62
     7
 10
92.416315
 20
159.102504
 11
89.486304
 21
160.456681
  0
ARC
  8
CSLAYER2
  6
CONTINUOUS
 62
     7
 10
88.227701
 20
157.733462
 40
3.000000
 50
65.194819
 51
90.000000
  0
ARC
  8
CSLAYER2
  6
CONTINUOUS
 62
     7
 10
94.094452
 20
162.733462
 40
4.000000
 50
245.194819
 51
270.000000
  0
LINE
  8
CSLAYER2
  6
CONTINUOUS
 62
     7
 10
87.227701
 20
160.733462
 11
88.227701
 21
160.733462
  0
LINE
  8
CSLAYER2
  6
CONTINUOUS
 62
     7
 10
107.523703
 20
162.267884
 11
110.474950
 21
159.710514
  0
ARC
  8
CSLAYER2
  6
CONTINUOUS
 62
     7
 10
103.594452
 20
157.733462
 40
6.000000
 50
49.089806
 51
90.000000
  0
ARC
  8
CSLAYER2
  6
CONTINUOUS
 62
     7
 10
113.094452
 20
162.733462
 40
4.000000
 50
229.089806
 51
270.000000
  0
LINE
  8
CSLAYER2
  6
CONTINUOUS
 62
     7
 10
114.772588
 20
159.102504
 11
117.702599
 21
160.456681
  0
ARC
  8
CSLAYER2
  6
CONTINUOUS
 62
     7
 10
118.961202
 20
157.733462
 40
3.000000
 50
90.000000
 51
114.805181
  0
ARC
  8
CSLAYER2
  6
CONTINUOUS
 62
     7
 10
113.094452
 20
162.733462
 40
4.000000
 50
270.000000
 51
294.805181
  0
LINE
  8
CSLAYER2
  6
CONTINUOUS
 62
     7
 10
119.961202
 20
160.733462
 11
118.961202
 21
160.733462
  0
LINE
  8
CSLAYER2
  6
CONTINUOUS
 62
     7
 10
133.594452
 20
159.926044
 11
133.594452
 21
149.733462
  0
LINE
  8
CSLAYER2
  6
CONTINUOUS
 62
     7
 10
133.594452
 20
149.733462
 11
73.594452
 21
149.733462
  0
LINE
  8
CSLAYER2
  6
CONTINUOUS
 62
     7
 10
73.594452
 20
149.733462
 11
73.594452
 21
159.926044
  0
ARC
  8
CSLAYER2
  6
CONTINUOUS
 62
     7
 10
80.594452
 20
157.233462
 40
7.500000
 50
27.818139
 51
90.000000
  0
ARC
  8
CSLAYER2
  6
CONTINUOUS
 62
     7
 10
80.594452
 20
157.233462
 40
7.500000
 50
90.000000
 51
158.960530
  0
ARC
  8
CSLAYER2
  6
CONTINUOUS
 62
     7
 10
126.594452
 20
157.233462
 40
7.500000
 50
21.039470
 51
90.000000
  0
ARC
  8
CSLAYER2
  6
CONTINUOUS
 62
     7
 10
126.594452
 20
157.233462
 40
7.500000
 50
90.000000
 51
152.181861
  0
TEXT
  8
CSLAYER1
 62
     7
 10
73.359306
 20
91.892761
 40
8.000000
 41
0.787500
  1
FM-2016
 50
0.000000
 51
0.000000
  7
SX_FONT
 72
     5
 11
115.359306
 21
91.892761
  0
DIMENSION
  8
CSLAYER1
 62
     7
  2
*D0000
 10
133.594452
 20
174.754888
 11
103.594452
 21
175.754883
 13
73.594452
 23
169.733462
 14
133.594452
 24
169.733462
 70
1
  0
DIMENSION
  8
CSLAYER1
 62
     7
  2
*D0001
 10
143.722305
 20
164.733462
 11
148.877823
 21
157.257370
 13
138.594452
 23
149.733462
 14
138.594452
 24
164.733462
 50
90.000000
 70
1
  0
TEXT
  8
CSLAYER1
 62
     7
 10
130.162033
 20
91.901360
 40
8.000000
 41
0.803571
  1
60x15
 50
0.000000
 51
0.000000
  7
SX_FONT
 72
     5
 11
160.162033
 21
91.901360
  0
TEXT
  8
CSLAYER1
 62
     7
 10
73.134535
 20
69.634619
 40
4.960742
 41
0.729057
  1
ホ%%dケットカタロク゛ Vol. 1 P17
 50
0.000000
 51
0.000000
  7
SX_FONT
 72
     5
 11
147.878893
 21
69.634619
  0
TEXT
  8
CSLAYER1
 62
     7
 10
73.065552
 20
79.390381
 40
5.000000
 41
0.612766
  1
カタログ Vol. 1  P44
 50
0.000000
 51
0.000000
  7
SX_FONT
 72
     5
 11
121.065552
 21
79.390381
  0
ENDSEC
  0
EOF
