  0
SECTION
  2
HEADER
  9
$ACADVER
  1
AC1006
  9
$INSBASE
 10
79.398682
 20
146.698893
 30
0.0
  9
$EXTMIN
 10
79.398682
 20
146.698893
  9
$EXTMAX
 10
289.398682
 20
443.698893
  9
$LIMMIN
 10
79.398682
 20
146.698893
  9
$LIMMAX
 10
289.398682
 20
443.698893
  9
$VIEWCTR
 10
184.398682
 20
295.198893
  9
$VIEWSIZE
 40
297.000000
  9
$SNAPMODE
 70
     0
  9
$SNAPUNIT
 10
1.0
 20
1.0
  9
$SNAPBASE
 10
0.0
 20
0.0
  9
$SNAPANG
 50
0.0
  9
$SNAPSTYLE
 70
     0
  9
$SNAPISOPAIR
 70
     0
  9
$GRIDMODE
 70
     0
  9
$GRIDUNIT
 10
0.0
 20
0.0
  9
$ORTHOMODE
 70
     0
  9
$REGENMODE
 70
     1
  9
$FILLMODE
 70
     1
  9
$QTEXTMODE
 70
     0
  9
$DRAGMODE
 70
     2
  9
$LTSCALE
 40
15.000000
  9
$OSMODE
 70
     0
  9
$ATTMODE
 70
     1
  9
$TEXTSIZE
 40
0.2
  9
$TRACEWID
 40
0.05
  9
$TEXTSTYLE
  7
STANDARD
  9
$CLAYER
  8
CSLAYER3
  9
$CELTYPE
  6
BYLAYER
  9
$CECOLOR
 62
   256
  9
$DIMSCALE
 40
1.0
  9
$DIMASZ
 40
0.18
  9
$DIMEXO
 40
0.0625
  9
$DIMDLI
 40
0.38
  9
$DIMRND
 40
0.0
  9
$DIMDLE
 40
0.0
  9
$DIMEXE
 40
0.18
  9
$DIMTP
 40
0.0
  9
$DIMTM
 40
0.0
  9
$DIMTXT
 40
0.18
  9
$DIMCEN
 40
0.09
  9
$DIMTSZ
 40
0.0
  9
$DIMTOL
 70
     0
  9
$DIMLIM
 70
     0
  9
$DIMTIH
 70
     1
  9
$DIMTOH
 70
     1
  9
$DIMSE1
 70
     0
  9
$DIMSE2
 70
     0
  9
$DIMTAD
 70
     0
  9
$DIMZIN
 70
     0
  9
$DIMBLK
  1

  9
$LUNITS
 70
     2
  9
$LUPREC
 70
     4
  9
$AXISMODE
 70
     0
  9
$AXISUNIT
 10
0.0
 20
0.0
  9
$SKETCHINC
 40
0.1
  9
$FILLETRAD
 40
0.0
  9
$AUNITS
 70
     0
  9
$AUPREC
 70
     0
  9
$MENU
  1
ACAD
  9
$ELEVATION
 40
0.0
  9
$THICKNESS
 40
0.0
  9
$VIEWDIR
 10
0.0
 20
0.0
 30
1.0
  9
$LIMCHECK
 70
     0
  9
$BLIPMODE
 70
     1
  9
$CHAMFERA
 40
0.0
  9
$CHAMFERB
 40
0.0
  9
$FASTZOOM
 70
     1
  9
$SKPOLY
 70
     0
  9
$TDCREATE
 40
0.000000
  9
$TDUPDATE
 40
0.000000
  9
$TDINDWG
 40
0.0
  9
$TDUSRTIMER
 40
0.0
  9
$USRTIMER
 70
     1
  9
$ANGBASE
 50
0.0
  9
$ANGDIR
 70
     0
  9
$PDMODE
 70
     0
  9
$PDSIZE
 40
0.0
  9
$PLINEWID
 40
0.0
  9
$COORDS
 70
     0
  9
$USERI1
 70
     0
  9
$USERI2
 70
     0
  9
$USERI3
 70
     0
  9
$USERI4
 70
     0
  9
$USERI5
 70
     0
  9
$USERR1
 40
0.0
  9
$USERR2
 40
0.0
  9
$USERR3
 40
0.0
  9
$USERR4
 40
0.0
  9
$USERR5
 40
0.0
  0
ENDSEC
  0
SECTION
  2
TABLES
  0
TABLE
  2
LTYPE
 70
     9
  0
LTYPE
  2
CONTINUOUS
 70
    64
  3
Solid line
 72
    65
 73
     0
 40
0.0
  0
LTYPE
  2
DASHED
 70
    64
  3
__ __ __ __ __ __ __ __ __ __ __ __ __ __ __
 72
    65
 73
     2
 40
0.75
 49
0.5
 49
-0.25
  0
LTYPE
  2
HIDDEN
 70
    64
  3
_ _ _ _ _ _ _ _ _ _ _ _ _ _ _ _ _ _ _ _ _ _ _
 72
    65
 73
     2
 40
0.375
 49
0.25
 49
-0.125
  0
LTYPE
  2
DOT
 70
    64
  3
...............................................
 72
    65
 73
     2
 40
0.25
 49
0.0
 49
-0.25
  0
LTYPE
  2
DASHDOT
 70
    64
  3
__ . __ . __ . __ . __ . __ . __ . __ . __ . __
 72
    65
 73
     4
 40
1.0
 49
0.5
 49
-0.25
 49
0.0
 49
-0.25
  0
LTYPE
  2
DIVIDE
 70
    64
  3
__ . . __ . . __ . . __ . . __ . . __ . . __
 72
    65
 73
     6
 40
1.25
 49
0.5
 49
-0.25
 49
0.0
 49
-0.25
 49
0.0
 49
-0.25
  0
LTYPE
  2
CENTER
 70
    64
  3
____ _ ____ _ ____ _ ____ _ ____ _ ____ _ ____ 
 72
    65
 73
     4
 40
2.0
 49
1.25
 49
-0.25
 49
0.25
 49
-0.25
  0
LTYPE
  2
PHANTOM
 70
    64
  3
______  __  __  ______  __  __  ______  __  __ 
 72
    65
 73
     6
 40
2.5
 49
1.25
 49
-0.25
 49
0.25
 49
-0.25
 49
0.25
 49
-0.25
  0
LTYPE
  2
BORDER
 70
    64
  3
__ __ . __ __ . __ __ . __ __ . __ __ . __ __ .
 72
    65
 73
     6
 40
1.75
 49
0.5
 49
-0.25
 49
0.5
 49
-0.25
 49
0.0
 49
-0.25
  0
ENDTAB
  0
TABLE
  2
LAYER
 70
    16
  0
LAYER
  2
CSLAYER1
 70
    64
 62
     7
  6
CONTINUOUS
  0
LAYER
  2
CSLAYER2
 70
    64
 62
     7
  6
CONTINUOUS
  0
LAYER
  2
CSLAYER3
 70
    64
 62
     7
  6
CONTINUOUS
  0
LAYER
  2
CSLAYER4
 70
    64
 62
     7
  6
CONTINUOUS
  0
LAYER
  2
CSLAYER5
 70
    64
 62
     7
  6
CONTINUOUS
  0
LAYER
  2
CSLAYER6
 70
    64
 62
     7
  6
CONTINUOUS
  0
LAYER
  2
CSLAYER7
 70
    64
 62
     7
  6
CONTINUOUS
  0
LAYER
  2
CSLAYER8
 70
    64
 62
     7
  6
CONTINUOUS
  0
LAYER
  2
CSLAYER9
 70
    64
 62
     7
  6
CONTINUOUS
  0
LAYER
  2
CSLAYER10
 70
    64
 62
     7
  6
CONTINUOUS
  0
LAYER
  2
CSLAYER11
 70
    64
 62
     7
  6
CONTINUOUS
  0
LAYER
  2
CSLAYER12
 70
    64
 62
     7
  6
CONTINUOUS
  0
LAYER
  2
CSLAYER13
 70
    64
 62
     7
  6
CONTINUOUS
  0
LAYER
  2
CSLAYER14
 70
    64
 62
     7
  6
CONTINUOUS
  0
LAYER
  2
CSLAYER15
 70
    64
 62
     7
  6
CONTINUOUS
  0
LAYER
  2
CSLAYER16
 70
    64
 62
     7
  6
CONTINUOUS
  0
ENDTAB
  0
TABLE
  2
STYLE
 70
     1
  0
STYLE
  2
SX_FONT
 70
     0
 40
1.0
 41
1.0
 50
0.0
 71
     0
 42
1.0
  3
monotxt
  4
bigfont
  0
ENDTAB
  0
TABLE
  2
VIEW
 70
     0
  0
ENDTAB
  0
ENDSEC
  0
SECTION
  2
BLOCKS
  0
BLOCK
  8
CSLAYER1
  2
*D0000
 70
    65
 10
0.0
 20
0.0
 30
0.0
  0
LINE
  8
CSLAYER1
  6
CONTINUOUS
 62
     7
 10
79.297577
 20
165.030337
 11
79.297577
 21
170.170081
  0
LINE
  8
CSLAYER1
  6
CONTINUOUS
 62
     7
 10
119.297577
 20
165.030337
 11
119.297577
 21
170.170081
  0
LINE
  8
CSLAYER1
  6
CONTINUOUS
 62
     7
 10
79.297577
 20
169.170081
 11
119.297577
 21
169.170081
  0
LINE
  8
CSLAYER1
  6
CONTINUOUS
 62
     7
 10
79.297577
 20
169.170081
 11
83.161280
 21
170.205357
  0
LINE
  8
CSLAYER1
  6
CONTINUOUS
 62
     7
 10
79.297577
 20
169.170081
 11
83.161280
 21
168.134805
  0
LINE
  8
CSLAYER1
  6
CONTINUOUS
 62
     7
 10
119.297577
 20
169.170081
 11
115.433873
 21
170.205357
  0
LINE
  8
CSLAYER1
  6
CONTINUOUS
 62
     7
 10
119.297577
 20
169.170081
 11
115.433873
 21
168.134805
  0
TEXT
  8
CSLAYER1
 62
     7
 10
96.297577
 20
170.170074
 40
4.000000
 41
0.900000
  1
40
 50
0.000000
 51
0.000000
  7
SX_FONT
 72
     5
 11
102.297577
 21
170.170074
  0
ENDBLK
  8
0
  0
BLOCK
  8
CSLAYER1
  2
*D0001
 70
    65
 10
0.0
 20
0.0
 30
0.0
  0
LINE
  8
CSLAYER1
  6
CONTINUOUS
 62
     7
 10
125.297577
 20
147.030337
 11
130.256001
 21
147.030337
  0
LINE
  8
CSLAYER1
  6
CONTINUOUS
 62
     7
 10
125.297577
 20
159.030337
 11
130.256001
 21
159.030337
  0
LINE
  8
CSLAYER1
  6
CONTINUOUS
 62
     7
 10
129.256001
 20
147.030337
 11
129.256001
 21
159.030337
  0
LINE
  8
CSLAYER1
  6
CONTINUOUS
 62
     7
 10
129.256001
 20
141.030337
 11
129.256001
 21
147.030337
  0
LINE
  8
CSLAYER1
  6
CONTINUOUS
 62
     7
 10
129.256001
 20
147.030337
 11
128.220725
 21
143.166634
  0
LINE
  8
CSLAYER1
  6
CONTINUOUS
 62
     7
 10
129.256001
 20
147.030337
 11
130.291277
 21
143.166634
  0
LINE
  8
CSLAYER1
  6
CONTINUOUS
 62
     7
 10
129.256001
 20
159.030337
 11
129.256001
 21
165.030337
  0
LINE
  8
CSLAYER1
  6
CONTINUOUS
 62
     7
 10
129.256001
 20
159.030337
 11
128.220725
 21
162.894040
  0
LINE
  8
CSLAYER1
  6
CONTINUOUS
 62
     7
 10
129.256001
 20
159.030337
 11
130.291277
 21
162.894040
  0
TEXT
  8
CSLAYER1
 62
     7
 10
134.255997
 20
150.030334
 40
4.000000
 41
0.900000
  1
12
 50
90.000000
 51
0.000000
  7
SX_FONT
 72
     5
 11
134.255997
 21
156.030334
  0
ENDBLK
  8
0
  0
ENDSEC
  0
SECTION
  2
ENTITIES
  0
ARC
  8
CSLAYER2
  6
CONTINUOUS
 62
     7
 10
79.297577
 20
157.530337
 40
7.500000
 50
270.000000
 51
323.130102
  0
LINE
  8
CSLAYER2
  6
CONTINUOUS
 62
     7
 10
119.297577
 20
147.030337
 11
79.297577
 21
147.030337
  0
LINE
  8
CSLAYER2
  6
CONTINUOUS
 62
     7
 10
79.297577
 20
147.030337
 11
79.297577
 21
150.030337
  0
ARC
  8
CSLAYER2
  6
CONTINUOUS
 62
     7
 10
99.297577
 20
147.530337
 40
11.500000
 50
28.571878
 51
151.428122
  0
LINE
  8
CSLAYER2
  6
CONTINUOUS
 62
     7
 10
89.198072
 20
153.030337
 11
85.297577
 21
153.030337
  0
LINE
  8
CSLAYER2
  6
CONTINUOUS
 62
     7
 10
119.297577
 20
150.030337
 11
119.297577
 21
147.030337
  0
ARC
  8
CSLAYER2
  6
CONTINUOUS
 62
     7
 10
119.297577
 20
157.530337
 40
7.500000
 50
216.869898
 51
270.000000
  0
LINE
  8
CSLAYER2
  6
CONTINUOUS
 62
     7
 10
113.297577
 20
153.030337
 11
109.397082
 21
153.030337
  0
TEXT
  8
CSLAYER1
 62
     7
 10
79.518120
 20
88.700836
 40
8.000000
 41
0.787500
  1
FM-2014
 50
0.000000
 51
0.000000
  7
SX_FONT
 72
     5
 11
121.518120
 21
88.700836
  0
DIMENSION
  8
CSLAYER1
 62
     7
  2
*D0000
 10
119.297577
 20
169.170081
 11
99.297577
 21
170.170074
 13
79.297577
 23
164.030337
 14
119.297577
 24
164.030337
 70
1
  0
DIMENSION
  8
CSLAYER1
 62
     7
  2
*D0001
 10
129.256001
 20
159.030337
 11
130.255997
 21
153.030334
 13
124.297577
 23
147.030337
 14
124.297577
 24
159.030337
 50
90.000000
 70
1
  0
TEXT
  8
CSLAYER1
 62
     7
 10
80.203779
 20
78.000320
 40
4.824800
 41
0.668373
  1
カタログ Vol. 1  P43
 50
0.000000
 51
0.000000
  7
SX_FONT
 72
     5
 11
130.725115
 21
78.000320
  0
TEXT
  8
CSLAYER1
 62
     7
 10
133.225677
 20
89.139664
 40
8.000000
 41
0.803571
  1
40x12
 50
0.000000
 51
0.000000
  7
SX_FONT
 72
     5
 11
163.225677
 21
89.139664
  0
TEXT
  8
CSLAYER1
 62
     7
 10
79.982085
 20
67.714537
 40
4.960742
 41
0.729057
  1
ホ%%dケットカタロク゛ Vol. 1 P16
 50
0.000000
 51
0.000000
  7
SX_FONT
 72
     5
 11
154.726442
 21
67.714537
  0
ENDSEC
  0
EOF
