  0
SECTION
  2
HEADER
  9
$ACADVER
  1
AC1006
  9
$INSBASE
 10
88.545207
 20
150.240234
 30
0.0
  9
$EXTMIN
 10
88.545207
 20
150.240234
  9
$EXTMAX
 10
298.545207
 20
447.240234
  9
$LIMMIN
 10
88.545207
 20
150.240234
  9
$LIMMAX
 10
298.545207
 20
447.240234
  9
$VIEWCTR
 10
193.545207
 20
298.740234
  9
$VIEWSIZE
 40
297.000000
  9
$SNAPMODE
 70
     0
  9
$SNAPUNIT
 10
1.0
 20
1.0
  9
$SNAPBASE
 10
0.0
 20
0.0
  9
$SNAPANG
 50
0.0
  9
$SNAPSTYLE
 70
     0
  9
$SNAPISOPAIR
 70
     0
  9
$GRIDMODE
 70
     0
  9
$GRIDUNIT
 10
0.0
 20
0.0
  9
$ORTHOMODE
 70
     0
  9
$REGENMODE
 70
     1
  9
$FILLMODE
 70
     1
  9
$QTEXTMODE
 70
     0
  9
$DRAGMODE
 70
     2
  9
$LTSCALE
 40
15.000000
  9
$OSMODE
 70
     0
  9
$ATTMODE
 70
     1
  9
$TEXTSIZE
 40
0.2
  9
$TRACEWID
 40
0.05
  9
$TEXTSTYLE
  7
STANDARD
  9
$CLAYER
  8
CSLAYER3
  9
$CELTYPE
  6
BYLAYER
  9
$CECOLOR
 62
   256
  9
$DIMSCALE
 40
1.0
  9
$DIMASZ
 40
0.18
  9
$DIMEXO
 40
0.0625
  9
$DIMDLI
 40
0.38
  9
$DIMRND
 40
0.0
  9
$DIMDLE
 40
0.0
  9
$DIMEXE
 40
0.18
  9
$DIMTP
 40
0.0
  9
$DIMTM
 40
0.0
  9
$DIMTXT
 40
0.18
  9
$DIMCEN
 40
0.09
  9
$DIMTSZ
 40
0.0
  9
$DIMTOL
 70
     0
  9
$DIMLIM
 70
     0
  9
$DIMTIH
 70
     1
  9
$DIMTOH
 70
     1
  9
$DIMSE1
 70
     0
  9
$DIMSE2
 70
     0
  9
$DIMTAD
 70
     0
  9
$DIMZIN
 70
     0
  9
$DIMBLK
  1

  9
$LUNITS
 70
     2
  9
$LUPREC
 70
     4
  9
$AXISMODE
 70
     0
  9
$AXISUNIT
 10
0.0
 20
0.0
  9
$SKETCHINC
 40
0.1
  9
$FILLETRAD
 40
0.0
  9
$AUNITS
 70
     0
  9
$AUPREC
 70
     0
  9
$MENU
  1
ACAD
  9
$ELEVATION
 40
0.0
  9
$THICKNESS
 40
0.0
  9
$VIEWDIR
 10
0.0
 20
0.0
 30
1.0
  9
$LIMCHECK
 70
     0
  9
$BLIPMODE
 70
     1
  9
$CHAMFERA
 40
0.0
  9
$CHAMFERB
 40
0.0
  9
$FASTZOOM
 70
     1
  9
$SKPOLY
 70
     0
  9
$TDCREATE
 40
0.000000
  9
$TDUPDATE
 40
0.000000
  9
$TDINDWG
 40
0.0
  9
$TDUSRTIMER
 40
0.0
  9
$USRTIMER
 70
     1
  9
$ANGBASE
 50
0.0
  9
$ANGDIR
 70
     0
  9
$PDMODE
 70
     0
  9
$PDSIZE
 40
0.0
  9
$PLINEWID
 40
0.0
  9
$COORDS
 70
     0
  9
$USERI1
 70
     0
  9
$USERI2
 70
     0
  9
$USERI3
 70
     0
  9
$USERI4
 70
     0
  9
$USERI5
 70
     0
  9
$USERR1
 40
0.0
  9
$USERR2
 40
0.0
  9
$USERR3
 40
0.0
  9
$USERR4
 40
0.0
  9
$USERR5
 40
0.0
  0
ENDSEC
  0
SECTION
  2
TABLES
  0
TABLE
  2
LTYPE
 70
     9
  0
LTYPE
  2
CONTINUOUS
 70
    64
  3
Solid line
 72
    65
 73
     0
 40
0.0
  0
LTYPE
  2
DASHED
 70
    64
  3
__ __ __ __ __ __ __ __ __ __ __ __ __ __ __
 72
    65
 73
     2
 40
0.75
 49
0.5
 49
-0.25
  0
LTYPE
  2
HIDDEN
 70
    64
  3
_ _ _ _ _ _ _ _ _ _ _ _ _ _ _ _ _ _ _ _ _ _ _
 72
    65
 73
     2
 40
0.375
 49
0.25
 49
-0.125
  0
LTYPE
  2
DOT
 70
    64
  3
...............................................
 72
    65
 73
     2
 40
0.25
 49
0.0
 49
-0.25
  0
LTYPE
  2
DASHDOT
 70
    64
  3
__ . __ . __ . __ . __ . __ . __ . __ . __ . __
 72
    65
 73
     4
 40
1.0
 49
0.5
 49
-0.25
 49
0.0
 49
-0.25
  0
LTYPE
  2
DIVIDE
 70
    64
  3
__ . . __ . . __ . . __ . . __ . . __ . . __
 72
    65
 73
     6
 40
1.25
 49
0.5
 49
-0.25
 49
0.0
 49
-0.25
 49
0.0
 49
-0.25
  0
LTYPE
  2
CENTER
 70
    64
  3
____ _ ____ _ ____ _ ____ _ ____ _ ____ _ ____ 
 72
    65
 73
     4
 40
2.0
 49
1.25
 49
-0.25
 49
0.25
 49
-0.25
  0
LTYPE
  2
PHANTOM
 70
    64
  3
______  __  __  ______  __  __  ______  __  __ 
 72
    65
 73
     6
 40
2.5
 49
1.25
 49
-0.25
 49
0.25
 49
-0.25
 49
0.25
 49
-0.25
  0
LTYPE
  2
BORDER
 70
    64
  3
__ __ . __ __ . __ __ . __ __ . __ __ . __ __ .
 72
    65
 73
     6
 40
1.75
 49
0.5
 49
-0.25
 49
0.5
 49
-0.25
 49
0.0
 49
-0.25
  0
ENDTAB
  0
TABLE
  2
LAYER
 70
    16
  0
LAYER
  2
CSLAYER1
 70
    64
 62
     7
  6
CONTINUOUS
  0
LAYER
  2
CSLAYER2
 70
    64
 62
     7
  6
CONTINUOUS
  0
LAYER
  2
CSLAYER3
 70
    64
 62
     7
  6
CONTINUOUS
  0
LAYER
  2
CSLAYER4
 70
    64
 62
     7
  6
CONTINUOUS
  0
LAYER
  2
CSLAYER5
 70
    64
 62
     7
  6
CONTINUOUS
  0
LAYER
  2
CSLAYER6
 70
    64
 62
     7
  6
CONTINUOUS
  0
LAYER
  2
CSLAYER7
 70
    64
 62
     7
  6
CONTINUOUS
  0
LAYER
  2
CSLAYER8
 70
    64
 62
     7
  6
CONTINUOUS
  0
LAYER
  2
CSLAYER9
 70
    64
 62
     7
  6
CONTINUOUS
  0
LAYER
  2
CSLAYER10
 70
    64
 62
     7
  6
CONTINUOUS
  0
LAYER
  2
CSLAYER11
 70
    64
 62
     7
  6
CONTINUOUS
  0
LAYER
  2
CSLAYER12
 70
    64
 62
     7
  6
CONTINUOUS
  0
LAYER
  2
CSLAYER13
 70
    64
 62
     7
  6
CONTINUOUS
  0
LAYER
  2
CSLAYER14
 70
    64
 62
     7
  6
CONTINUOUS
  0
LAYER
  2
CSLAYER15
 70
    64
 62
     7
  6
CONTINUOUS
  0
LAYER
  2
CSLAYER16
 70
    64
 62
     7
  6
CONTINUOUS
  0
ENDTAB
  0
TABLE
  2
STYLE
 70
     1
  0
STYLE
  2
SX_FONT
 70
     0
 40
1.0
 41
1.0
 50
0.0
 71
     0
 42
1.0
  3
monotxt
  4
bigfont
  0
ENDTAB
  0
TABLE
  2
VIEW
 70
     0
  0
ENDTAB
  0
ENDSEC
  0
SECTION
  2
BLOCKS
  0
BLOCK
  8
CSLAYER1
  2
*D0000
 70
    65
 10
0.0
 20
0.0
 30
0.0
  0
LINE
  8
CSLAYER1
  6
CONTINUOUS
 62
     7
 10
88.390202
 20
165.359375
 11
88.390202
 21
170.368609
  0
LINE
  8
CSLAYER1
  6
CONTINUOUS
 62
     7
 10
112.390202
 20
165.359375
 11
112.390202
 21
170.368609
  0
LINE
  8
CSLAYER1
  6
CONTINUOUS
 62
     7
 10
88.390202
 20
169.368609
 11
112.390202
 21
169.368609
  0
LINE
  8
CSLAYER1
  6
CONTINUOUS
 62
     7
 10
88.390202
 20
169.368609
 11
92.253905
 21
170.403885
  0
LINE
  8
CSLAYER1
  6
CONTINUOUS
 62
     7
 10
88.390202
 20
169.368609
 11
92.253905
 21
168.333332
  0
LINE
  8
CSLAYER1
  6
CONTINUOUS
 62
     7
 10
112.390202
 20
169.368609
 11
108.526499
 21
170.403885
  0
LINE
  8
CSLAYER1
  6
CONTINUOUS
 62
     7
 10
112.390202
 20
169.368609
 11
108.526499
 21
168.333332
  0
TEXT
  8
CSLAYER1
 62
     7
 10
97.390205
 20
170.368607
 40
4.000000
 41
0.900000
  1
24
 50
0.000000
 51
0.000000
  7
SX_FONT
 72
     5
 11
103.390205
 21
170.368607
  0
ENDBLK
  8
0
  0
BLOCK
  8
CSLAYER1
  2
*D0001
 70
    65
 10
0.0
 20
0.0
 30
0.0
  0
LINE
  8
CSLAYER1
  6
CONTINUOUS
 62
     7
 10
118.390202
 20
150.359375
 11
123.348464
 21
150.359375
  0
LINE
  8
CSLAYER1
  6
CONTINUOUS
 62
     7
 10
118.390202
 20
159.359375
 11
123.348464
 21
159.359375
  0
LINE
  8
CSLAYER1
  6
CONTINUOUS
 62
     7
 10
122.348464
 20
150.359375
 11
122.348464
 21
159.359375
  0
LINE
  8
CSLAYER1
  6
CONTINUOUS
 62
     7
 10
122.348464
 20
144.359375
 11
122.348464
 21
150.359375
  0
LINE
  8
CSLAYER1
  6
CONTINUOUS
 62
     7
 10
122.348464
 20
150.359375
 11
121.313188
 21
146.495672
  0
LINE
  8
CSLAYER1
  6
CONTINUOUS
 62
     7
 10
122.348464
 20
150.359375
 11
123.383740
 21
146.495672
  0
LINE
  8
CSLAYER1
  6
CONTINUOUS
 62
     7
 10
122.348464
 20
159.359375
 11
122.348464
 21
165.359375
  0
LINE
  8
CSLAYER1
  6
CONTINUOUS
 62
     7
 10
122.348464
 20
159.359375
 11
121.313188
 21
163.223078
  0
LINE
  8
CSLAYER1
  6
CONTINUOUS
 62
     7
 10
122.348464
 20
159.359375
 11
123.383740
 21
163.223078
  0
TEXT
  8
CSLAYER1
 62
     7
 10
127.348465
 20
153.359375
 40
4.000000
 41
1.125000
  1
9
 50
90.000000
 51
0.000000
  7
SX_FONT
 72
     5
 11
127.348465
 21
156.359375
  0
ENDBLK
  8
0
  0
ENDSEC
  0
SECTION
  2
ENTITIES
  0
ARC
  8
CSLAYER1
  6
CONTINUOUS
 62
     7
 10
100.390202
 20
155.515625
 40
3.843750
 50
12.680383
 51
167.319617
  0
LINE
  8
CSLAYER1
  6
CONTINUOUS
 62
     7
 10
88.390202
 20
152.859375
 11
88.390202
 21
150.359375
  0
LINE
  8
CSLAYER1
  6
CONTINUOUS
 62
     7
 10
88.390202
 20
150.359375
 11
112.390202
 21
150.359375
  0
LINE
  8
CSLAYER1
  6
CONTINUOUS
 62
     7
 10
112.390202
 20
150.359375
 11
112.390202
 21
152.859375
  0
LINE
  8
CSLAYER1
  6
CONTINUOUS
 62
     7
 10
94.140202
 20
156.359375
 11
96.640202
 21
156.359375
  0
LINE
  8
CSLAYER1
  6
CONTINUOUS
 62
     7
 10
104.140202
 20
156.359375
 11
106.640202
 21
156.359375
  0
TEXT
  8
CSLAYER1
 62
     7
 10
88.124992
 20
90.104454
 40
10.000000
 41
0.630000
  1
FM-2012
 50
0.000000
 51
0.000000
  7
SX_FONT
 72
     5
 11
130.124992
 21
90.104454
  0
DIMENSION
  8
CSLAYER1
 62
     7
  2
*D0000
 10
112.390202
 20
169.368609
 11
100.390205
 21
170.368607
 13
88.390202
 23
164.359375
 14
112.390202
 24
164.359375
 70
1
  0
DIMENSION
  8
CSLAYER1
 62
     7
  2
*D0001
 10
122.348464
 20
159.359375
 11
123.348465
 21
154.859375
 13
117.390202
 23
150.359375
 14
117.390202
 24
159.359375
 50
90.000000
 70
1
  0
TEXT
  8
CSLAYER1
 62
     7
 10
142.199219
 20
89.388023
 40
10.000000
 41
0.654545
  1
24x9
 50
0.000000
 51
0.000000
  7
SX_FONT
 72
     5
 11
166.199219
 21
89.388023
  0
TEXT
  8
CSLAYER1
 62
     7
 10
88.169357
 20
78.335938
 40
5.000000
 41
0.612766
  1
カタログ Vol. 1  P43
 50
0.000000
 51
0.000000
  7
SX_FONT
 72
     5
 11
136.169357
 21
78.335938
  0
TEXT
  8
CSLAYER1
 62
     7
 10
88.171232
 20
68.261939
 40
4.960742
 41
0.729057
  1
ホ%%dケットカタロク゛ Vol. 1 P16
 50
0.000000
 51
0.000000
  7
SX_FONT
 72
     5
 11
162.915590
 21
68.261939
  0
ARC
  8
CSLAYER1
  6
CONTINUOUS
 62
     7
 10
89.370506
 20
157.859375
 40
5.000000
 50
270.000000
 51
342.542397
  0
ARC
  8
CSLAYER1
  6
CONTINUOUS
 62
     7
 10
111.409898
 20
157.859375
 40
5.000000
 50
197.457603
 51
270.000000
  0
LINE
  8
CSLAYER1
  6
CONTINUOUS
 62
     7
 10
111.409898
 20
152.859375
 11
112.390202
 21
152.859375
  0
LINE
  8
CSLAYER1
  6
CONTINUOUS
 62
     7
 10
88.390202
 20
152.859375
 11
89.370506
 21
152.859375
  0
ENDSEC
  0
EOF
