  0
SECTION
  2
HEADER
  9
$ACADVER
  1
AC1006
  9
$INSBASE
 10
91.494832
 20
155.569255
 30
0.0
  9
$EXTMIN
 10
91.494832
 20
155.569255
  9
$EXTMAX
 10
301.494832
 20
452.569255
  9
$LIMMIN
 10
91.494832
 20
155.569255
  9
$LIMMAX
 10
301.494832
 20
452.569255
  9
$VIEWCTR
 10
196.494832
 20
304.069255
  9
$VIEWSIZE
 40
297.000000
  9
$SNAPMODE
 70
     0
  9
$SNAPUNIT
 10
1.0
 20
1.0
  9
$SNAPBASE
 10
0.0
 20
0.0
  9
$SNAPANG
 50
0.0
  9
$SNAPSTYLE
 70
     0
  9
$SNAPISOPAIR
 70
     0
  9
$GRIDMODE
 70
     0
  9
$GRIDUNIT
 10
0.0
 20
0.0
  9
$ORTHOMODE
 70
     0
  9
$REGENMODE
 70
     1
  9
$FILLMODE
 70
     1
  9
$QTEXTMODE
 70
     0
  9
$DRAGMODE
 70
     2
  9
$LTSCALE
 40
15.000000
  9
$OSMODE
 70
     0
  9
$ATTMODE
 70
     1
  9
$TEXTSIZE
 40
0.2
  9
$TRACEWID
 40
0.05
  9
$TEXTSTYLE
  7
STANDARD
  9
$CLAYER
  8
CSLAYER3
  9
$CELTYPE
  6
BYLAYER
  9
$CECOLOR
 62
   256
  9
$DIMSCALE
 40
1.0
  9
$DIMASZ
 40
0.18
  9
$DIMEXO
 40
0.0625
  9
$DIMDLI
 40
0.38
  9
$DIMRND
 40
0.0
  9
$DIMDLE
 40
0.0
  9
$DIMEXE
 40
0.18
  9
$DIMTP
 40
0.0
  9
$DIMTM
 40
0.0
  9
$DIMTXT
 40
0.18
  9
$DIMCEN
 40
0.09
  9
$DIMTSZ
 40
0.0
  9
$DIMTOL
 70
     0
  9
$DIMLIM
 70
     0
  9
$DIMTIH
 70
     1
  9
$DIMTOH
 70
     1
  9
$DIMSE1
 70
     0
  9
$DIMSE2
 70
     0
  9
$DIMTAD
 70
     0
  9
$DIMZIN
 70
     0
  9
$DIMBLK
  1

  9
$LUNITS
 70
     2
  9
$LUPREC
 70
     4
  9
$AXISMODE
 70
     0
  9
$AXISUNIT
 10
0.0
 20
0.0
  9
$SKETCHINC
 40
0.1
  9
$FILLETRAD
 40
0.0
  9
$AUNITS
 70
     0
  9
$AUPREC
 70
     0
  9
$MENU
  1
ACAD
  9
$ELEVATION
 40
0.0
  9
$THICKNESS
 40
0.0
  9
$VIEWDIR
 10
0.0
 20
0.0
 30
1.0
  9
$LIMCHECK
 70
     0
  9
$BLIPMODE
 70
     1
  9
$CHAMFERA
 40
0.0
  9
$CHAMFERB
 40
0.0
  9
$FASTZOOM
 70
     1
  9
$SKPOLY
 70
     0
  9
$TDCREATE
 40
0.000000
  9
$TDUPDATE
 40
0.000000
  9
$TDINDWG
 40
0.0
  9
$TDUSRTIMER
 40
0.0
  9
$USRTIMER
 70
     1
  9
$ANGBASE
 50
0.0
  9
$ANGDIR
 70
     0
  9
$PDMODE
 70
     0
  9
$PDSIZE
 40
0.0
  9
$PLINEWID
 40
0.0
  9
$COORDS
 70
     0
  9
$USERI1
 70
     0
  9
$USERI2
 70
     0
  9
$USERI3
 70
     0
  9
$USERI4
 70
     0
  9
$USERI5
 70
     0
  9
$USERR1
 40
0.0
  9
$USERR2
 40
0.0
  9
$USERR3
 40
0.0
  9
$USERR4
 40
0.0
  9
$USERR5
 40
0.0
  0
ENDSEC
  0
SECTION
  2
TABLES
  0
TABLE
  2
LTYPE
 70
     9
  0
LTYPE
  2
CONTINUOUS
 70
    64
  3
Solid line
 72
    65
 73
     0
 40
0.0
  0
LTYPE
  2
DASHED
 70
    64
  3
__ __ __ __ __ __ __ __ __ __ __ __ __ __ __
 72
    65
 73
     2
 40
0.75
 49
0.5
 49
-0.25
  0
LTYPE
  2
HIDDEN
 70
    64
  3
_ _ _ _ _ _ _ _ _ _ _ _ _ _ _ _ _ _ _ _ _ _ _
 72
    65
 73
     2
 40
0.375
 49
0.25
 49
-0.125
  0
LTYPE
  2
DOT
 70
    64
  3
...............................................
 72
    65
 73
     2
 40
0.25
 49
0.0
 49
-0.25
  0
LTYPE
  2
DASHDOT
 70
    64
  3
__ . __ . __ . __ . __ . __ . __ . __ . __ . __
 72
    65
 73
     4
 40
1.0
 49
0.5
 49
-0.25
 49
0.0
 49
-0.25
  0
LTYPE
  2
DIVIDE
 70
    64
  3
__ . . __ . . __ . . __ . . __ . . __ . . __
 72
    65
 73
     6
 40
1.25
 49
0.5
 49
-0.25
 49
0.0
 49
-0.25
 49
0.0
 49
-0.25
  0
LTYPE
  2
CENTER
 70
    64
  3
____ _ ____ _ ____ _ ____ _ ____ _ ____ _ ____ 
 72
    65
 73
     4
 40
2.0
 49
1.25
 49
-0.25
 49
0.25
 49
-0.25
  0
LTYPE
  2
PHANTOM
 70
    64
  3
______  __  __  ______  __  __  ______  __  __ 
 72
    65
 73
     6
 40
2.5
 49
1.25
 49
-0.25
 49
0.25
 49
-0.25
 49
0.25
 49
-0.25
  0
LTYPE
  2
BORDER
 70
    64
  3
__ __ . __ __ . __ __ . __ __ . __ __ . __ __ .
 72
    65
 73
     6
 40
1.75
 49
0.5
 49
-0.25
 49
0.5
 49
-0.25
 49
0.0
 49
-0.25
  0
ENDTAB
  0
TABLE
  2
LAYER
 70
    16
  0
LAYER
  2
CSLAYER1
 70
    64
 62
     7
  6
CONTINUOUS
  0
LAYER
  2
CSLAYER2
 70
    64
 62
     7
  6
CONTINUOUS
  0
LAYER
  2
CSLAYER3
 70
    64
 62
     7
  6
CONTINUOUS
  0
LAYER
  2
CSLAYER4
 70
    64
 62
     7
  6
CONTINUOUS
  0
LAYER
  2
CSLAYER5
 70
    64
 62
     7
  6
CONTINUOUS
  0
LAYER
  2
CSLAYER6
 70
    64
 62
     7
  6
CONTINUOUS
  0
LAYER
  2
CSLAYER7
 70
    64
 62
     7
  6
CONTINUOUS
  0
LAYER
  2
CSLAYER8
 70
    64
 62
     7
  6
CONTINUOUS
  0
LAYER
  2
CSLAYER9
 70
    64
 62
     7
  6
CONTINUOUS
  0
LAYER
  2
CSLAYER10
 70
    64
 62
     7
  6
CONTINUOUS
  0
LAYER
  2
CSLAYER11
 70
    64
 62
     7
  6
CONTINUOUS
  0
LAYER
  2
CSLAYER12
 70
    64
 62
     7
  6
CONTINUOUS
  0
LAYER
  2
CSLAYER13
 70
    64
 62
     7
  6
CONTINUOUS
  0
LAYER
  2
CSLAYER14
 70
    64
 62
     7
  6
CONTINUOUS
  0
LAYER
  2
CSLAYER15
 70
    64
 62
     7
  6
CONTINUOUS
  0
LAYER
  2
CSLAYER16
 70
    64
 62
     7
  6
CONTINUOUS
  0
ENDTAB
  0
TABLE
  2
STYLE
 70
     1
  0
STYLE
  2
SX_FONT
 70
     0
 40
1.0
 41
1.0
 50
0.0
 71
     0
 42
1.0
  3
monotxt
  4
bigfont
  0
ENDTAB
  0
TABLE
  2
VIEW
 70
     0
  0
ENDTAB
  0
ENDSEC
  0
SECTION
  2
BLOCKS
  0
BLOCK
  8
CSLAYER1
  2
*D0000
 70
    65
 10
0.0
 20
0.0
 30
0.0
  0
LINE
  8
CSLAYER1
  6
CONTINUOUS
 62
     7
 10
91.937077
 20
171.515625
 11
91.937077
 21
176.608246
  0
LINE
  8
CSLAYER1
  6
CONTINUOUS
 62
     7
 10
109.937077
 20
171.515625
 11
109.937077
 21
176.608246
  0
LINE
  8
CSLAYER1
  6
CONTINUOUS
 62
     7
 10
91.937077
 20
175.608246
 11
109.937077
 21
175.608246
  0
LINE
  8
CSLAYER1
  6
CONTINUOUS
 62
     7
 10
91.937077
 20
175.608246
 11
95.800780
 21
176.643522
  0
LINE
  8
CSLAYER1
  6
CONTINUOUS
 62
     7
 10
91.937077
 20
175.608246
 11
95.800780
 21
174.572969
  0
LINE
  8
CSLAYER1
  6
CONTINUOUS
 62
     7
 10
109.937077
 20
175.608246
 11
106.073374
 21
176.643522
  0
LINE
  8
CSLAYER1
  6
CONTINUOUS
 62
     7
 10
109.937077
 20
175.608246
 11
106.073374
 21
174.572969
  0
TEXT
  8
CSLAYER1
 62
     7
 10
97.937080
 20
176.608246
 40
4.000000
 41
0.900000
  1
18
 50
0.000000
 51
0.000000
  7
SX_FONT
 72
     5
 11
103.937080
 21
176.608246
  0
ENDBLK
  8
0
  0
BLOCK
  8
CSLAYER1
  2
*D0001
 70
    65
 10
0.0
 20
0.0
 30
0.0
  0
LINE
  8
CSLAYER1
  6
CONTINUOUS
 62
     7
 10
115.937077
 20
155.515625
 11
121.100206
 21
155.515625
  0
LINE
  8
CSLAYER1
  6
CONTINUOUS
 62
     7
 10
115.937077
 20
165.515625
 11
121.100206
 21
165.515625
  0
LINE
  8
CSLAYER1
  6
CONTINUOUS
 62
     7
 10
120.100206
 20
155.515625
 11
120.100206
 21
165.515625
  0
LINE
  8
CSLAYER1
  6
CONTINUOUS
 62
     7
 10
120.100206
 20
149.515625
 11
120.100206
 21
155.515625
  0
LINE
  8
CSLAYER1
  6
CONTINUOUS
 62
     7
 10
120.100206
 20
155.515625
 11
119.064930
 21
151.651922
  0
LINE
  8
CSLAYER1
  6
CONTINUOUS
 62
     7
 10
120.100206
 20
155.515625
 11
121.135482
 21
151.651922
  0
LINE
  8
CSLAYER1
  6
CONTINUOUS
 62
     7
 10
120.100206
 20
165.515625
 11
120.100206
 21
171.515625
  0
LINE
  8
CSLAYER1
  6
CONTINUOUS
 62
     7
 10
120.100206
 20
165.515625
 11
119.064930
 21
169.379328
  0
LINE
  8
CSLAYER1
  6
CONTINUOUS
 62
     7
 10
120.100206
 20
165.515625
 11
121.135482
 21
169.379328
  0
TEXT
  8
CSLAYER1
 62
     7
 10
125.100204
 20
157.515625
 40
4.000000
 41
0.900000
  1
10
 50
90.000000
 51
0.000000
  7
SX_FONT
 72
     5
 11
125.100204
 21
163.515625
  0
ENDBLK
  8
0
  0
ENDSEC
  0
SECTION
  2
ENTITIES
  0
ARC
  8
CSLAYER2
  6
CONTINUOUS
 62
     7
 10
100.937077
 20
160.765625
 40
4.750000
 50
9.084720
 51
90.000000
  0
ARC
  8
CSLAYER2
  6
CONTINUOUS
 62
     7
 10
105.627493
 20
158.765625
 40
2.750000
 50
15.180436
 51
90.000000
  0
ARC
  8
CSLAYER2
  6
CONTINUOUS
 62
     7
 10
107.937077
 20
157.515625
 40
2.000000
 50
0.000000
 51
80.082581
  0
ARC
  8
CSLAYER2
  6
CONTINUOUS
 62
     7
 10
100.937077
 20
160.765625
 40
4.750000
 50
90.000000
 51
170.915280
  0
ARC
  8
CSLAYER2
  6
CONTINUOUS
 62
     7
 10
96.246661
 20
158.765625
 40
2.750000
 50
90.000000
 51
164.819564
  0
ARC
  8
CSLAYER2
  6
CONTINUOUS
 62
     7
 10
93.937077
 20
157.515625
 40
2.000000
 50
99.917419
 51
180.000000
  0
LINE
  8
CSLAYER2
  6
CONTINUOUS
 62
     7
 10
91.937077
 20
157.515625
 11
91.937077
 21
155.515625
  0
LINE
  8
CSLAYER2
  6
CONTINUOUS
 62
     7
 10
91.937077
 20
155.515625
 11
109.937077
 21
155.515625
  0
LINE
  8
CSLAYER2
  6
CONTINUOUS
 62
     7
 10
109.937077
 20
155.515625
 11
109.937077
 21
157.515625
  0
TEXT
  8
CSLAYER1
 62
     7
 10
91.897392
 20
95.671326
 40
10.000000
 41
0.630000
  1
FM-2010
 50
0.000000
 51
0.000000
  7
SX_FONT
 72
     5
 11
133.897392
 21
95.671326
  0
DIMENSION
  8
CSLAYER1
 62
     7
  2
*D0000
 10
109.937077
 20
175.608246
 11
100.937080
 21
176.608246
 13
91.937077
 23
170.515625
 14
109.937077
 24
170.515625
 70
1
  0
DIMENSION
  8
CSLAYER1
 62
     7
  2
*D0001
 10
120.100206
 20
165.515625
 11
121.100204
 21
160.515625
 13
114.937077
 23
155.515625
 14
114.937077
 24
165.515625
 50
90.000000
 70
1
  0
TEXT
  8
CSLAYER1
 62
     7
 10
141.894897
 20
95.539467
 40
10.000000
 41
0.642857
  1
18x10
 50
0.000000
 51
0.000000
  7
SX_FONT
 72
     5
 11
171.894897
 21
95.539467
  0
TEXT
  8
CSLAYER1
 62
     7
 10
92.443253
 20
84.367775
 40
5.000000
 41
0.612766
  1
カタログ Vol. 1  P43
 50
0.000000
 51
0.000000
  7
SX_FONT
 72
     5
 11
140.443253
 21
84.367775
  0
TEXT
  8
CSLAYER1
 62
     7
 10
92.817686
 20
74.996154
 40
4.960742
 41
0.729057
  1
ホ%%dケットカタロク゛ Vol. 1 P16
 50
0.000000
 51
0.000000
  7
SX_FONT
 72
     5
 11
167.562044
 21
74.996154
  0
ENDSEC
  0
EOF
