  0
SECTION
  2
HEADER
  9
$ACADVER
  1
AC1006
  9
$INSBASE
 10
87.202433
 20
146.306803
 30
0.0
  9
$EXTMIN
 10
87.202433
 20
146.306803
  9
$EXTMAX
 10
297.202433
 20
443.306803
  9
$LIMMIN
 10
87.202433
 20
146.306803
  9
$LIMMAX
 10
297.202433
 20
443.306803
  9
$VIEWCTR
 10
192.202433
 20
294.806803
  9
$VIEWSIZE
 40
297.000000
  9
$SNAPMODE
 70
     0
  9
$SNAPUNIT
 10
1.0
 20
1.0
  9
$SNAPBASE
 10
0.0
 20
0.0
  9
$SNAPANG
 50
0.0
  9
$SNAPSTYLE
 70
     0
  9
$SNAPISOPAIR
 70
     0
  9
$GRIDMODE
 70
     0
  9
$GRIDUNIT
 10
0.0
 20
0.0
  9
$ORTHOMODE
 70
     0
  9
$REGENMODE
 70
     1
  9
$FILLMODE
 70
     1
  9
$QTEXTMODE
 70
     0
  9
$DRAGMODE
 70
     2
  9
$LTSCALE
 40
15.000000
  9
$OSMODE
 70
     0
  9
$ATTMODE
 70
     1
  9
$TEXTSIZE
 40
0.2
  9
$TRACEWID
 40
0.05
  9
$TEXTSTYLE
  7
STANDARD
  9
$CLAYER
  8
CSLAYER3
  9
$CELTYPE
  6
BYLAYER
  9
$CECOLOR
 62
   256
  9
$DIMSCALE
 40
1.0
  9
$DIMASZ
 40
0.18
  9
$DIMEXO
 40
0.0625
  9
$DIMDLI
 40
0.38
  9
$DIMRND
 40
0.0
  9
$DIMDLE
 40
0.0
  9
$DIMEXE
 40
0.18
  9
$DIMTP
 40
0.0
  9
$DIMTM
 40
0.0
  9
$DIMTXT
 40
0.18
  9
$DIMCEN
 40
0.09
  9
$DIMTSZ
 40
0.0
  9
$DIMTOL
 70
     0
  9
$DIMLIM
 70
     0
  9
$DIMTIH
 70
     1
  9
$DIMTOH
 70
     1
  9
$DIMSE1
 70
     0
  9
$DIMSE2
 70
     0
  9
$DIMTAD
 70
     0
  9
$DIMZIN
 70
     0
  9
$DIMBLK
  1

  9
$LUNITS
 70
     2
  9
$LUPREC
 70
     4
  9
$AXISMODE
 70
     0
  9
$AXISUNIT
 10
0.0
 20
0.0
  9
$SKETCHINC
 40
0.1
  9
$FILLETRAD
 40
0.0
  9
$AUNITS
 70
     0
  9
$AUPREC
 70
     0
  9
$MENU
  1
ACAD
  9
$ELEVATION
 40
0.0
  9
$THICKNESS
 40
0.0
  9
$VIEWDIR
 10
0.0
 20
0.0
 30
1.0
  9
$LIMCHECK
 70
     0
  9
$BLIPMODE
 70
     1
  9
$CHAMFERA
 40
0.0
  9
$CHAMFERB
 40
0.0
  9
$FASTZOOM
 70
     1
  9
$SKPOLY
 70
     0
  9
$TDCREATE
 40
0.000000
  9
$TDUPDATE
 40
0.000000
  9
$TDINDWG
 40
0.0
  9
$TDUSRTIMER
 40
0.0
  9
$USRTIMER
 70
     1
  9
$ANGBASE
 50
0.0
  9
$ANGDIR
 70
     0
  9
$PDMODE
 70
     0
  9
$PDSIZE
 40
0.0
  9
$PLINEWID
 40
0.0
  9
$COORDS
 70
     0
  9
$USERI1
 70
     0
  9
$USERI2
 70
     0
  9
$USERI3
 70
     0
  9
$USERI4
 70
     0
  9
$USERI5
 70
     0
  9
$USERR1
 40
0.0
  9
$USERR2
 40
0.0
  9
$USERR3
 40
0.0
  9
$USERR4
 40
0.0
  9
$USERR5
 40
0.0
  0
ENDSEC
  0
SECTION
  2
TABLES
  0
TABLE
  2
LTYPE
 70
     9
  0
LTYPE
  2
CONTINUOUS
 70
    64
  3
Solid line
 72
    65
 73
     0
 40
0.0
  0
LTYPE
  2
DASHED
 70
    64
  3
__ __ __ __ __ __ __ __ __ __ __ __ __ __ __
 72
    65
 73
     2
 40
0.75
 49
0.5
 49
-0.25
  0
LTYPE
  2
HIDDEN
 70
    64
  3
_ _ _ _ _ _ _ _ _ _ _ _ _ _ _ _ _ _ _ _ _ _ _
 72
    65
 73
     2
 40
0.375
 49
0.25
 49
-0.125
  0
LTYPE
  2
DOT
 70
    64
  3
...............................................
 72
    65
 73
     2
 40
0.25
 49
0.0
 49
-0.25
  0
LTYPE
  2
DASHDOT
 70
    64
  3
__ . __ . __ . __ . __ . __ . __ . __ . __ . __
 72
    65
 73
     4
 40
1.0
 49
0.5
 49
-0.25
 49
0.0
 49
-0.25
  0
LTYPE
  2
DIVIDE
 70
    64
  3
__ . . __ . . __ . . __ . . __ . . __ . . __
 72
    65
 73
     6
 40
1.25
 49
0.5
 49
-0.25
 49
0.0
 49
-0.25
 49
0.0
 49
-0.25
  0
LTYPE
  2
CENTER
 70
    64
  3
____ _ ____ _ ____ _ ____ _ ____ _ ____ _ ____ 
 72
    65
 73
     4
 40
2.0
 49
1.25
 49
-0.25
 49
0.25
 49
-0.25
  0
LTYPE
  2
PHANTOM
 70
    64
  3
______  __  __  ______  __  __  ______  __  __ 
 72
    65
 73
     6
 40
2.5
 49
1.25
 49
-0.25
 49
0.25
 49
-0.25
 49
0.25
 49
-0.25
  0
LTYPE
  2
BORDER
 70
    64
  3
__ __ . __ __ . __ __ . __ __ . __ __ . __ __ .
 72
    65
 73
     6
 40
1.75
 49
0.5
 49
-0.25
 49
0.5
 49
-0.25
 49
0.0
 49
-0.25
  0
ENDTAB
  0
TABLE
  2
LAYER
 70
    16
  0
LAYER
  2
CSLAYER1
 70
    64
 62
     7
  6
CONTINUOUS
  0
LAYER
  2
CSLAYER2
 70
    64
 62
     7
  6
CONTINUOUS
  0
LAYER
  2
CSLAYER3
 70
    64
 62
     7
  6
CONTINUOUS
  0
LAYER
  2
CSLAYER4
 70
    64
 62
     7
  6
CONTINUOUS
  0
LAYER
  2
CSLAYER5
 70
    64
 62
     7
  6
CONTINUOUS
  0
LAYER
  2
CSLAYER6
 70
    64
 62
     7
  6
CONTINUOUS
  0
LAYER
  2
CSLAYER7
 70
    64
 62
     7
  6
CONTINUOUS
  0
LAYER
  2
CSLAYER8
 70
    64
 62
     7
  6
CONTINUOUS
  0
LAYER
  2
CSLAYER9
 70
    64
 62
     7
  6
CONTINUOUS
  0
LAYER
  2
CSLAYER10
 70
    64
 62
     7
  6
CONTINUOUS
  0
LAYER
  2
CSLAYER11
 70
    64
 62
     7
  6
CONTINUOUS
  0
LAYER
  2
CSLAYER12
 70
    64
 62
     7
  6
CONTINUOUS
  0
LAYER
  2
CSLAYER13
 70
    64
 62
     7
  6
CONTINUOUS
  0
LAYER
  2
CSLAYER14
 70
    64
 62
     7
  6
CONTINUOUS
  0
LAYER
  2
CSLAYER15
 70
    64
 62
     7
  6
CONTINUOUS
  0
LAYER
  2
CSLAYER16
 70
    64
 62
     7
  6
CONTINUOUS
  0
ENDTAB
  0
TABLE
  2
STYLE
 70
     1
  0
STYLE
  2
SX_FONT
 70
     0
 40
1.0
 41
1.0
 50
0.0
 71
     0
 42
1.0
  3
monotxt
  4
bigfont
  0
ENDTAB
  0
TABLE
  2
VIEW
 70
     0
  0
ENDTAB
  0
ENDSEC
  0
SECTION
  2
BLOCKS
  0
BLOCK
  8
CSLAYER1
  2
*D0000
 70
    65
 10
0.0
 20
0.0
 30
0.0
  0
LINE
  8
CSLAYER1
  6
CONTINUOUS
 62
     7
 10
87.519270
 20
164.290772
 11
87.519270
 21
169.494306
  0
LINE
  8
CSLAYER1
  6
CONTINUOUS
 62
     7
 10
108.519270
 20
164.290772
 11
108.519270
 21
169.494306
  0
LINE
  8
CSLAYER1
  6
CONTINUOUS
 62
     7
 10
87.519270
 20
168.494306
 11
108.519270
 21
168.494306
  0
LINE
  8
CSLAYER1
  6
CONTINUOUS
 62
     7
 10
87.519270
 20
168.494306
 11
91.382974
 21
169.529582
  0
LINE
  8
CSLAYER1
  6
CONTINUOUS
 62
     7
 10
87.519270
 20
168.494306
 11
91.382974
 21
167.459029
  0
LINE
  8
CSLAYER1
  6
CONTINUOUS
 62
     7
 10
108.519270
 20
168.494306
 11
104.655567
 21
169.529582
  0
LINE
  8
CSLAYER1
  6
CONTINUOUS
 62
     7
 10
108.519270
 20
168.494306
 11
104.655567
 21
167.459029
  0
TEXT
  8
CSLAYER1
 62
     7
 10
95.019272
 20
169.494308
 40
4.000000
 41
0.900000
  1
21
 50
0.000000
 51
0.000000
  7
SX_FONT
 72
     5
 11
101.019272
 21
169.494308
  0
ENDBLK
  8
0
  0
BLOCK
  8
CSLAYER1
  2
*D0001
 70
    65
 10
0.0
 20
0.0
 30
0.0
  0
LINE
  8
CSLAYER1
  6
CONTINUOUS
 62
     7
 10
114.519270
 20
146.290772
 11
119.447783
 21
146.290772
  0
LINE
  8
CSLAYER1
  6
CONTINUOUS
 62
     7
 10
114.519270
 20
158.290772
 11
119.447783
 21
158.290772
  0
LINE
  8
CSLAYER1
  6
CONTINUOUS
 62
     7
 10
118.447783
 20
146.290772
 11
118.447783
 21
158.290772
  0
LINE
  8
CSLAYER1
  6
CONTINUOUS
 62
     7
 10
118.447783
 20
140.290772
 11
118.447783
 21
146.290772
  0
LINE
  8
CSLAYER1
  6
CONTINUOUS
 62
     7
 10
118.447783
 20
146.290772
 11
117.412507
 21
142.427069
  0
LINE
  8
CSLAYER1
  6
CONTINUOUS
 62
     7
 10
118.447783
 20
146.290772
 11
119.483059
 21
142.427069
  0
LINE
  8
CSLAYER1
  6
CONTINUOUS
 62
     7
 10
118.447783
 20
158.290772
 11
118.447783
 21
164.290772
  0
LINE
  8
CSLAYER1
  6
CONTINUOUS
 62
     7
 10
118.447783
 20
158.290772
 11
117.412507
 21
162.154475
  0
LINE
  8
CSLAYER1
  6
CONTINUOUS
 62
     7
 10
118.447783
 20
158.290772
 11
119.483059
 21
162.154475
  0
TEXT
  8
CSLAYER1
 62
     7
 10
123.447784
 20
149.290771
 40
4.000000
 41
0.900000
  1
12
 50
90.000000
 51
0.000000
  7
SX_FONT
 72
     5
 11
123.447784
 21
155.290771
  0
ENDBLK
  8
0
  0
ENDSEC
  0
SECTION
  2
ENTITIES
  0
ARC
  8
CSLAYER2
  6
CONTINUOUS
 62
     7
 10
98.019270
 20
152.290772
 40
6.000000
 50
0.000000
 51
180.000000
  0
LINE
  8
CSLAYER2
  6
CONTINUOUS
 62
     7
 10
108.519270
 20
146.290772
 11
87.519270
 21
146.290772
  0
LINE
  8
CSLAYER2
  6
CONTINUOUS
 62
     7
 10
90.019270
 20
152.290772
 11
92.019270
 21
152.290772
  0
ARC
  8
CSLAYER2
  6
CONTINUOUS
 62
     7
 10
87.519270
 20
152.290772
 40
2.500000
 50
270.000000
 51
360.000000
  0
LINE
  8
CSLAYER2
  6
CONTINUOUS
 62
     7
 10
87.519270
 20
149.790772
 11
87.519270
 21
146.290772
  0
ARC
  8
CSLAYER2
  6
CONTINUOUS
 62
     7
 10
108.519270
 20
152.290772
 40
2.500000
 50
180.000000
 51
270.000000
  0
LINE
  8
CSLAYER2
  6
CONTINUOUS
 62
     7
 10
106.019270
 20
152.290772
 11
104.019270
 21
152.290772
  0
LINE
  8
CSLAYER2
  6
CONTINUOUS
 62
     7
 10
108.519270
 20
149.790772
 11
108.519270
 21
146.290772
  0
TEXT
  8
CSLAYER1
 62
     7
 10
87.623344
 20
86.031059
 40
10.000000
 41
0.630000
  1
FM-2007
 50
0.000000
 51
0.000000
  7
SX_FONT
 72
     5
 11
129.623344
 21
86.031059
  0
DIMENSION
  8
CSLAYER1
 62
     7
  2
*D0000
 10
108.519270
 20
168.494306
 11
98.019272
 21
169.494308
 13
87.519270
 23
163.290772
 14
108.519270
 24
163.290772
 70
1
  0
DIMENSION
  8
CSLAYER1
 62
     7
  2
*D0001
 10
118.447783
 20
158.290772
 11
119.447784
 21
152.290771
 13
113.519270
 23
146.290772
 14
113.519270
 24
158.290772
 50
90.000000
 70
1
  0
TEXT
  8
CSLAYER1
 62
     7
 10
140.712433
 20
85.950798
 40
10.000000
 41
0.642857
  1
21x12
 50
0.000000
 51
0.000000
  7
SX_FONT
 72
     5
 11
170.712433
 21
85.950798
  0
TEXT
  8
CSLAYER1
 62
     7
 10
88.514091
 20
74.942749
 40
5.000000
 41
0.612766
  1
カタログ Vol. 1  P43
 50
0.000000
 51
0.000000
  7
SX_FONT
 72
     5
 11
136.514091
 21
74.942749
  0
TEXT
  8
CSLAYER1
 62
     7
 10
88.480200
 20
65.707236
 40
4.960742
 41
0.729057
  1
ホ%%dケットカタロク゛ Vol. 1 P16
 50
0.000000
 51
0.000000
  7
SX_FONT
 72
     5
 11
163.224558
 21
65.707236
  0
ENDSEC
  0
EOF
