  0
SECTION
  2
HEADER
  9
$ACADVER
  1
AC1006
  9
$INSBASE
 10
73.216553
 20
145.067871
 30
0.0
  9
$EXTMIN
 10
73.216553
 20
145.067871
  9
$EXTMAX
 10
283.216553
 20
442.067871
  9
$LIMMIN
 10
73.216553
 20
145.067871
  9
$LIMMAX
 10
283.216553
 20
442.067871
  9
$VIEWCTR
 10
178.216553
 20
293.567871
  9
$VIEWSIZE
 40
297.000000
  9
$SNAPMODE
 70
     0
  9
$SNAPUNIT
 10
1.0
 20
1.0
  9
$SNAPBASE
 10
0.0
 20
0.0
  9
$SNAPANG
 50
0.0
  9
$SNAPSTYLE
 70
     0
  9
$SNAPISOPAIR
 70
     0
  9
$GRIDMODE
 70
     0
  9
$GRIDUNIT
 10
0.0
 20
0.0
  9
$ORTHOMODE
 70
     0
  9
$REGENMODE
 70
     1
  9
$FILLMODE
 70
     1
  9
$QTEXTMODE
 70
     0
  9
$DRAGMODE
 70
     2
  9
$LTSCALE
 40
15.000000
  9
$OSMODE
 70
     0
  9
$ATTMODE
 70
     1
  9
$TEXTSIZE
 40
0.2
  9
$TRACEWID
 40
0.05
  9
$TEXTSTYLE
  7
STANDARD
  9
$CLAYER
  8
CSLAYER3
  9
$CELTYPE
  6
BYLAYER
  9
$CECOLOR
 62
   256
  9
$DIMSCALE
 40
1.0
  9
$DIMASZ
 40
0.18
  9
$DIMEXO
 40
0.0625
  9
$DIMDLI
 40
0.38
  9
$DIMRND
 40
0.0
  9
$DIMDLE
 40
0.0
  9
$DIMEXE
 40
0.18
  9
$DIMTP
 40
0.0
  9
$DIMTM
 40
0.0
  9
$DIMTXT
 40
0.18
  9
$DIMCEN
 40
0.09
  9
$DIMTSZ
 40
0.0
  9
$DIMTOL
 70
     0
  9
$DIMLIM
 70
     0
  9
$DIMTIH
 70
     1
  9
$DIMTOH
 70
     1
  9
$DIMSE1
 70
     0
  9
$DIMSE2
 70
     0
  9
$DIMTAD
 70
     0
  9
$DIMZIN
 70
     0
  9
$DIMBLK
  1

  9
$LUNITS
 70
     2
  9
$LUPREC
 70
     4
  9
$AXISMODE
 70
     0
  9
$AXISUNIT
 10
0.0
 20
0.0
  9
$SKETCHINC
 40
0.1
  9
$FILLETRAD
 40
0.0
  9
$AUNITS
 70
     0
  9
$AUPREC
 70
     0
  9
$MENU
  1
ACAD
  9
$ELEVATION
 40
0.0
  9
$THICKNESS
 40
0.0
  9
$VIEWDIR
 10
0.0
 20
0.0
 30
1.0
  9
$LIMCHECK
 70
     0
  9
$BLIPMODE
 70
     1
  9
$CHAMFERA
 40
0.0
  9
$CHAMFERB
 40
0.0
  9
$FASTZOOM
 70
     1
  9
$SKPOLY
 70
     0
  9
$TDCREATE
 40
0.000000
  9
$TDUPDATE
 40
0.000000
  9
$TDINDWG
 40
0.0
  9
$TDUSRTIMER
 40
0.0
  9
$USRTIMER
 70
     1
  9
$ANGBASE
 50
0.0
  9
$ANGDIR
 70
     0
  9
$PDMODE
 70
     0
  9
$PDSIZE
 40
0.0
  9
$PLINEWID
 40
0.0
  9
$COORDS
 70
     0
  9
$USERI1
 70
     0
  9
$USERI2
 70
     0
  9
$USERI3
 70
     0
  9
$USERI4
 70
     0
  9
$USERI5
 70
     0
  9
$USERR1
 40
0.0
  9
$USERR2
 40
0.0
  9
$USERR3
 40
0.0
  9
$USERR4
 40
0.0
  9
$USERR5
 40
0.0
  0
ENDSEC
  0
SECTION
  2
TABLES
  0
TABLE
  2
LTYPE
 70
     9
  0
LTYPE
  2
CONTINUOUS
 70
    64
  3
Solid line
 72
    65
 73
     0
 40
0.0
  0
LTYPE
  2
DASHED
 70
    64
  3
__ __ __ __ __ __ __ __ __ __ __ __ __ __ __
 72
    65
 73
     2
 40
0.75
 49
0.5
 49
-0.25
  0
LTYPE
  2
HIDDEN
 70
    64
  3
_ _ _ _ _ _ _ _ _ _ _ _ _ _ _ _ _ _ _ _ _ _ _
 72
    65
 73
     2
 40
0.375
 49
0.25
 49
-0.125
  0
LTYPE
  2
DOT
 70
    64
  3
...............................................
 72
    65
 73
     2
 40
0.25
 49
0.0
 49
-0.25
  0
LTYPE
  2
DASHDOT
 70
    64
  3
__ . __ . __ . __ . __ . __ . __ . __ . __ . __
 72
    65
 73
     4
 40
1.0
 49
0.5
 49
-0.25
 49
0.0
 49
-0.25
  0
LTYPE
  2
DIVIDE
 70
    64
  3
__ . . __ . . __ . . __ . . __ . . __ . . __
 72
    65
 73
     6
 40
1.25
 49
0.5
 49
-0.25
 49
0.0
 49
-0.25
 49
0.0
 49
-0.25
  0
LTYPE
  2
CENTER
 70
    64
  3
____ _ ____ _ ____ _ ____ _ ____ _ ____ _ ____ 
 72
    65
 73
     4
 40
2.0
 49
1.25
 49
-0.25
 49
0.25
 49
-0.25
  0
LTYPE
  2
PHANTOM
 70
    64
  3
______  __  __  ______  __  __  ______  __  __ 
 72
    65
 73
     6
 40
2.5
 49
1.25
 49
-0.25
 49
0.25
 49
-0.25
 49
0.25
 49
-0.25
  0
LTYPE
  2
BORDER
 70
    64
  3
__ __ . __ __ . __ __ . __ __ . __ __ . __ __ .
 72
    65
 73
     6
 40
1.75
 49
0.5
 49
-0.25
 49
0.5
 49
-0.25
 49
0.0
 49
-0.25
  0
ENDTAB
  0
TABLE
  2
LAYER
 70
    16
  0
LAYER
  2
CSLAYER1
 70
    64
 62
     7
  6
CONTINUOUS
  0
LAYER
  2
CSLAYER2
 70
    64
 62
     7
  6
CONTINUOUS
  0
LAYER
  2
CSLAYER3
 70
    64
 62
     7
  6
CONTINUOUS
  0
LAYER
  2
CSLAYER4
 70
    64
 62
     7
  6
CONTINUOUS
  0
LAYER
  2
CSLAYER5
 70
    64
 62
     7
  6
CONTINUOUS
  0
LAYER
  2
CSLAYER6
 70
    64
 62
     7
  6
CONTINUOUS
  0
LAYER
  2
CSLAYER7
 70
    64
 62
     7
  6
CONTINUOUS
  0
LAYER
  2
CSLAYER8
 70
    64
 62
     7
  6
CONTINUOUS
  0
LAYER
  2
CSLAYER9
 70
    64
 62
     7
  6
CONTINUOUS
  0
LAYER
  2
CSLAYER10
 70
    64
 62
     7
  6
CONTINUOUS
  0
LAYER
  2
CSLAYER11
 70
    64
 62
     7
  6
CONTINUOUS
  0
LAYER
  2
CSLAYER12
 70
    64
 62
     7
  6
CONTINUOUS
  0
LAYER
  2
CSLAYER13
 70
    64
 62
     7
  6
CONTINUOUS
  0
LAYER
  2
CSLAYER14
 70
    64
 62
     7
  6
CONTINUOUS
  0
LAYER
  2
CSLAYER15
 70
    64
 62
     7
  6
CONTINUOUS
  0
LAYER
  2
CSLAYER16
 70
    64
 62
     7
  6
CONTINUOUS
  0
ENDTAB
  0
TABLE
  2
STYLE
 70
     1
  0
STYLE
  2
SX_FONT
 70
     0
 40
1.0
 41
1.0
 50
0.0
 71
     0
 42
1.0
  3
monotxt
  4
bigfont
  0
ENDTAB
  0
TABLE
  2
VIEW
 70
     0
  0
ENDTAB
  0
ENDSEC
  0
SECTION
  2
BLOCKS
  0
BLOCK
  8
CSLAYER1
  2
*D0000
 70
    65
 10
0.0
 20
0.0
 30
0.0
  0
LINE
  8
CSLAYER1
  6
CONTINUOUS
 62
     7
 10
72.257813
 20
211.921875
 11
72.257813
 21
216.973257
  0
LINE
  8
CSLAYER1
  6
CONTINUOUS
 62
     7
 10
132.257813
 20
211.921875
 11
132.257813
 21
216.973257
  0
LINE
  8
CSLAYER1
  6
CONTINUOUS
 62
     7
 10
72.257813
 20
215.973257
 11
132.257813
 21
215.973257
  0
LINE
  8
CSLAYER1
  6
CONTINUOUS
 62
     7
 10
72.257813
 20
215.973257
 11
76.121516
 21
217.008533
  0
LINE
  8
CSLAYER1
  6
CONTINUOUS
 62
     7
 10
72.257813
 20
215.973257
 11
76.121516
 21
214.937981
  0
LINE
  8
CSLAYER1
  6
CONTINUOUS
 62
     7
 10
132.257813
 20
215.973257
 11
128.394109
 21
217.008533
  0
LINE
  8
CSLAYER1
  6
CONTINUOUS
 62
     7
 10
132.257813
 20
215.973257
 11
128.394109
 21
214.937981
  0
TEXT
  8
CSLAYER1
 62
     7
 10
99.257813
 20
216.973251
 40
4.000000
 41
0.900000
  1
60
 50
0.000000
 51
0.000000
  7
SX_FONT
 72
     5
 11
105.257813
 21
216.973251
  0
ENDBLK
  8
0
  0
BLOCK
  8
CSLAYER1
  2
*D0001
 70
    65
 10
0.0
 20
0.0
 30
0.0
  0
LINE
  8
CSLAYER1
  6
CONTINUOUS
 62
     7
 10
138.257813
 20
145.921875
 11
143.644476
 21
145.921875
  0
LINE
  8
CSLAYER1
  6
CONTINUOUS
 62
     7
 10
138.257813
 20
205.921875
 11
143.644476
 21
205.921875
  0
LINE
  8
CSLAYER1
  6
CONTINUOUS
 62
     7
 10
142.644476
 20
145.921875
 11
142.644476
 21
205.921875
  0
LINE
  8
CSLAYER1
  6
CONTINUOUS
 62
     7
 10
142.644476
 20
145.921875
 11
141.609200
 21
149.785578
  0
LINE
  8
CSLAYER1
  6
CONTINUOUS
 62
     7
 10
142.644476
 20
145.921875
 11
143.679752
 21
149.785578
  0
LINE
  8
CSLAYER1
  6
CONTINUOUS
 62
     7
 10
142.644476
 20
205.921875
 11
141.609200
 21
202.058172
  0
LINE
  8
CSLAYER1
  6
CONTINUOUS
 62
     7
 10
142.644476
 20
205.921875
 11
143.679752
 21
202.058172
  0
TEXT
  8
CSLAYER1
 62
     7
 10
148.033615
 20
172.554657
 40
4.000000
 41
0.900000
  1
60
 50
90.000000
 51
0.000000
  7
SX_FONT
 72
     5
 11
148.033615
 21
178.554657
  0
ENDBLK
  8
0
  0
ENDSEC
  0
SECTION
  2
ENTITIES
  0
LINE
  8
CSLAYER1
  6
CONTINUOUS
 62
     7
 10
72.257813
 20
205.921875
 11
72.257813
 21
145.921875
  0
LINE
  8
CSLAYER1
  6
CONTINUOUS
 62
     7
 10
72.257813
 20
145.921875
 11
132.257813
 21
145.921875
  0
ARC
  8
CSLAYER1
  6
CONTINUOUS
 62
     7
 10
72.257813
 20
145.921875
 40
60.000000
 50
0.000000
 51
90.000000
  0
TEXT
  8
CSLAYER1
 62
     7
 10
72.658882
 20
83.053131
 40
12.000000
 41
0.695652
  1
FHR-5048
 50
0.000000
 51
0.000000
  7
SX_FONT
 72
     5
 11
136.658882
 21
83.053131
  0
DIMENSION
  8
CSLAYER1
 62
     7
  2
*D0000
 10
132.257813
 20
215.973257
 11
102.257813
 21
216.973251
 13
72.257813
 23
210.921875
 14
132.257813
 24
210.921875
 70
1
  0
DIMENSION
  8
CSLAYER1
 62
     7
  2
*D0001
 10
142.644476
 20
205.921875
 11
148.033615
 21
175.554657
 13
137.257813
 23
145.921875
 14
137.257813
 24
205.921875
 50
90.000000
 70
1
  0
TEXT
  8
CSLAYER1
 62
     7
 10
73.865265
 20
67.458249
 40
5.547002
 41
0.589931
  1
カタログ Vol. 1  P88
 50
0.000000
 51
0.000000
  7
SX_FONT
 72
     5
 11
125.132050
 21
67.458249
  0
TEXT
  8
CSLAYER1
 62
     7
 10
146.438080
 20
82.469742
 40
12.000000
 41
0.714286
  1
60x60
 50
0.000000
 51
0.000000
  7
SX_FONT
 72
     5
 11
186.438080
 21
82.469742
  0
TEXT
  8
CSLAYER1
 62
     7
 10
73.491759
 20
59.342589
 40
4.960742
 41
0.729057
  1
ホ%%dケットカタロク゛ Vol. 1 P62
 50
0.000000
 51
0.000000
  7
SX_FONT
 72
     5
 11
148.236116
 21
59.342589
  0
ENDSEC
  0
EOF
