  0
SECTION
  2
HEADER
  9
$ACADVER
  1
AC1006
  9
$INSBASE
 10
58.851562
 20
266.578125
 30
0.0
  9
$EXTMIN
 10
58.851562
 20
266.578125
  9
$EXTMAX
 10
268.851563
 20
563.578125
  9
$LIMMIN
 10
58.851562
 20
266.578125
  9
$LIMMAX
 10
268.851563
 20
563.578125
  9
$VIEWCTR
 10
163.851563
 20
415.078125
  9
$VIEWSIZE
 40
297.000000
  9
$SNAPMODE
 70
     0
  9
$SNAPUNIT
 10
1.0
 20
1.0
  9
$SNAPBASE
 10
0.0
 20
0.0
  9
$SNAPANG
 50
0.0
  9
$SNAPSTYLE
 70
     0
  9
$SNAPISOPAIR
 70
     0
  9
$GRIDMODE
 70
     0
  9
$GRIDUNIT
 10
0.0
 20
0.0
  9
$ORTHOMODE
 70
     0
  9
$REGENMODE
 70
     1
  9
$FILLMODE
 70
     1
  9
$QTEXTMODE
 70
     0
  9
$DRAGMODE
 70
     2
  9
$LTSCALE
 40
15.000000
  9
$OSMODE
 70
     0
  9
$ATTMODE
 70
     1
  9
$TEXTSIZE
 40
0.2
  9
$TRACEWID
 40
0.05
  9
$TEXTSTYLE
  7
STANDARD
  9
$CLAYER
  8
CSLAYER3
  9
$CELTYPE
  6
BYLAYER
  9
$CECOLOR
 62
   256
  9
$DIMSCALE
 40
1.0
  9
$DIMASZ
 40
0.18
  9
$DIMEXO
 40
0.0625
  9
$DIMDLI
 40
0.38
  9
$DIMRND
 40
0.0
  9
$DIMDLE
 40
0.0
  9
$DIMEXE
 40
0.18
  9
$DIMTP
 40
0.0
  9
$DIMTM
 40
0.0
  9
$DIMTXT
 40
0.18
  9
$DIMCEN
 40
0.09
  9
$DIMTSZ
 40
0.0
  9
$DIMTOL
 70
     0
  9
$DIMLIM
 70
     0
  9
$DIMTIH
 70
     1
  9
$DIMTOH
 70
     1
  9
$DIMSE1
 70
     0
  9
$DIMSE2
 70
     0
  9
$DIMTAD
 70
     0
  9
$DIMZIN
 70
     0
  9
$DIMBLK
  1

  9
$LUNITS
 70
     2
  9
$LUPREC
 70
     4
  9
$AXISMODE
 70
     0
  9
$AXISUNIT
 10
0.0
 20
0.0
  9
$SKETCHINC
 40
0.1
  9
$FILLETRAD
 40
0.0
  9
$AUNITS
 70
     0
  9
$AUPREC
 70
     0
  9
$MENU
  1
ACAD
  9
$ELEVATION
 40
0.0
  9
$THICKNESS
 40
0.0
  9
$VIEWDIR
 10
0.0
 20
0.0
 30
1.0
  9
$LIMCHECK
 70
     0
  9
$BLIPMODE
 70
     1
  9
$CHAMFERA
 40
0.0
  9
$CHAMFERB
 40
0.0
  9
$FASTZOOM
 70
     1
  9
$SKPOLY
 70
     0
  9
$TDCREATE
 40
0.000000
  9
$TDUPDATE
 40
0.000000
  9
$TDINDWG
 40
0.0
  9
$TDUSRTIMER
 40
0.0
  9
$USRTIMER
 70
     1
  9
$ANGBASE
 50
0.0
  9
$ANGDIR
 70
     0
  9
$PDMODE
 70
     0
  9
$PDSIZE
 40
0.0
  9
$PLINEWID
 40
0.0
  9
$COORDS
 70
     0
  9
$USERI1
 70
     0
  9
$USERI2
 70
     0
  9
$USERI3
 70
     0
  9
$USERI4
 70
     0
  9
$USERI5
 70
     0
  9
$USERR1
 40
0.0
  9
$USERR2
 40
0.0
  9
$USERR3
 40
0.0
  9
$USERR4
 40
0.0
  9
$USERR5
 40
0.0
  0
ENDSEC
  0
SECTION
  2
TABLES
  0
TABLE
  2
LTYPE
 70
     9
  0
LTYPE
  2
CONTINUOUS
 70
    64
  3
Solid line
 72
    65
 73
     0
 40
0.0
  0
LTYPE
  2
DASHED
 70
    64
  3
__ __ __ __ __ __ __ __ __ __ __ __ __ __ __
 72
    65
 73
     2
 40
0.75
 49
0.5
 49
-0.25
  0
LTYPE
  2
HIDDEN
 70
    64
  3
_ _ _ _ _ _ _ _ _ _ _ _ _ _ _ _ _ _ _ _ _ _ _
 72
    65
 73
     2
 40
0.375
 49
0.25
 49
-0.125
  0
LTYPE
  2
DOT
 70
    64
  3
...............................................
 72
    65
 73
     2
 40
0.25
 49
0.0
 49
-0.25
  0
LTYPE
  2
DASHDOT
 70
    64
  3
__ . __ . __ . __ . __ . __ . __ . __ . __ . __
 72
    65
 73
     4
 40
1.0
 49
0.5
 49
-0.25
 49
0.0
 49
-0.25
  0
LTYPE
  2
DIVIDE
 70
    64
  3
__ . . __ . . __ . . __ . . __ . . __ . . __
 72
    65
 73
     6
 40
1.25
 49
0.5
 49
-0.25
 49
0.0
 49
-0.25
 49
0.0
 49
-0.25
  0
LTYPE
  2
CENTER
 70
    64
  3
____ _ ____ _ ____ _ ____ _ ____ _ ____ _ ____ 
 72
    65
 73
     4
 40
2.0
 49
1.25
 49
-0.25
 49
0.25
 49
-0.25
  0
LTYPE
  2
PHANTOM
 70
    64
  3
______  __  __  ______  __  __  ______  __  __ 
 72
    65
 73
     6
 40
2.5
 49
1.25
 49
-0.25
 49
0.25
 49
-0.25
 49
0.25
 49
-0.25
  0
LTYPE
  2
BORDER
 70
    64
  3
__ __ . __ __ . __ __ . __ __ . __ __ . __ __ .
 72
    65
 73
     6
 40
1.75
 49
0.5
 49
-0.25
 49
0.5
 49
-0.25
 49
0.0
 49
-0.25
  0
ENDTAB
  0
TABLE
  2
LAYER
 70
    16
  0
LAYER
  2
CSLAYER1
 70
    64
 62
     7
  6
CONTINUOUS
  0
LAYER
  2
CSLAYER2
 70
    64
 62
     7
  6
CONTINUOUS
  0
LAYER
  2
CSLAYER3
 70
    64
 62
     7
  6
CONTINUOUS
  0
LAYER
  2
CSLAYER4
 70
    64
 62
     7
  6
CONTINUOUS
  0
LAYER
  2
CSLAYER5
 70
    64
 62
     7
  6
CONTINUOUS
  0
LAYER
  2
CSLAYER6
 70
    64
 62
     7
  6
CONTINUOUS
  0
LAYER
  2
CSLAYER7
 70
    64
 62
     7
  6
CONTINUOUS
  0
LAYER
  2
CSLAYER8
 70
    64
 62
     7
  6
CONTINUOUS
  0
LAYER
  2
CSLAYER9
 70
    64
 62
     7
  6
CONTINUOUS
  0
LAYER
  2
CSLAYER10
 70
    64
 62
     7
  6
CONTINUOUS
  0
LAYER
  2
CSLAYER11
 70
    64
 62
     7
  6
CONTINUOUS
  0
LAYER
  2
CSLAYER12
 70
    64
 62
     7
  6
CONTINUOUS
  0
LAYER
  2
CSLAYER13
 70
    64
 62
     7
  6
CONTINUOUS
  0
LAYER
  2
CSLAYER14
 70
    64
 62
     7
  6
CONTINUOUS
  0
LAYER
  2
CSLAYER15
 70
    64
 62
     7
  6
CONTINUOUS
  0
LAYER
  2
CSLAYER16
 70
    64
 62
     7
  6
CONTINUOUS
  0
ENDTAB
  0
TABLE
  2
STYLE
 70
     1
  0
STYLE
  2
SX_FONT
 70
     0
 40
1.0
 41
1.0
 50
0.0
 71
     0
 42
1.0
  3
monotxt
  4
bigfont
  0
ENDTAB
  0
TABLE
  2
VIEW
 70
     0
  0
ENDTAB
  0
ENDSEC
  0
SECTION
  2
BLOCKS
  0
BLOCK
  8
CSLAYER1
  2
*D0000
 70
    65
 10
0.0
 20
0.0
 30
0.0
  0
LINE
  8
CSLAYER1
  6
CONTINUOUS
 62
     7
 10
73.289063
 20
171.406250
 11
73.289063
 21
176.568993
  0
LINE
  8
CSLAYER1
  6
CONTINUOUS
 62
     7
 10
93.289063
 20
171.406250
 11
93.289063
 21
176.568993
  0
LINE
  8
CSLAYER1
  6
CONTINUOUS
 62
     7
 10
73.289063
 20
175.568993
 11
93.289063
 21
175.568993
  0
LINE
  8
CSLAYER1
  6
CONTINUOUS
 62
     7
 10
73.289063
 20
175.568993
 11
77.152766
 21
176.604269
  0
LINE
  8
CSLAYER1
  6
CONTINUOUS
 62
     7
 10
73.289063
 20
175.568993
 11
77.152766
 21
174.533717
  0
LINE
  8
CSLAYER1
  6
CONTINUOUS
 62
     7
 10
93.289063
 20
175.568993
 11
89.425359
 21
176.604269
  0
LINE
  8
CSLAYER1
  6
CONTINUOUS
 62
     7
 10
93.289063
 20
175.568993
 11
89.425359
 21
174.533717
  0
TEXT
  8
CSLAYER1
 62
     7
 10
80.289063
 20
176.569000
 40
4.000000
 41
0.900000
  1
20
 50
0.000000
 51
0.000000
  7
SX_FONT
 72
     5
 11
86.289063
 21
176.569000
  0
ENDBLK
  8
0
  0
BLOCK
  8
CSLAYER1
  2
*D0001
 70
    65
 10
0.0
 20
0.0
 30
0.0
  0
LINE
  8
CSLAYER1
  6
CONTINUOUS
 62
     7
 10
99.289063
 20
145.406250
 11
104.224120
 21
145.406250
  0
LINE
  8
CSLAYER1
  6
CONTINUOUS
 62
     7
 10
99.289063
 20
165.406250
 11
104.224120
 21
165.406250
  0
LINE
  8
CSLAYER1
  6
CONTINUOUS
 62
     7
 10
103.224120
 20
145.406250
 11
103.224120
 21
165.406250
  0
LINE
  8
CSLAYER1
  6
CONTINUOUS
 62
     7
 10
103.224120
 20
145.406250
 11
102.188843
 21
149.269953
  0
LINE
  8
CSLAYER1
  6
CONTINUOUS
 62
     7
 10
103.224120
 20
145.406250
 11
104.259396
 21
149.269953
  0
LINE
  8
CSLAYER1
  6
CONTINUOUS
 62
     7
 10
103.224120
 20
165.406250
 11
102.188843
 21
161.542547
  0
LINE
  8
CSLAYER1
  6
CONTINUOUS
 62
     7
 10
103.224120
 20
165.406250
 11
104.259396
 21
161.542547
  0
TEXT
  8
CSLAYER1
 62
     7
 10
108.435539
 20
152.157608
 40
4.000000
 41
0.900000
  1
20
 50
90.000000
 51
0.000000
  7
SX_FONT
 72
     5
 11
108.435539
 21
158.157608
  0
ENDBLK
  8
0
  0
ENDSEC
  0
SECTION
  2
ENTITIES
  0
LINE
  8
CSLAYER1
  6
CONTINUOUS
 62
     7
 10
73.289063
 20
165.406250
 11
73.289063
 21
145.406250
  0
LINE
  8
CSLAYER1
  6
CONTINUOUS
 62
     7
 10
73.289063
 20
145.406250
 11
93.289063
 21
145.406250
  0
ARC
  8
CSLAYER1
  6
CONTINUOUS
 62
     7
 10
73.289063
 20
145.406250
 40
20.000000
 50
0.000000
 51
90.000000
  0
TEXT
  8
CSLAYER1
 62
     7
 10
73.715164
 20
81.614113
 40
12.000000
 41
0.695652
  1
FHR-5043
 50
0.000000
 51
0.000000
  7
SX_FONT
 72
     5
 11
137.715164
 21
81.614113
  0
DIMENSION
  8
CSLAYER1
 62
     7
  2
*D0000
 10
93.289063
 20
175.568993
 11
83.289063
 21
176.569000
 13
73.289063
 23
170.406250
 14
93.289063
 24
170.406250
 70
1
  0
DIMENSION
  8
CSLAYER1
 62
     7
  2
*D0001
 10
103.224120
 20
165.406250
 11
108.435539
 21
155.157608
 13
98.289063
 23
145.406250
 14
98.289063
 24
165.406250
 50
90.000000
 70
1
  0
TEXT
  8
CSLAYER1
 62
     7
 10
74.133614
 20
67.197240
 40
5.547002
 41
0.589931
  1
カタログ Vol. 1  P88
 50
0.000000
 51
0.000000
  7
SX_FONT
 72
     5
 11
125.400398
 21
67.197240
  0
TEXT
  8
CSLAYER1
 62
     7
 10
146.706421
 20
82.208733
 40
12.000000
 41
0.714286
  1
20x20
 50
0.000000
 51
0.000000
  7
SX_FONT
 72
     5
 11
186.706421
 21
82.208733
  0
TEXT
  8
CSLAYER1
 62
     7
 10
73.953886
 20
57.472628
 40
4.960742
 41
0.729057
  1
ホ%%dケットカタロク゛ Vol. 1 P62
 50
0.000000
 51
0.000000
  7
SX_FONT
 72
     5
 11
148.698244
 21
57.472628
  0
ENDSEC
  0
EOF
